osu file format v14

[General]
AudioFilename: audio.mp3
AudioLeadIn: 0
PreviewTime: 52758
Countdown: 0
SampleSet: Soft
StackLeniency: 0.7
Mode: 0
LetterboxInBreaks: 0
WidescreenStoryboard: 1

[Editor]
DistanceSpacing: 1
BeatDivisor: 4
GridSize: 4
TimelineZoom: 2

[Metadata]
Title:Someone Special
TitleUnicode:Someone Special
Artist:tomatoism
ArtistUnicode:tomatoism
Creator:Jiysea
Version:H y p e r
Source:
Tags:future funk simple tech dochakuso records female vocal chops japanese electronic DCKS-0049 OTAKIBA tokyo girls' style reflection lecandy
BeatmapID:2662927
BeatmapSetID:1282080

[Difficulty]
HPDrainRate:4
CircleSize:3.4
OverallDifficulty:6
ApproachRate:8
SliderMultiplier:1.8
SliderTickRate:1

[Events]
//Background and Video events
0,0,"shinobu.jpg",0,0
//Break Periods
2,85635,88179
2,131868,144069
//Storyboard Layer 0 (Background)
//Storyboard Layer 1 (Fail)
//Storyboard Layer 2 (Pass)
//Storyboard Layer 3 (Foreground)
//Storyboard Layer 4 (Overlay)
//Storyboard Sound Samples

[TimingPoints]
162,410.958904109589,4,2,1,5,1,0
6737,-133.333333333333,4,2,1,15,0,0
10025,-133.333333333333,4,2,1,30,0,0
11668,-133.333333333333,4,2,1,45,0,0
12490,-133.333333333333,4,2,1,5,0,0
13312,-83.3333333333333,4,2,1,70,0,0
13518,-83.3333333333333,4,2,3,70,0,0
13723,-100,4,2,3,70,0,0
15983,-100,4,2,15,50,0,0
16189,-100,4,2,3,70,0,0
16394,-100,4,2,15,50,0,0
16600,-100,4,2,3,70,0,0
19066,-83.3333333333333,4,2,3,70,0,0
19374,-83.3333333333333,4,2,3,5,0,0
19477,-83.3333333333333,4,2,3,70,0,0
19785,-83.3333333333333,4,2,3,5,0,0
19888,-100,4,2,3,70,0,0
22559,-100,4,2,15,50,0,0
22764,-100,4,2,3,70,0,0
22970,-100,4,2,15,50,0,0
23175,-100,4,2,3,70,0,0
26052,-100,4,2,2,70,0,0
26463,-133.333333333333,4,2,3,50,0,0
29648,-133.333333333333,4,2,3,5,0,0
29751,-133.333333333333,4,2,3,50,0,0
32935,-133.333333333333,4,2,3,5,0,0
33038,-133.333333333333,4,2,3,50,0,0
33244,-133.333333333333,4,2,3,5,0,0
33346,-133.333333333333,4,2,3,50,0,0
34066,-133.333333333333,4,2,3,5,0,0
34168,-133.333333333333,4,2,3,50,0,0
34888,-133.333333333333,4,2,3,5,0,0
34990,-133.333333333333,4,2,3,50,0,0
38792,-133.333333333333,4,2,3,50,0,0
39203,-133.333333333333,4,2,2,55,0,0
39614,-100,4,2,3,70,0,0
49477,-200,4,2,30,50,0,0
49682,-200,4,2,1,30,0,0
49888,-200,4,2,1,25,0,0
50298,-333.333333333333,4,2,1,20,0,0
50709,-333.333333333333,4,2,1,17,0,0
51120,-333.333333333333,4,2,1,15,0,0
51531,-333.333333333333,4,2,1,25,0,0
51737,-333.333333333333,4,2,1,45,0,0
51942,-100,4,2,30,50,0,0
52251,-100,4,2,30,5,0,0
52353,-100,4,2,30,50,0,0
52661,-100,4,2,30,5,0,0
52764,-83.3333333333333,4,2,1,85,0,1
53072,-83.3333333333333,4,2,1,5,0,1
53175,-83.3333333333333,4,2,1,85,0,1
53483,-83.3333333333333,4,2,1,5,0,1
53586,-83.3333333333333,4,2,1,85,0,1
53689,-83.3333333333333,4,2,1,5,0,1
53792,-83.3333333333333,4,2,1,85,0,1
54100,-83.3333333333333,4,2,1,5,0,1
54203,-83.3333333333333,4,2,1,85,0,1
55333,-83.3333333333333,4,2,1,5,0,1
55435,-83.3333333333333,4,2,1,85,0,1
55538,-83.3333333333333,4,2,1,5,0,1
55641,-83.3333333333333,4,2,1,85,0,1
55744,-83.3333333333333,4,2,1,5,0,1
55846,-83.3333333333333,4,2,1,85,0,1
55949,-83.3333333333333,4,2,1,5,0,1
56052,-83.3333333333333,4,2,1,85,0,1
59340,-83.3333333333333,4,2,1,85,0,1
59648,-83.3333333333333,4,2,1,5,0,1
59751,-83.3333333333333,4,2,1,85,0,1
60161,-83.3333333333333,4,2,1,85,0,1
60470,-83.3333333333333,4,2,1,5,0,1
60572,-83.3333333333333,4,2,1,85,0,1
60983,-83.3333333333333,4,2,1,85,0,1
65915,-83.3333333333333,4,2,1,85,0,1
66223,-83.3333333333333,4,2,1,5,0,1
66326,-83.3333333333333,4,2,1,85,0,1
66634,-83.3333333333333,4,2,1,5,0,1
66737,-83.3333333333333,4,2,1,85,0,1
66840,-83.3333333333333,4,2,1,5,0,1
66942,-83.3333333333333,4,2,1,85,0,1
67045,-83.3333333333333,4,2,1,5,0,1
67148,-83.3333333333333,4,2,1,85,0,1
67251,-83.3333333333333,4,2,1,5,0,1
67353,-83.3333333333333,4,2,1,85,0,1
67456,-83.3333333333333,4,2,1,5,0,1
67559,-83.3333333333333,4,2,1,85,0,1
69203,-83.3333333333333,4,2,1,85,0,1
69305,-83.3333333333333,4,2,1,5,0,1
69408,-83.3333333333333,4,2,1,85,0,1
69716,-83.3333333333333,4,2,1,5,0,1
69819,-83.3333333333333,4,2,1,85,0,1
72490,-83.3333333333333,4,2,1,85,0,1
72798,-83.3333333333333,4,2,1,5,0,1
72901,-83.3333333333333,4,2,1,85,0,1
73312,-83.3333333333333,4,2,1,85,0,1
73620,-83.3333333333333,4,2,1,5,0,1
73723,-83.3333333333333,4,2,1,85,0,1
74134,-83.3333333333333,4,2,1,85,0,1
74853,-83.3333333333333,4,2,1,5,0,1
74956,-83.3333333333333,4,2,1,85,0,1
78244,-83.3333333333333,4,2,2,85,0,1
78655,-83.3333333333333,4,2,2,85,0,1
79066,-100,4,2,1,60,0,0
79271,-100,4,2,3,60,0,0
82251,-133.333333333333,4,2,3,5,0,0
82353,-133.333333333333,4,2,3,50,0,0
83175,-133.333333333333,4,2,3,40,0,0
83997,-133.333333333333,4,2,3,30,0,0
84819,-133.333333333333,4,2,3,30,0,0
85230,-200,4,2,3,30,0,0
90572,-133.333333333333,4,2,3,5,0,0
91394,-133.333333333333,4,2,2,40,0,0
92216,-100,4,2,3,70,0,0
93244,-100,4,2,15,70,0,0
93449,-100,4,2,3,70,0,0
93655,-100,4,2,15,70,0,0
93860,-100,4,2,3,70,0,0
96531,-100,4,2,15,70,0,0
96737,-100,4,2,3,70,0,0
96942,-100,4,2,15,70,0,0
97148,-100,4,2,3,70,0,0
102079,-100,4,2,30,50,0,0
103723,-100,4,2,3,11,0,0
104545,-133.333333333333,4,2,30,30,0,0
104853,-133.333333333333,4,2,30,5,0,0
104956,-83.3333333333333,4,2,30,60,0,0
105264,-83.3333333333333,4,2,30,5,0,0
105367,-83.3333333333333,4,2,1,85,0,1
105675,-83.3333333333333,4,2,1,5,0,1
105778,-83.3333333333333,4,2,1,85,0,1
106086,-83.3333333333333,4,2,1,5,0,1
106189,-83.3333333333333,4,2,1,85,0,1
106292,-83.3333333333333,4,2,1,5,0,1
106394,-83.3333333333333,4,2,1,85,0,1
106497,-83.3333333333333,4,2,1,5,0,1
106600,-83.3333333333333,4,2,1,85,0,1
106703,-83.3333333333333,4,2,1,5,0,1
106805,-83.3333333333333,4,2,1,85,0,1
106908,-83.3333333333333,4,2,1,5,0,1
107011,-83.3333333333333,4,2,1,85,0,1
108141,-83.3333333333333,4,2,1,5,0,1
108244,-83.3333333333333,4,2,1,85,0,1
108552,-83.3333333333333,4,2,1,5,0,1
108655,-83.3333333333333,4,2,1,85,0,1
108963,-83.3333333333333,4,2,1,5,0,1
109066,-83.3333333333333,4,2,1,85,0,1
109374,-83.3333333333333,4,2,1,5,0,1
109477,-83.3333333333333,4,2,1,85,0,1
111018,-83.3333333333333,4,2,1,5,0,1
111120,-83.3333333333333,4,2,1,85,0,1
111429,-83.3333333333333,4,2,1,5,0,1
111531,-83.3333333333333,4,2,1,85,0,1
111840,-83.3333333333333,4,2,1,5,0,1
111942,-83.3333333333333,4,2,1,85,0,1
112251,-83.3333333333333,4,2,1,5,0,1
112353,-83.3333333333333,4,2,1,85,0,1
112661,-83.3333333333333,4,2,1,5,0,1
112764,-83.3333333333333,4,2,1,85,0,1
114511,-83.3333333333333,4,2,1,5,0,1
114614,-83.3333333333333,4,2,1,85,0,1
114716,-83.3333333333333,4,2,1,5,0,1
114819,-83.3333333333333,4,2,1,85,0,1
115744,-83.3333333333333,4,2,1,5,0,1
115846,-83.3333333333333,4,2,1,85,0,1
115949,-83.3333333333333,4,2,1,5,0,1
116052,-83.3333333333333,4,2,1,85,0,1
118518,-83.3333333333333,4,2,1,70,0,0
118826,-83.3333333333333,4,2,1,5,0,0
118929,-83.3333333333333,4,2,1,70,0,0
119237,-83.3333333333333,4,2,1,5,0,0
119340,-100,4,2,1,70,0,0
120161,-100,4,2,1,70,0,0
121292,-100,4,2,1,5,0,0
121394,-100,4,2,1,70,0,0
121703,-100,4,2,1,5,0,0
121805,-100,4,2,1,50,0,0
123449,-100,4,2,1,40,0,0
123757,-100,4,2,1,5,0,0
123860,-100,4,2,1,40,0,0
124066,-100,4,2,1,40,0,0
124168,-100,4,2,1,5,0,0
124271,-100,4,2,1,40,0,0
125093,-133.333333333333,4,2,1,30,0,0
126737,-133.333333333333,4,2,1,20,0,0
131668,-200,4,2,25,11,0,0
144819,-133.333333333333,4,2,3,40,0,0
145230,-133.333333333333,4,2,4,40,0,0
145435,-133.333333333333,4,2,3,40,0,0
146052,-133.333333333333,4,2,4,40,0,0
146257,-133.333333333333,4,2,3,40,0,0
146874,-133.333333333333,4,2,4,40,0,0
147079,-133.333333333333,4,2,3,40,0,0
147696,-133.333333333333,4,2,4,40,0,0
148107,-133.333333333333,4,2,3,40,0,0
148518,-133.333333333333,4,2,4,40,0,0
148723,-133.333333333333,4,2,3,40,0,0
149340,-133.333333333333,4,2,4,40,0,0
149545,-133.333333333333,4,2,3,40,0,0
150162,-133.333333333333,4,2,4,40,0,0
150367,-133.333333333333,4,2,3,40,0,0
150983,-133.333333333333,4,2,4,40,0,0
151189,-133.333333333333,4,2,3,50,0,0
151394,-100,4,2,3,60,0,0
151703,-100,4,2,3,5,0,0
151805,-100,4,2,3,60,0,0
153757,-100,4,2,3,5,0,0
153860,-100,4,2,3,60,0,0
154579,-100,4,2,3,5,0,0
154682,-100,4,2,3,70,0,0
157970,-100,4,2,40,5,0,0
159203,-100,4,2,20,70,0,0
159614,-83.3333333333333,4,2,1,85,0,1
159922,-83.3333333333333,4,2,1,5,0,1
160025,-83.3333333333333,4,2,1,85,0,1
160333,-83.3333333333333,4,2,1,5,0,1
160435,-83.3333333333333,4,2,1,85,0,1
160538,-83.3333333333333,4,2,1,5,0,1
160641,-83.3333333333333,4,2,1,85,0,1
160949,-83.3333333333333,4,2,1,5,0,1
161052,-83.3333333333333,4,2,1,85,0,1
162182,-83.3333333333333,4,2,1,5,0,1
162285,-83.3333333333333,4,2,1,85,0,1
162388,-83.3333333333333,4,2,1,5,0,1
162490,-83.3333333333333,4,2,1,85,0,1
162593,-83.3333333333333,4,2,1,5,0,1
162696,-83.3333333333333,4,2,1,85,0,1
162798,-83.3333333333333,4,2,1,5,0,1
162901,-83.3333333333333,4,2,1,85,0,1
166497,-83.3333333333333,4,2,1,5,0,1
166600,-83.3333333333333,4,2,1,85,0,1
167011,-83.3333333333333,4,2,1,85,0,1
167114,-83.3333333333333,4,2,1,5,0,1
167216,-83.3333333333333,4,2,1,85,0,1
167319,-83.3333333333333,4,2,1,5,0,1
167422,-83.3333333333333,4,2,1,85,0,1
167833,-83.3333333333333,4,2,1,85,0,1
168141,-83.3333333333333,4,2,1,5,0,1
168244,-83.3333333333333,4,2,1,85,0,1
168346,-83.3333333333333,4,2,1,5,0,1
168449,-83.3333333333333,4,2,1,85,0,1
168552,-83.3333333333333,4,2,1,5,0,1
168655,-83.3333333333333,4,2,1,85,0,1
172353,-83.3333333333333,4,2,2,85,0,1
172764,-83.3333333333333,4,2,1,85,0,1
173072,-83.3333333333333,4,2,1,5,0,1
173175,-83.3333333333333,4,2,1,85,0,1
173483,-83.3333333333333,4,2,1,5,0,1
173586,-83.3333333333333,4,2,1,85,0,1
173689,-83.3333333333333,4,2,1,5,0,1
173792,-83.3333333333333,4,2,1,85,0,1
173894,-83.3333333333333,4,2,1,5,0,1
173997,-83.3333333333333,4,2,1,85,0,1
174100,-83.3333333333333,4,2,1,5,0,1
174203,-83.3333333333333,4,2,1,85,0,1
174305,-83.3333333333333,4,2,1,5,0,1
174408,-83.3333333333333,4,2,1,85,0,1
175333,-83.3333333333333,4,2,1,5,0,1
175435,-83.3333333333333,4,2,1,85,0,1
175538,-83.3333333333333,4,2,1,5,0,1
175641,-83.3333333333333,4,2,1,85,0,1
176052,-83.3333333333333,4,2,1,85,0,1
176155,-83.3333333333333,4,2,1,5,0,1
176257,-83.3333333333333,4,2,1,85,0,1
176566,-83.3333333333333,4,2,1,5,0,1
176668,-83.3333333333333,4,2,1,85,0,1
179340,-83.3333333333333,4,2,1,85,0,1
179648,-83.3333333333333,4,2,1,5,0,1
179751,-83.3333333333333,4,2,1,85,0,1
180162,-83.3333333333333,4,2,1,85,0,1
180470,-83.3333333333333,4,2,1,5,0,1
180572,-83.3333333333333,4,2,1,85,0,1
180983,-83.3333333333333,4,2,1,85,0,1
181292,-83.3333333333333,4,2,1,5,0,1
181394,-83.3333333333333,4,2,1,85,0,1
181703,-83.3333333333333,4,2,1,5,0,1
181805,-83.3333333333333,4,2,1,85,0,1
182216,-83.3333333333333,4,2,1,85,0,1
185093,-83.3333333333333,4,2,2,85,0,1
185915,-83.3333333333333,4,2,1,70,0,0
186120,-83.3333333333333,4,2,1,70,0,0
186223,-83.3333333333333,4,2,1,5,0,0
186326,-100,4,2,1,70,0,0
188586,-100,4,2,15,70,0,0
188792,-100,4,2,1,70,0,0
188997,-100,4,2,15,70,0,0
189203,-100,4,2,1,70,0,0
191668,-83.3333333333333,4,2,1,70,0,0
191977,-83.3333333333333,4,2,1,5,0,0
192079,-83.3333333333333,4,2,1,70,0,0
192388,-83.3333333333333,4,2,1,5,0,0
192490,-100,4,2,1,70,0,0
195162,-100,4,2,15,70,0,0
195367,-100,4,2,1,70,0,0
195572,-100,4,2,15,70,0,0
195778,-100,4,2,1,70,0,0
197422,-100,4,2,1,40,0,0
199066,-100,4,2,1,20,0,0

[Colours]
Combo1 : 150,146,154
Combo2 : 58,177,163
Combo3 : 251,245,145
Combo4 : 187,156,245
Combo5 : 112,137,136
Combo6 : 171,169,158

[HitObjects]
256,192,6737,12,0,12490,0:0:0:0:
32,32,13312,6,0,B|62:27|86:46|86:46|110:65|136:59,1,107.999996704102,4|2,1:2|0:3,0:0:0:0:
134,142,13723,38,0,P|118:100|132:59,1,90,8|2,1:2|0:3,0:0:0:0:
220,112,14134,2,0,P|235:153|221:194,1,90,0|2,1:2|0:3,0:0:0:0:
140,240,14545,1,8,1:2:0:0:
148,332,14751,1,2,0:3:0:0:
228,284,14956,2,0,L|317:276,1,90,0|2,1:2|0:3,0:0:0:0:
390,334,15367,2,0,L|479:341,1,90,8|2,1:2|0:3,0:0:0:0:
496,244,15778,2,0,L|407:236,2,90,0|2|8,1:0|0:3|1:2,0:0:0:0:
500,152,16394,1,2,0:3:0:0:
432,92,16600,6,0,P|390:76|349:90,1,90,0|2,1:0|0:3,0:0:0:0:
276,140,17011,1,8,1:2:0:0:
208,84,17216,1,2,0:3:0:0:
124,120,17422,2,0,P|110:162|126:203,1,90,0|2,1:2|0:3,0:0:0:0:
80,280,17833,2,0,P|36:276|0:302,1,90,8|2,1:2|0:3,0:0:0:0:
60,372,18244,2,0,L|149:364,1,90,0|2,1:2|0:3,0:0:0:0:
236,336,18655,2,0,L|325:343,1,90,8|2,1:2|0:3,0:0:0:0:
168,276,19066,22,0,B|100:270|100:270|70:287|70:287|12:282,1,161.999995056153,0|0,1:2|0:0,0:0:0:0:
0,278,19477,2,0,P|-1:201|63:160,1,161.999995056153,8|0,1:2|0:0,0:0:0:0:
72,168,19888,6,0,L|161:176,1,90,0|2,1:2|0:3,0:0:0:0:
228,116,20298,22,0,L|317:108,1,90,8|2,1:2|0:3,0:0:0:0:
368,184,20709,2,0,L|457:192,1,90,0|2,1:0|0:3,0:0:0:0:
504,268,21120,1,8,1:2:0:0:
428,320,21326,1,2,0:3:0:0:
348,280,21531,6,0,P|306:298|287:337,1,90,0|2,1:0|0:3,0:0:0:0:
200,364,21942,2,0,L|110:356,1,90,8|2,1:2|0:3,0:0:0:0:
80,272,22353,2,0,P|43:248|-1:253,2,90,0|2|8,1:2|0:3|1:2,0:0:0:0:
156,224,22970,1,2,0:3:0:0:
88,168,23175,6,0,L|80:78,1,90,0|2,1:2|0:3,0:0:0:0:
176,44,23586,2,0,L|184:133,1,90,8|2,1:2|0:3,0:0:0:0:
272,156,23997,1,0,1:0:0:0:
344,104,24203,1,2,0:3:0:0:
416,160,24408,2,0,L|408:249,1,90,8|2,1:2|0:3,0:0:0:0:
324,276,24819,53,0,1:0:0:0:
376,352,25025,1,2,0:3:0:0:
468,356,25230,1,8,1:2:0:0:
468,356,25435,1,2,0:3:0:0:
512,276,25641,2,0,L|504:187,1,90,0|2,1:0|0:3,0:0:0:0:
492,96,26052,1,8,0:0:0:0:
472,104,26155,1,8,0:0:0:0:
452,112,26257,1,8,0:0:0:0:
384,56,26463,6,0,P|351:38|318:38,1,67.5000025749208,2|0,1:2|0:0,0:0:0:0:
260,60,26874,1,0,1:0:0:0:
228,120,27079,2,0,P|194:121|165:137,1,67.5000025749208,2|2,0:0|1:2,0:0:0:0:
108,176,27490,2,0,L|40:170,2,67.5000025749208,0|0|2,0:0|1:0|0:0,0:0:0:0:
160,220,28107,2,0,P|172:250|166:283,1,67.5000025749208,2|2,1:2|0:0,0:0:0:0:
140,348,28518,2,0,L|207:354,1,67.5000025749208,2|2,1:2|0:0,0:0:0:0:
276,352,28929,1,2,1:2:0:0:
276,352,29134,1,2,0:0:0:0:
276,352,29340,2,0,B|312:340|312:340|377:352,1,101.250003862381,2|0,1:2|0:0,0:0:0:0:
392,356,29751,6,0,P|409:323|409:290,1,67.5000025749208,2|0,1:2|0:0,0:0:0:0:
372,236,30161,1,0,1:0:0:0:
424,192,30367,2,0,P|407:162|406:129,1,67.5000025749208,2|2,0:0|1:2,0:0:0:0:
424,64,30778,2,0,L|491:58,2,67.5000025749208,0|0|2,0:0|1:0|0:0,0:0:0:0:
356,52,31394,2,0,L|288:46,1,67.5000025749208,2|2,1:2|0:0,0:0:0:0:
244,96,31805,2,0,L|176:101,1,67.5000025749208,0|2,1:0|0:0,0:0:0:0:
108,112,32216,1,2,1:2:0:0:
52,148,32422,1,2,0:0:0:0:
28,212,32627,2,0,P|22:267|57:307,1,101.250003862381,2|0,1:2|0:0,0:0:0:0:
63,312,33038,54,0,L|131:306,1,67.5000025749208,2|0,1:2|0:0,0:0:0:0:
148,300,33346,2,0,L|181:302,1,33.7500012874604,2|8,0:0|1:2,0:0:0:0:
300,368,33860,2,0,L|367:373,1,67.5000025749208,2|0,1:2|0:0,0:0:0:0:
384,380,34168,2,0,L|417:377,1,33.7500012874604,2|8,0:0|1:2,0:0:0:0:
488,260,34682,2,0,P|489:226|473:197,1,67.5000025749208,2|0,1:2|0:0,0:0:0:0:
464,184,34990,2,0,L|467:151,1,33.7500012874604,2|8,0:0|1:2,0:0:0:0:
388,40,35504,2,0,P|354:38|325:54,1,67.5000025749208,0|2,1:0|0:0,0:0:0:0:
276,100,35915,1,10,1:2:0:0:
152,36,36326,5,0,1:0:0:0:
100,80,36531,2,0,L|106:147,1,67.5000025749208,2|8,0:0|1:2,0:0:0:0:
156,192,36942,1,2,0:0:0:0:
116,248,37148,2,0,L|110:315,1,67.5000025749208,0|2,1:0|0:0,0:0:0:0:
176,356,37559,1,8,1:2:0:0:
176,356,37764,1,2,0:0:0:0:
176,356,37970,6,0,P|209:354|238:370,1,67.5000025749208,0|0,1:2|0:0,0:0:0:0:
304,360,38381,2,0,P|337:361|366:345,1,67.5000025749208,8|0,1:2|0:0,0:0:0:0:
420,304,38792,1,0,1:0:0:0:
468,176,39203,2,0,L|434:173,2,33.7500012874604,10|8|8,0:0|0:0|0:0,0:0:0:0:
512,96,39614,54,0,L|422:88,1,90,2|2,1:2|0:0,0:0:0:0:
332,80,40025,1,8,1:2:0:0:
384,8,40230,1,2,0:0:0:0:
376,160,40435,2,0,P|371:208|333:239,1,90,2|2,1:2|0:3,0:0:0:0:
256,212,40846,2,0,P|218:181|169:185,1,90,8|2,1:2|0:3,0:0:0:0:
112,252,41257,5,0,1:0:0:0:
40,196,41463,2,0,L|32:106,1,90,2|8,0:0|1:2,0:0:0:0:
88,36,41874,1,2,0:0:0:0:
148,104,42079,2,0,P|185:134|234:130,1,90,2|2,1:2|0:3,0:0:0:0:
304,92,42490,1,10,1:2:0:0:
208,52,42696,1,2,0:0:0:0:
304,180,42901,6,0,P|324:224|307:270,1,90,2|2,1:2|0:0,0:0:0:0:
244,320,43312,1,10,1:2:0:0:
224,232,43518,1,2,0:0:0:0:
328,356,43723,2,0,L|418:348,1,90,2|2,1:2|0:3,0:0:0:0:
488,292,44134,2,0,L|480:202,1,90,8|2,1:2|0:3,0:0:0:0:
420,136,44545,53,0,1:0:0:0:
492,80,44751,2,0,P|455:50|406:54,1,90,2|8,0:3|1:2,0:0:0:0:
328,80,45162,1,2,0:3:0:0:
248,36,45367,2,0,L|158:44,1,90,0|2,1:2|0:3,0:0:0:0:
132,132,45778,2,0,L|222:124,1,90,8|2,1:2|0:3,0:0:0:0:
304,160,46189,6,0,P|305:244|227:277,1,180,2|8,1:2|1:2,0:0:0:0:
156,232,46805,1,2,0:0:0:0:
156,232,47011,1,0,1:0:0:0:
92,292,47216,2,0,L|47:288,2,45,2|2|8,0:0|0:0|1:2,0:0:0:0:
136,372,47627,1,0,0:0:0:0:
216,316,47833,6,0,P|294:283|353:343,1,180,2|8,1:2|1:2,0:0:0:0:
440,380,48449,1,2,0:0:0:0:
440,380,48655,1,0,1:0:0:0:
492,308,48860,1,2,0:3:0:0:
492,308,49066,2,0,P|472:264|492:216,1,90,10|2,1:2|0:0,0:0:0:0:
492,124,49477,54,0,L|447:127,3,45,2|0|0|0,0:0|1:0|1:0|1:0,0:0:0:0:
420,52,50298,2,0,L|393:54,3,26.9999991760254,0|0|0|0,1:0|1:0|1:0|1:0,0:0:0:0:
304,40,51120,1,0,1:0:0:0:
296,48,51326,1,0,1:0:0:0:
312,56,51531,1,0,1:0:0:0:
312,32,51737,1,0,1:0:0:0:
240,112,51942,6,0,B|200:122|174:94|174:94|148:66|109:77,1,135,4|0,0:0|0:0,0:0:0:0:
116,92,52353,6,0,B|125:123|98:149|98:149|70:175|80:215,1,135,4|0,0:0|0:0,0:0:0:0:
68,224,52764,6,0,P|92:295|167:287,1,161.999995056153,6|0,1:2|0:0,0:0:0:0:
176,280,53175,2,0,P|250:271|274:342,1,161.999995056153,10|0,1:2|0:0,0:0:0:0:
280,352,53586,6,0,L|333:347,1,53.9999983520508,2|0,1:2|0:0,0:0:0:0:
386,343,53792,1,2,0:3:0:0:
456,260,53997,2,0,L|403:255,1,53.9999983520508,10|0,1:2|0:0,0:0:0:0:
348,248,54203,1,2,0:3:0:0:
308,148,54408,5,2,1:2:0:0:
416,168,54614,1,2,0:3:0:0:
504,104,54819,1,10,1:2:0:0:
436,20,55025,1,2,0:3:0:0:
328,40,55230,2,0,L|275:35,1,53.9999983520508,2|0,1:2|0:0,0:0:0:0:
256,88,55435,2,0,L|203:83,1,53.9999983520508,2|0,1:3|0:0,0:0:0:0:
196,28,55641,2,0,L|143:23,1,53.9999983520508,10|0,1:2|0:0,0:0:0:0:
116,72,55846,2,0,L|63:67,1,53.9999983520508,2|0,1:3|0:0,0:0:0:0:
32,111,56052,54,0,P|0:154|7:206,2,107.999996704102,2|2|10,1:2|1:3|1:2,0:0:0:0:
116,180,56668,1,2,0:3:0:0:
160,280,56874,2,0,P|204:307|255:292,1,107.999996704102,2|2,1:2|0:3,0:0:0:0:
340,360,57285,1,10,1:2:0:0:
428,296,57490,1,2,0:3:0:0:
352,220,57696,5,2,1:2:0:0:
404,128,57901,2,0,L|458:132,1,53.9999983520508,2|0,0:3|0:0,0:0:0:0:
512,136,58107,1,10,1:2:0:0:
448,32,58312,2,0,L|394:28,1,53.9999983520508,2|0,0:3|0:0,0:0:0:0:
344,52,58518,6,0,L|291:47,1,53.9999983520508,2|0,1:2|0:0,0:0:0:0:
260,92,58723,2,0,L|207:87,1,53.9999983520508,2|0,0:3|0:0,0:0:0:0:
168,124,58929,2,0,L|163:177,2,53.9999983520508,10|0|2,1:2|0:0|0:3,0:0:0:0:
72,204,59340,54,0,B|131:199|131:199|162:224|162:224|224:218,1,161.999995056153,2|0,1:2|0:0,0:0:0:0:
228,228,59751,2,0,P|261:270|249:320,1,107.999996704102,10|2,1:2|0:3,0:0:0:0:
360,372,60161,2,0,B|406:392|439:359|439:359|474:320|524:336,1,161.999995056153,2|0,1:2|0:0,0:0:0:0:
504,320,60572,1,10,1:2:0:0:
464,220,60778,1,2,0:3:0:0:
372,280,60983,5,2,1:2:0:0:
372,280,61086,1,0,0:0:0:0:
372,280,61189,2,0,L|319:275,1,53.9999983520508,2|0,0:3|0:0,0:0:0:0:
280,231,61394,2,0,P|288:206|284:179,2,53.9999983520508,10|0|2,1:2|0:0|0:3,0:0:0:0:
196,300,61805,5,2,1:2:0:0:
112,232,62011,1,2,0:3:0:0:
20,288,62216,1,10,1:2:0:0:
104,360,62422,1,2,0:3:0:0:
196,300,62627,70,0,P|249:301|295:274,1,107.999996704102,2|2,1:2|0:3,0:0:0:0:
376,200,63038,2,0,P|330:172|276:174,1,107.999996704102,10|2,1:2|0:3,0:0:0:0:
172,204,63449,2,0,P|171:151|198:105,1,107.999996704102,2|2,1:2|0:3,0:0:0:0:
276,40,63860,2,0,P|230:12|176:14,1,107.999996704102,10|2,1:2|0:3,0:0:0:0:
84,68,64271,5,2,1:2:0:0:
16,152,64477,1,2,1:3:0:0:
72,244,64682,1,10,1:2:0:0:
12,336,64888,1,2,1:3:0:0:
120,340,65093,70,0,P|172:341|218:313,1,107.999996704102,2|2,1:2|0:3,0:0:0:0:
248,208,65504,2,0,P|300:220|337:260,1,107.999996704102,10|2,1:2|0:3,0:0:0:0:
408,384,65915,70,0,B|414:320|414:320|436:294|436:294|442:230,1,161.999995056153,6|2,1:2|0:3,0:0:0:0:
456,224,66326,2,0,B|451:160|451:160|429:134|429:134|423:70,1,161.999995056153,10|2,1:2|0:3,0:0:0:0:
416,60,66737,6,0,P|389:55|363:60,1,53.9999983520508,2|0,1:2|0:0,0:0:0:0:
328,104,66942,2,0,P|301:110|275:105,1,53.9999983520508,2|0,0:3|0:0,0:0:0:0:
244,60,67148,2,0,P|217:54|191:60,1,53.9999983520508,10|0,1:2|0:0,0:0:0:0:
176,112,67353,2,0,P|150:118|124:113,1,53.9999983520508,2|0,0:3|0:0,0:0:0:0:
80,144,67559,6,0,P|75:170|80:196,1,53.9999983520508,2|0,1:2|0:0,0:0:0:0:
92,248,67764,1,2,0:3:0:0:
196,220,67970,2,0,P|201:247|196:273,1,53.9999983520508,10|0,1:2|0:0,0:0:0:0:
184,324,68175,1,2,0:3:0:0:
292,316,68381,54,0,P|338:291|390:300,2,107.999996704102,2|2|10,1:2|1:3|1:2,0:0:0:0:
296,208,68997,1,2,0:3:0:0:
196,220,69203,6,0,L|143:215,2,53.9999983520508,2|0|2,1:2|0:0|0:3,0:0:0:0:
292,316,69614,2,0,L|345:311,2,53.9999983520508,10|0|2,1:2|0:0|0:3,0:0:0:0:
188,348,70025,70,0,L|80:338,1,107.999996704102,2|2,1:2|0:3,0:0:0:0:
8,256,70435,2,0,P|10:203|48:166,1,107.999996704102,10|2,1:2|0:3,0:0:0:0:
156,168,70846,6,0,L|263:177,1,107.999996704102,2|2,1:2|0:3,0:0:0:0:
372,188,71257,1,10,1:2:0:0:
456,120,71463,1,2,0:3:0:0:
352,88,71668,6,0,L|299:93,2,53.9999983520508,2|0|2,1:2|0:0|0:3,0:0:0:0:
436,12,72079,1,10,1:2:0:0:
328,0,72285,1,2,0:3:0:0:
228,44,72490,54,0,P|158:69|120:4,1,161.999995056153,2|0,1:2|0:0,0:0:0:0:
108,8,72901,2,0,P|63:35|48:86,1,107.999996704102,10|2,1:2|0:3,0:0:0:0:
4,184,73312,2,0,B|32:224|32:224|4:346,1,161.999995056153,2|0,1:2|0:0,0:0:0:0:
16,344,73723,1,10,1:2:0:0:
104,280,73929,1,2,0:3:0:0:
204,344,74134,5,2,1:2:0:0:
204,344,74237,1,0,0:0:0:0:
204,344,74340,2,0,L|257:339,1,53.9999983520508,2|0,1:3|0:0,0:0:0:0:
308,360,74545,2,0,P|388:364|400:284,1,161.999995056153,10|0,1:2|0:0,0:0:0:0:
424,296,74956,6,0,L|477:301,2,53.9999983520508,2|0|2,1:2|0:0|1:3,0:0:0:0:
368,204,75367,2,0,L|260:194,1,107.999996704102,10|2,1:2|0:3,0:0:0:0:
184,116,75778,54,0,P|137:149|127:212,1,107.999996704102,2|2,1:2|0:3,0:0:0:0:
196,276,76189,2,0,L|205:383,1,107.999996704102,10|2,1:2|0:3,0:0:0:0:
312,368,76600,2,0,P|358:334|368:271,1,107.999996704102,2|2,1:2|0:3,0:0:0:0:
324,192,77011,2,0,L|431:183,1,107.999996704102,10|2,1:2|0:3,0:0:0:0:
500,100,77422,5,2,1:2:0:0:
308,0,77833,1,8,0:0:0:0:
431,182,78244,1,8,0:0:0:0:
431,198,78346,1,8,0:0:0:0:
431,214,78449,1,8,0:0:0:0:
328,248,78655,2,0,L|274:243,2,53.9999983520508,8|8|8,0:0|0:0|0:0,0:0:0:0:
336,160,79066,70,0,L|246:152,1,90,4|2,1:2|0:3,0:0:0:0:
156,148,79477,37,8,1:2:0:0:
87,207,79682,2,0,P|60:173|62:129,1,90,2|2,0:0|1:2,0:0:0:0:
92,44,80093,2,0,L|2:51,2,90,2|8|2,0:3|1:2|0:0,0:0:0:0:
180,72,80709,2,0,L|269:64,1,90,2|2,1:2|0:0,0:0:0:0:
340,120,81120,2,0,L|429:127,1,90,10|2,1:2|0:3,0:0:0:0:
500,192,81531,1,2,1:2:0:0:
500,192,81737,1,2,0:3:0:0:
471,276,81942,2,0,P|419:314|356:296,1,135,10|0,1:2|0:0,0:0:0:0:
355,295,82353,6,0,L|288:300,1,67.5000025749208,2|2,1:2|0:3,0:0:0:0:
224,312,82764,1,8,1:2:0:0:
224,312,82970,2,0,P|208:284|206:250,1,67.5000025749208,2|2,0:0|1:2,0:0:0:0:
212,184,83381,2,0,L|145:178,2,67.5000025749208,2|8|2,0:3|1:2|0:0,0:0:0:0:
264,140,83997,2,0,L|332:134,1,67.5000025749208,2|2,1:2|0:0,0:0:0:0:
388,168,84408,2,0,L|456:173,1,67.5000025749208,10|2,1:2|0:3,0:0:0:0:
504,220,84819,1,2,1:2:0:0:
436,260,85025,1,2,0:3:0:0:
504,300,85230,2,0,L|500:344,1,45,10|2,1:2|0:3,0:0:0:0:
256,192,88929,12,0,90572,0:0:0:0:
24,364,91394,6,0,L|58:361,2,33.7500012874604,10|8|8,0:0|0:0|0:0,0:0:0:0:
44,280,91805,2,0,L|78:277,2,33.7500012874604,10|8|8,0:0|0:0|0:0,0:0:0:0:
4,200,92216,54,0,L|94:192,1,90,2|2,1:2|0:3,0:0:0:0:
176,232,92627,1,8,1:2:0:0:
176,140,92833,1,2,0:0:0:0:
276,244,93038,2,0,P|271:292|233:323,1,90,2|2,1:2|0:3,0:0:0:0:
264,160,93449,2,0,P|308:161|341:190,1,90,8|2,1:2|0:3,0:0:0:0:
360,280,93860,5,0,1:0:0:0:
432,224,94066,2,0,L|440:134,1,90,2|10,0:0|1:2,0:0:0:0:
388,60,94477,2,0,L|298:52,1,90,2|2,0:0|1:2,0:0:0:0:
212,48,94888,1,10,0:0:0:0:
212,48,95093,2,0,P|210:92|181:125,1,90,10|2,1:2|0:0,0:0:0:0:
112,180,95504,6,0,P|149:210|198:206,1,90,2|2,1:2|0:3,0:0:0:0:
272,172,95915,1,8,1:2:0:0:
264,264,96120,1,2,0:0:0:0:
348,232,96326,2,0,L|438:224,1,90,2|2,1:2|0:3,0:0:0:0:
472,304,96737,2,0,L|382:312,1,90,8|2,1:2|0:3,0:0:0:0:
316,372,97148,53,0,1:0:0:0:
228,360,97353,2,0,L|128:351,1,90,2|8,0:3|1:2,0:0:0:0:
68,296,97764,2,0,P|105:265|154:269,1,90,2|0,0:3|1:2,0:0:0:0:
240,276,98175,1,2,0:3:0:0:
240,276,98381,2,0,L|232:186,1,90,8|2,1:2|0:3,0:0:0:0:
192,104,98792,6,0,B|263:97|263:97|293:115|293:115|366:108,1,180,2|8,1:2|1:2,0:0:0:0:
456,100,99408,1,2,0:0:0:0:
456,100,99614,1,0,1:0:0:0:
508,172,99819,2,0,L|511:216,2,45,2|2|8,0:0|0:0|1:2,0:0:0:0:
420,200,100230,1,2,0:0:0:0:
352,136,100435,6,0,P|273:167|274:251,1,180,2|8,1:2|1:2,0:0:0:0:
292,344,101052,1,2,0:0:0:0:
292,344,101257,1,0,1:0:0:0:
208,312,101463,1,10,0:0:0:0:
208,311,101668,2,0,P|166:298|143:260,1,90,10|2,1:2|0:0,0:0:0:0:
256,192,102079,12,0,103723,1:0:0:0:
0,336,104545,54,0,P|52:320|101:336,1,101.250003862381,4|0,0:0|0:0,0:0:0:0:
108,340,104956,2,0,P|191:325|242:254,1,161.999995056153,4|0,0:0|0:0,0:0:0:0:
248,260,105367,38,0,P|253:183|325:155,1,161.999995056153,6|0,1:2|0:0,0:0:0:0:
328,168,105778,2,0,P|386:218|456:187,1,161.999995056153,10|0,1:2|0:0,0:0:0:0:
468,188,106189,6,0,L|472:132,1,53.9999983520508,2|0,1:2|0:0,0:0:0:0:
452,84,106394,2,0,L|396:79,1,53.9999983520508,2|0,1:3|0:0,0:0:0:0:
364,36,106600,2,0,L|308:31,1,53.9999983520508,10|0,1:2|0:0,0:0:0:0:
264,60,106805,2,0,L|208:55,1,53.9999983520508,2|0,1:3|0:0,0:0:0:0:
164,84,107011,5,2,1:2:0:0:
68,36,107216,1,2,0:3:0:0:
8,124,107422,1,10,1:2:0:0:
100,180,107627,1,2,0:3:0:0:
208,180,107833,54,0,P|247:246|210:313,1,161.999995056153,2|0,1:2|0:0,0:0:0:0:
196,324,108244,2,0,P|130:284|63:321,1,161.999995056153,10|0,1:2|0:0,0:0:0:0:
52,336,108655,5,2,1:2:0:0:
132,384,108860,2,0,L|186:379,1,53.9999983520508,2|0,0:3|0:0,0:0:0:0:
240,372,109066,1,10,1:2:0:0:
324,320,109271,2,0,L|378:315,1,53.9999983520508,2|0,0:3|0:0,0:0:0:0:
432,312,109477,6,0,L|428:366,2,53.9999983520508,2|0|2,1:2|0:0|0:3,0:0:0:0:
428,212,109888,2,0,L|437:104,1,107.999996704102,10|2,1:2|0:3,0:0:0:0:
404,68,110196,1,0,0:0:0:0:
404,68,110298,53,2,1:2:0:0:
320,136,110504,2,0,L|266:140,2,53.9999983520508,2|0|10,0:3|0:0|1:2,0:0:0:0:
252,52,110915,2,0,L|198:47,1,53.9999983520508,2|0,0:3|0:0,0:0:0:0:
164,88,111120,6,0,B|116:76|87:108|87:108|55:142|8:129,1,161.999995056153,2|0,1:2|0:0,0:0:0:0:
0,132,111531,2,0,B|-10:170|24:203|24:203|56:231|44:280,1,161.999995056153,10|0,1:2|0:0,0:0:0:0:
48,288,111942,6,0,B|107:293|107:293|145:272|145:272|204:277,1,161.999995056153,2|0,1:2|0:0,0:0:0:0:
216,272,112353,2,0,B|275:266|275:266|313:287|313:287|372:282,1,161.999995056153,10|0,1:2|0:0,0:0:0:0:
384,280,112764,2,0,P|392:228|363:185,1,107.999996704102,2|2,1:2|0:3,0:0:0:0:
288,104,113175,2,0,P|298:52|342:22,1,107.999996704102,10|2,1:2|0:3,0:0:0:0:
452,24,113586,53,2,1:2:0:0:
380,104,113792,1,2,0:3:0:0:
464,172,113997,1,10,1:2:0:0:
384,244,114203,1,2,0:3:0:0:
296,308,114408,6,0,L|243:303,1,53.9999983520508,2|0,1:2|0:0,0:0:0:0:
220,252,114614,2,0,L|166:247,1,53.9999983520508,2|0,1:3|0:0,0:0:0:0:
124,280,114819,1,10,1:2:0:0:
64,192,115025,1,2,0:3:0:0:
144,120,115230,5,2,1:2:0:0:
248,176,115435,1,2,0:3:0:0:
248,176,115538,1,0,0:0:0:0:
248,176,115641,2,0,L|301:172,1,53.9999983520508,10|0,1:2|0:0,0:0:0:0:
347,195,115846,2,0,P|356:221|353:247,1,53.9999983520508,2|0,1:3|0:0,0:0:0:0:
332,300,116052,53,2,1:2:0:0:
436,272,116257,1,2,0:3:0:0:
436,164,116463,1,10,1:2:0:0:
500,76,116668,1,2,0:3:0:0:
408,20,116874,21,2,1:2:0:0:
320,80,117079,2,0,B|280:76|280:76|255:90|255:90|217:87,1,107.999996704102,2|0,0:3|0:0,0:0:0:0:
124,144,117490,53,2,1:3:0:0:
28,196,117696,2,0,B|25:236|25:236|39:261|39:261|35:299,1,107.999996704102,0|2,0:0|0:3,0:0:0:0:
108,380,118107,5,10,1:2:0:0:
144,280,118312,1,2,0:3:0:0:
264,308,118518,70,0,P|328:263|403:285,1,161.999995056153,6|0,1:2|0:0,0:0:0:0:
412,292,118929,2,0,P|389:217|434:152,1,161.999995056153,10|0,1:2|0:0,0:0:0:0:
432,140,119340,6,0,L|342:132,1,90,2|2,1:2|1:3,0:0:0:0:
276,68,119751,2,0,L|187:75,1,90,10|2,1:2|0:3,0:0:0:0:
96,84,120161,5,2,1:2:0:0:
20,136,120367,1,2,0:3:0:0:
12,48,120572,1,10,1:2:0:0:
12,48,120778,1,2,0:3:0:0:
108,184,120983,54,0,B|130:247|130:247|112:316,1,135,2|0,1:2|0:0,0:0:0:0:
112,313,121394,2,0,B|175:291|175:291|240:309,1,135,10|0,1:2|0:0,0:0:0:0:
240,320,121805,6,0,L|330:327,1,90,2|2,1:2|0:3,0:0:0:0:
420,340,122216,1,10,1:2:0:0:
440,252,122422,2,0,L|484:255,2,45,2|0|2,0:3|0:0|1:2,0:0:0:0:
392,176,122833,1,2,0:3:0:0:
460,120,123038,2,0,P|431:85|388:74,1,90,2|2,1:2|0:3,0:0:0:0:
308,28,123449,5,2,1:2:0:0:
240,88,123655,2,0,L|196:84,1,45,2|0,0:3|0:0,0:0:0:0:
160,112,123860,1,2,1:2:0:0:
96,172,124066,2,0,L|100:216,1,45,2|0,0:3|0:0,0:0:0:0:
72,252,124271,53,2,1:2:0:0:
28,328,124477,1,2,1:3:0:0:
116,332,124682,1,2,1:2:0:0:
116,332,124888,1,2,1:3:0:0:
172,256,125093,6,0,L|240:250,1,67.5000025749208,2|2,1:2|0:3,0:0:0:0:
280,304,125504,2,0,L|348:310,1,67.5000025749208,2|2,1:2|0:3,0:0:0:0:
416,316,125915,1,2,1:2:0:0:
500,212,126326,1,2,1:2:0:0:
372,168,126737,6,0,B|328:176|328:176|279:168|279:168|239:178,1,135.000005149842,2|2,1:2|1:2,0:0:0:0:
136,268,127559,2,0,B|176:257|176:257|224:265|224:265|268:257,1,135.000005149842,2|2,1:2|1:2,0:0:0:0:
256,192,128381,12,2,131668,0:0:0:0:
20,48,144819,22,0,L|87:53,3,67.5000025749208,2|2|8|2,0:0|0:3|0:0|0:3,0:0:0:0:
76,132,145641,2,0,L|143:137,3,67.5000025749208,0|2|8|2,0:0|0:3|0:0|0:3,0:0:0:0:
224,152,146463,6,0,P|225:188|206:217,1,67.5000025749208,0|2,0:0|0:3,0:0:0:0:
140,260,146874,2,0,P|139:296|158:325,1,67.5000025749208,8|2,0:0|0:3,0:0:0:0:
236,344,147285,2,0,L|303:338,2,67.5000025749208,0|2|8,0:0|0:3|0:0,0:0:0:0:
20,316,148107,54,0,P|11:284|22:253,1,67.5000025749208,2|2,0:0|0:3,0:0:0:0:
80,192,148518,2,0,P|88:160|77:129,1,67.5000025749208,8|2,0:0|0:3,0:0:0:0:
136,72,148929,2,0,P|167:63|198:74,1,67.5000025749208,2|2,0:0|0:3,0:0:0:0:
208,152,149340,2,0,P|239:160|270:149,1,67.5000025749208,8|2,0:0|0:3,0:0:0:0:
336,84,149751,6,0,L|470:72,2,135.000005149842,0|8|0,0:0|0:0|0:0,0:0:0:0:
468,160,150983,1,10,0:0:0:0:
412,232,151189,1,2,0:0:0:0:
412,232,151292,1,0,0:0:0:0:
412,232,151394,6,0,L|367:228,1,45,0|0,1:0|0:0,0:0:0:0:
336,260,151600,2,0,L|291:256,1,45,2|0,0:3|0:0,0:0:0:0:
248,272,151805,2,0,P|225:233|231:187,1,90,0|2,1:0|0:3,0:0:0:0:
264,112,152216,1,0,1:0:0:0:
264,112,152319,1,0,0:0:0:0:
264,112,152422,2,0,L|219:108,1,45,2|0,0:3|0:0,0:0:0:0:
180,128,152627,2,0,L|135:124,3,45,0|0|2|0,1:0|0:0|0:3|0:0,0:0:0:0:
104,156,153038,54,0,L|96:246,1,90,0|2,1:0|0:3,0:0:0:0:
156,328,153449,1,0,1:0:0:0:
156,328,153552,1,0,0:0:0:0:
156,328,153655,2,0,L|201:332,1,45,2|0,0:3|0:0,0:0:0:0:
236,360,153860,6,0,P|322:367|376:299,1,180,2|0,1:2|1:0,0:0:0:0:
392,212,154477,2,0,L|436:215,1,45,2|0,0:3|0:0,0:0:0:0:
476,188,154682,5,2,1:2:0:0:
440,104,154888,1,2,1:3:0:0:
356,136,155093,1,0,1:0:0:0:
320,56,155298,1,2,1:3:0:0:
244,104,155504,54,0,L|199:108,3,45,0|0|2|0,1:0|1:0|1:3|1:0,0:0:0:0:
176,148,155915,2,0,L|131:152,3,45,0|0|2|0,1:0|1:0|1:3|1:0,0:0:0:0:
256,192,156326,12,2,157970,0:0:0:0:
256,192,159203,5,8,0:0:0:0:
76,304,159614,22,0,B|135:298|135:298|169:319|169:319|231:314,1,161.999995056153,6|0,1:2|0:0,0:0:0:0:
236,328,160025,2,0,B|295:333|295:333|329:312|329:312|391:317,1,161.999995056153,10|0,1:2|0:0,0:0:0:0:
408,320,160435,6,0,L|413:267,1,53.9999983520508,2|0,1:2|0:0,0:0:0:0:
416,212,160641,1,2,0:3:0:0:
500,164,160846,2,0,L|495:111,1,53.9999983520508,10|0,1:2|0:0,0:0:0:0:
488,56,161052,1,2,0:3:0:0:
392,12,161257,5,2,1:2:0:0:
340,108,161463,1,2,0:3:0:0:
264,32,161668,1,10,1:2:0:0:
208,124,161874,1,2,0:3:0:0:
128,52,162079,2,0,L|75:47,1,53.9999983520508,2|0,1:2|0:0,0:0:0:0:
32,80,162285,2,0,L|27:133,1,53.9999983520508,2|0,1:3|0:0,0:0:0:0:
56,180,162490,2,0,L|61:233,1,53.9999983520508,10|0,1:2|0:0,0:0:0:0:
28,280,162696,2,0,L|23:333,1,53.9999983520508,2|0,1:3|0:0,0:0:0:0:
68,364,162901,54,0,L|121:369,2,53.9999983520508,2|0|2,1:2|0:0|0:3,0:0:0:0:
140,284,163312,1,10,1:2:0:0:
232,344,163518,1,2,0:3:0:0:
288,252,163723,2,0,B|331:248|331:248|332:252|332:252|391:246,1,107.999996704102,2|2,1:2|0:3,0:0:0:0:
500,236,164134,1,10,1:2:0:0:
440,144,164340,1,2,0:3:0:0:
384,52,164545,5,2,1:2:0:0:
292,112,164751,2,0,L|238:116,2,53.9999983520508,2|0|10,0:3|0:0|1:2,0:0:0:0:
336,212,165162,2,0,L|340:266,1,53.9999983520508,2|0,0:3|0:0,0:0:0:0:
312,312,165367,2,0,L|259:317,2,53.9999983520508,2|0|2,1:2|0:0|0:3,0:0:0:0:
240,232,165778,2,0,L|132:222,1,107.999996704102,10|2,1:2|0:3,0:0:0:0:
44,280,166189,6,0,B|21:208|21:208|66:133,1,161.999995056153,2|0,1:2|0:0,0:0:0:0:
76,136,166600,2,0,B|128:152|128:152|179:137,1,107.999996704102,10|2,1:2|0:3,0:0:0:0:
268,88,167011,2,0,B|321:92,1,53.9999983520508,2|0,1:2|0:0,0:0:0:0:
360,128,167216,2,0,B|413:123,1,53.9999983520508,2|0,0:3|0:0,0:0:0:0:
468,120,167422,1,10,1:2:0:0:
512,220,167627,1,2,0:3:0:0:
428,284,167833,53,2,1:2:0:0:
428,284,167935,1,0,0:0:0:0:
428,284,168038,2,0,L|423:337,1,53.9999983520508,2|0,0:3|0:0,0:0:0:0:
384,376,168244,2,0,L|331:372,1,53.9999983520508,10|0,1:2|0:0,0:0:0:0:
296,328,168449,2,0,L|243:323,1,53.9999983520508,2|0,0:3|0:0,0:0:0:0:
188,320,168655,5,2,1:2:0:0:
132,228,168860,1,2,0:3:0:0:
32,272,169066,1,10,1:2:0:0:
48,164,169271,1,2,0:3:0:0:
148,120,169477,70,0,P|201:119|246:146,1,107.999996704102,2|2,1:2|0:3,0:0:0:0:
220,252,169888,2,0,P|273:253|318:224,1,107.999996704102,10|2,1:2|0:3,0:0:0:0:
396,148,170298,2,0,P|423:193|422:246,1,107.999996704102,2|2,1:2|0:3,0:0:0:0:
412,356,170709,2,0,P|456:327|510:328,1,107.999996704102,10|2,1:2|0:3,0:0:0:0:
504,216,171120,5,2,1:2:0:0:
396,148,171326,1,2,1:3:0:0:
272,168,171531,1,10,1:2:0:0:
224,64,171737,1,2,1:3:0:0:
108,112,171942,6,0,P|81:157|82:211,1,107.999996704102,0|2,1:2|0:3,0:0:0:0:
40,304,172353,2,0,L|94:299,2,53.9999983520508,8|8|10,0:0|0:0|0:0,0:0:0:0:
140,384,172764,54,0,B|191:379|191:379|227:328|227:328|274:324,1,161.999995056153,6|0,1:2|0:0,0:0:0:0:
275,323,173175,2,0,B|326:327|326:327|362:378|362:378|409:382,1,161.999995056153,10|0,1:2|0:0,0:0:0:0:
411,383,173586,6,0,L|415:329,1,53.9999983520508,2|0,1:2|0:0,0:0:0:0:
467,312,173792,2,0,L|462:258,1,53.9999983520508,2|0,1:3|0:0,0:0:0:0:
411,240,173997,2,0,L|415:186,1,53.9999983520508,10|0,1:2|0:0,0:0:0:0:
467,168,174203,2,0,L|462:114,1,53.9999983520508,2|0,1:3|0:0,0:0:0:0:
428,72,174408,6,0,L|374:67,2,53.9999983520508,2|0|2,1:2|0:0|0:3,0:0:0:0:
340,136,174819,2,0,L|286:131,2,53.9999983520508,10|0|2,1:2|0:0|0:3,0:0:0:0:
271,208,175230,2,0,P|264:233|266:260,1,53.9999983520508,2|0,1:2|0:0,0:0:0:0:
300,300,175435,2,0,P|302:326|294:352,1,53.9999983520508,2|0,1:3|0:0,0:0:0:0:
248,384,175641,1,10,1:2:0:0:
168,312,175846,1,2,0:3:0:0:
64,336,176052,54,0,L|69:283,1,53.9999983520508,2|0,1:2|0:0,0:0:0:0:
72,228,176257,1,2,0:3:0:0:
136,140,176463,2,0,L|189:135,1,53.9999983520508,10|0,1:2|0:0,0:0:0:0:
244,132,176668,1,2,0:3:0:0:
352,120,176874,2,0,P|391:158|404:210,1,107.999996704102,2|2,1:2|0:3,0:0:0:0:
296,224,177285,2,0,P|267:268|266:322,1,107.999996704102,10|2,1:2|0:3,0:0:0:0:
364,372,177696,5,2,1:2:0:0:
468,348,177901,1,2,0:3:0:0:
376,292,178107,1,10,1:2:0:0:
480,268,178312,1,2,0:3:0:0:
388,212,178518,2,0,L|335:207,2,53.9999983520508,2|0|2,1:2|0:0|0:3,0:0:0:0:
492,184,178929,1,10,1:2:0:0:
396,132,179134,1,2,0:3:0:0:
304,88,179340,6,0,B|244:82|244:82|229:65|229:65|212:79|212:79|155:75,1,161.999995056153,2|0,1:2|0:0,0:0:0:0:
144,76,179751,2,0,P|113:118|124:169,1,107.999996704102,10|2,1:2|0:3,0:0:0:0:
220,236,180162,2,0,P|145:207|68:228,1,161.999995056153,2|0,1:2|0:0,0:0:0:0:
68,240,180572,1,10,1:2:0:0:
0,312,180778,1,2,0:3:0:0:
100,376,180983,53,2,1:2:0:0:
100,376,181086,1,0,0:0:0:0:
100,376,181189,2,0,L|153:371,1,53.9999983520508,2|0,1:3|0:0,0:0:0:0:
196,335,181394,2,0,P|266:300|342:321,1,161.999995056153,10|0,1:2|0:0,0:0:0:0:
392,340,181805,6,0,L|397:287,2,53.9999983520508,2|0|2,1:2|0:0|1:3,0:0:0:0:
496,384,182216,2,0,L|510:222,1,161.999995056153,10|0,1:2|0:0,0:0:0:0:
512,208,182627,6,0,P|467:172|404:179,1,107.999996704102,2|2,1:2|0:3,0:0:0:0:
316,232,183038,1,10,1:2:0:0:
332,124,183244,1,2,0:3:0:0:
232,168,183449,2,0,P|180:180|132:157,1,107.999996704102,2|2,1:2|0:3,0:0:0:0:
88,60,183860,2,0,P|145:51|196:88,1,107.999996704102,10|2,1:2|0:3,0:0:0:0:
232,168,184271,69,2,1:2:0:0:
180,264,184477,1,2,0:3:0:0:
180,264,184682,1,0,0:0:0:0:
268,328,184888,5,2,1:3:0:0:
364,284,185093,1,8,0:0:0:0:
364,276,185196,1,8,0:0:0:0:
364,268,185298,1,8,0:0:0:0:
460,316,185504,70,0,L|464:262,2,53.9999983520508,8|8|8,0:0|0:0|0:0,0:0:0:0:
496,180,185915,70,0,B|501:133|501:133|497:128|497:128|501:125|501:125|505:85|505:85|509:81|509:81|506:77|506:77|510:24,1,161.999995056153,6|0,1:2|0:0,0:0:0:0:
510,24,186326,38,0,P|468:9|422:16,1,90,10|2,1:2|0:3,0:0:0:0:
344,60,186737,2,0,P|328:103|336:148,1,90,2|2,1:2|0:3,0:0:0:0:
348,236,187148,1,10,1:2:0:0:
264,220,187353,1,2,0:3:0:0:
188,172,187559,6,0,P|172:214|180:260,1,90,2|2,1:2|0:3,0:0:0:0:
196,304,187867,1,0,0:0:0:0:
196,304,187970,2,0,L|106:296,1,90,10|2,1:2|0:3,0:0:0:0:
60,372,188381,2,0,L|149:379,1,90,2|2,1:2|0:3,0:0:0:0:
240,384,188792,1,10,1:2:0:0:
308,324,188997,1,2,0:3:0:0:
388,368,189203,6,0,P|432:375|474:359,1,90,2|2,1:2|0:3,0:0:0:0:
512,276,189614,2,0,P|469:270|427:286,1,90,10|2,1:2|0:3,0:0:0:0:
360,224,190025,2,0,P|353:180|369:138,1,90,2|2,1:2|0:3,0:0:0:0:
428,64,190435,2,0,P|386:47|342:53,1,90,10|2,1:2|0:3,0:0:0:0:
268,108,190846,53,2,1:2:0:0:
268,108,191052,1,2,0:3:0:0:
212,180,191257,1,10,1:2:0:0:
212,180,191463,1,2,0:3:0:0:
216,276,191668,38,0,B|163:282|163:282|120:246|120:246|68:249,1,161.999995056153,2|0,1:2|0:0,0:0:0:0:
52,252,192079,2,0,B|46:198|46:198|82:155|82:155|78:103,1,161.999995056153,8|0,0:2|0:0,0:0:0:0:
80,92,192490,38,0,P|121:75|165:82,1,90,2|2,1:2|0:3,0:0:0:0:
240,28,192901,2,0,P|281:44|325:37,1,90,10|2,1:2|0:3,0:0:0:0:
408,72,193312,2,0,L|416:162,1,90,2|2,1:2|0:3,0:0:0:0:
500,192,193723,1,10,1:2:0:0:
432,252,193929,1,2,0:3:0:0:
344,248,194134,6,0,L|254:240,1,90,2|2,1:2|0:3,0:0:0:0:
224,212,194442,1,0,0:0:0:0:
224,212,194545,2,0,P|217:168|233:126,1,90,10|2,1:2|0:3,0:0:0:0:
272,44,194956,1,2,1:2:0:0:
184,40,195162,1,2,0:3:0:0:
184,40,195367,1,10,1:2:0:0:
108,80,195572,1,2,0:3:0:0:
108,80,195778,70,0,L|100:170,1,90,2|2,1:2|0:3,0:0:0:0:
68,256,196189,2,0,P|112:261|152:242,1,90,10|2,1:2|0:3,0:0:0:0:
232,200,196600,2,0,P|273:185|317:192,1,90,2|2,1:2|0:3,0:0:0:0:
392,252,197011,2,0,P|411:212|406:168,1,90,10|2,1:2|0:3,0:0:0:0:
392,80,197422,6,0,P|351:62|306:67,1,90,2|2,0:0|0:3,0:0:0:0:
228,108,197833,1,10,0:2:0:0:
228,108,198038,1,2,0:3:0:0:
152,156,198244,6,0,P|111:174|66:169,1,90,2|2,0:0|0:3,0:0:0:0:
4,112,198655,1,10,0:0:0:0:
4,112,198860,1,2,0:3:0:0:
144,12,199066,85,6,1:2:0:0:
