osu file format v14

[General]
AudioFilename: audio.mp3
AudioLeadIn: 0
PreviewTime: 52758
Countdown: 0
SampleSet: Soft
StackLeniency: 0.6
Mode: 0
LetterboxInBreaks: 0
WidescreenStoryboard: 0

[Editor]
Bookmarks: 79060,131662,131765,131868,131971,132073,132176,132279,132382,132484,132587,132690,132792,132895,132998,133101,133203,133306,133409,133512,133614,133717,133820,133923,134025,134128,134231,134334,134436,134539,134642,134745,134847,134950,135053,135156,135258,135361,135464,135566,135669,135772,135875,135977,136080,136183,136286,136388,136491,136594,136697,136799,136902,137005,137108,137210,137313,137416,137519,137621,137724,137827,137929,138032,138135,138238,138340,138443,138546,138649,138751,138854,138957,139060,139162,139265,139368,139471,139573,139676,139779,139882,139984,140087,140190,140292,140395,140498,140601,140703,140806,140909,141012,141114,141217,141320,141423,141525,141628,141731,141834,141936,142039,142142,142245,142347,142450,142553,142656,142758,142861,142964,143066,143169,144813,176868
DistanceSpacing: 1
BeatDivisor: 4
GridSize: 4
TimelineZoom: 2.4

[Metadata]
Title:Someone Special
TitleUnicode:Someone Special
Artist:tomatoism
ArtistUnicode:tomatoism
Creator:Jiysea
Version:E x p e r t
Source:
Tags:future funk simple tech dochakuso records female vocal chops japanese electronic DCKS-0049 OTAKIBA tokyo girls' style reflection lecandy
BeatmapID:2662926
BeatmapSetID:1282080

[Difficulty]
HPDrainRate:4
CircleSize:4
OverallDifficulty:8.5
ApproachRate:9.2
SliderMultiplier:2.7
SliderTickRate:1

[Events]
//Background and Video events
0,0,"shinobu.jpg",0,0
//Break Periods
2,131868,142605
//Storyboard Layer 0 (Background)
//Storyboard Layer 1 (Fail)
//Storyboard Layer 2 (Pass)
//Storyboard Layer 3 (Foreground)
//Storyboard Layer 4 (Overlay)
//Storyboard Sound Samples

[TimingPoints]
162,410.958904109589,4,2,1,5,1,0
6737,-133.333333333333,4,2,1,15,0,0
11668,-133.333333333333,4,2,1,45,0,0
13312,-83.3333333333333,4,2,1,70,0,0
13518,-83.3333333333333,4,2,3,70,0,0
13723,-133.333333333333,4,2,3,70,0,0
15983,-133.333333333333,4,2,15,50,0,0
16189,-133.333333333333,4,2,3,70,0,0
16394,-133.333333333333,4,2,15,50,0,0
16600,-133.333333333333,4,2,3,70,0,0
19066,-83.3333333333333,4,2,3,70,0,0
19374,-83.3333333333333,4,2,3,5,0,0
19477,-100,4,2,3,70,0,0
19785,-100,4,2,3,5,0,0
19888,-83.3333333333333,4,2,3,70,0,0
20298,-133.333333333333,4,2,3,70,0,0
22559,-133.333333333333,4,2,15,50,0,0
22764,-133.333333333333,4,2,3,70,0,0
22970,-133.333333333333,4,2,15,50,0,0
23175,-133.333333333333,4,2,3,70,0,0
26052,-133.333333333333,4,2,2,70,0,0
26463,-200,4,2,3,50,0,0
29648,-200,4,2,3,5,0,0
29751,-200,4,2,3,50,0,0
32935,-200,4,2,3,5,0,0
33038,-200,4,2,3,50,0,0
38792,-200,4,2,3,50,0,0
39203,-200,4,2,2,55,0,0
39614,-200,4,2,3,70,0,0
46189,-133.333333333333,4,2,3,70,0,0
47011,-200,4,2,3,70,0,0
47833,-133.333333333333,4,2,3,70,0,0
48655,-200,4,2,3,70,0,0
49477,-200,4,2,30,50,0,0
49682,-200,4,2,1,30,0,0
49888,-200,4,2,1,25,0,0
50298,-200,4,2,1,20,0,0
50709,-200,4,2,1,17,0,0
51120,-200,4,2,1,15,0,0
51531,-200,4,2,1,25,0,0
51737,-200,4,2,1,45,0,0
51942,-100,4,2,30,50,0,0
52251,-100,4,2,30,5,0,0
52353,-100,4,2,30,50,0,0
52661,-100,4,2,30,5,0,0
52764,-66.6666666666667,4,2,1,85,0,1
53072,-66.6666666666667,4,2,1,5,0,1
53175,-66.6666666666667,4,2,1,85,0,1
53483,-66.6666666666667,4,2,1,5,0,1
53586,-100,4,2,1,85,0,1
53689,-100,4,2,1,5,0,1
53792,-100,4,2,1,85,0,1
54100,-100,4,2,1,5,0,1
54203,-100,4,2,1,85,0,1
54408,-83.3333333333333,4,2,1,85,0,1
54511,-83.3333333333333,4,2,1,5,0,1
54614,-83.3333333333333,4,2,1,85,0,1
54716,-83.3333333333333,4,2,1,5,0,1
54819,-83.3333333333333,4,2,1,85,0,1
54922,-83.3333333333333,4,2,1,5,0,1
55025,-83.3333333333333,4,2,1,85,0,1
55127,-83.3333333333333,4,2,1,5,0,1
55230,-83.3333333333333,4,2,1,85,0,1
55333,-83.3333333333333,4,2,1,5,0,1
55435,-83.3333333333333,4,2,1,85,0,1
55538,-83.3333333333333,4,2,1,5,0,1
55641,-66.6666666666667,4,2,1,85,0,1
55744,-66.6666666666667,4,2,1,5,0,1
55846,-66.6666666666667,4,2,1,85,0,1
56052,-83.3333333333333,4,2,1,85,0,1
56360,-83.3333333333333,4,2,1,5,0,1
56463,-83.3333333333333,4,2,1,85,0,1
56566,-83.3333333333333,4,2,1,5,0,1
56668,-83.3333333333333,4,2,1,85,0,1
56771,-83.3333333333333,4,2,1,5,0,1
56874,-83.3333333333333,4,2,1,85,0,1
57182,-83.3333333333333,4,2,1,5,0,1
57285,-83.3333333333333,4,2,1,85,0,1
57388,-83.3333333333333,4,2,1,5,0,1
57490,-83.3333333333333,4,2,1,85,0,1
57593,-83.3333333333333,4,2,1,5,0,1
57696,-83.3333333333333,4,2,1,85,0,1
58518,-83.3333333333333,4,2,1,85,0,1
59237,-83.3333333333333,4,2,1,5,0,1
59340,-66.6666666666667,4,2,1,85,0,1
59648,-66.6666666666667,4,2,1,5,0,1
59751,-100,4,2,1,85,0,1
59853,-100,4,2,1,5,0,1
59956,-100,4,2,1,85,0,1
60059,-100,4,2,1,5,0,1
60161,-83.3333333333333,4,2,1,85,0,1
60470,-83.3333333333333,4,2,1,5,0,1
60572,-66.6666666666667,4,2,1,85,0,1
60675,-66.6666666666667,4,2,1,5,0,1
60778,-66.6666666666667,4,2,1,85,0,1
60881,-66.6666666666667,4,2,1,5,0,1
60983,-83.3333333333333,4,2,1,85,0,1
61497,-83.3333333333333,4,2,1,5,0,1
61600,-83.3333333333333,4,2,1,85,0,1
61703,-83.3333333333333,4,2,1,5,0,1
61805,-83.3333333333333,4,2,1,85,0,1
63449,-100,4,2,1,85,0,1
63552,-100,4,2,1,5,0,1
63655,-100,4,2,1,85,0,1
63963,-100,4,2,1,5,0,1
64066,-100,4,2,1,85,0,1
64271,-83.3333333333333,4,2,1,85,0,1
64374,-83.3333333333333,4,2,1,5,0,1
64477,-83.3333333333333,4,2,1,85,0,1
64579,-83.3333333333333,4,2,1,5,0,1
64682,-83.3333333333333,4,2,1,85,0,1
64785,-83.3333333333333,4,2,1,5,0,1
64888,-83.3333333333333,4,2,1,85,0,1
64990,-83.3333333333333,4,2,1,5,0,1
65093,-83.3333333333333,4,2,1,85,0,1
65196,-83.3333333333333,4,2,1,5,0,1
65298,-83.3333333333333,4,2,1,85,0,1
65401,-83.3333333333333,4,2,1,5,0,1
65504,-83.3333333333333,4,2,1,85,0,1
65607,-83.3333333333333,4,2,1,5,0,1
65709,-83.3333333333333,4,2,1,85,0,1
65812,-83.3333333333333,4,2,1,5,0,1
65915,-66.6666666666667,4,2,1,85,0,1
66223,-66.6666666666667,4,2,1,5,0,1
66326,-66.6666666666667,4,2,1,85,0,1
66634,-66.6666666666667,4,2,1,5,0,1
66737,-66.6666666666667,4,2,1,85,0,1
66840,-66.6666666666667,4,2,1,5,0,1
66942,-66.6666666666667,4,2,1,85,0,1
67045,-66.6666666666667,4,2,1,5,0,1
67148,-66.6666666666667,4,2,1,85,0,1
67251,-66.6666666666667,4,2,1,5,0,1
67353,-66.6666666666667,4,2,1,85,0,1
67456,-66.6666666666667,4,2,1,5,0,1
67559,-83.3333333333333,4,2,1,85,0,1
68483,-83.3333333333333,4,2,1,5,0,1
68586,-83.3333333333333,4,2,1,85,0,1
68689,-83.3333333333333,4,2,1,5,0,1
68792,-83.3333333333333,4,2,1,85,0,1
69100,-83.3333333333333,4,2,1,5,0,1
69203,-83.3333333333333,4,2,1,85,0,1
69305,-83.3333333333333,4,2,1,5,0,1
69408,-83.3333333333333,4,2,1,85,0,1
69716,-83.3333333333333,4,2,1,5,0,1
69819,-83.3333333333333,4,2,1,85,0,1
70949,-83.3333333333333,4,2,1,5,0,1
71052,-83.3333333333333,4,2,1,85,0,1
71155,-83.3333333333333,4,2,1,5,0,1
71257,-83.3333333333333,4,2,1,85,0,1
71360,-83.3333333333333,4,2,1,5,0,1
71463,-83.3333333333333,4,2,1,85,0,1
71566,-83.3333333333333,4,2,1,5,0,1
71668,-83.3333333333333,4,2,1,85,0,1
72182,-83.3333333333333,4,2,1,5,0,1
72285,-83.3333333333333,4,2,1,85,0,1
72388,-83.3333333333333,4,2,1,5,0,1
72490,-66.6666666666667,4,2,1,85,0,1
72798,-66.6666666666667,4,2,1,5,0,1
72901,-100,4,2,1,85,0,1
73004,-100,4,2,1,5,0,1
73107,-100,4,2,1,85,0,1
73209,-100,4,2,1,5,0,1
73312,-83.3333333333333,4,2,1,85,0,1
73620,-83.3333333333333,4,2,1,5,0,1
73723,-66.6666666666667,4,2,1,85,0,1
73826,-66.6666666666667,4,2,1,5,0,1
73929,-66.6666666666667,4,2,1,85,0,1
74031,-66.6666666666667,4,2,1,5,0,1
74134,-83.3333333333333,4,2,1,85,0,1
74237,-83.3333333333333,4,2,1,5,0,1
74340,-83.3333333333333,4,2,1,85,0,1
74442,-83.3333333333333,4,2,1,5,0,1
74545,-133.333333333333,4,2,1,85,0,1
74853,-133.333333333333,4,2,1,5,0,1
74956,-83.3333333333333,4,2,1,85,0,1
75059,-83.3333333333333,4,2,1,5,0,1
75162,-83.3333333333333,4,2,1,85,0,1
75264,-83.3333333333333,4,2,1,5,0,1
75367,-100,4,2,1,85,0,1
75675,-100,4,2,1,5,0,1
75778,-83.3333333333333,4,2,1,85,0,1
76292,-83.3333333333333,4,2,1,5,0,1
76394,-83.3333333333333,4,2,1,85,0,1
76497,-83.3333333333333,4,2,1,5,0,1
76600,-83.3333333333333,4,2,1,85,0,1
77422,-66.6666666666667,4,2,1,85,0,1
77730,-66.6666666666667,4,2,1,5,0,1
77833,-83.3333333333333,4,2,1,85,0,1
78141,-83.3333333333333,4,2,1,5,0,1
78244,-83.3333333333333,4,2,2,85,0,1
78860,-83.3333333333333,4,2,2,85,0,1
79066,-100,4,2,1,60,0,0
79271,-100,4,2,3,60,0,0
79477,-200,4,2,3,60,0,0
82251,-200,4,2,3,5,0,0
82353,-200,4,2,3,50,0,0
83175,-200,4,2,3,40,0,0
83997,-333.333333333333,4,2,3,30,0,0
84819,-333.333333333333,4,2,3,30,0,0
85538,-333.333333333333,4,2,3,5,0,0
85641,-333.333333333333,4,2,3,30,0,0
86874,-333.333333333333,4,2,4,30,0,0
87285,-333.333333333333,4,2,3,30,0,0
88107,-333.333333333333,4,2,4,30,0,0
88518,-333.333333333333,4,2,3,30,0,0
88929,-200,4,2,3,30,0,0
89751,-200,4,2,4,30,0,0
90572,-200,4,2,3,30,0,0
91394,-200,4,2,2,40,0,0
92216,-200,4,2,3,70,0,0
93244,-200,4,2,15,70,0,0
93449,-200,4,2,3,70,0,0
93655,-200,4,2,15,70,0,0
93860,-200,4,2,3,70,0,0
96531,-200,4,2,15,70,0,0
96737,-200,4,2,3,70,0,0
96942,-200,4,2,15,70,0,0
97148,-200,4,2,3,70,0,0
98483,-200,4,2,3,5,0,0
98586,-200,4,2,3,70,0,0
98792,-133.333333333333,4,2,3,70,0,0
99614,-200,4,2,3,70,0,0
100435,-133.333333333333,4,2,3,70,0,0
101257,-200,4,2,3,70,0,0
101566,-200,4,2,3,5,0,0
101668,-200,4,2,3,70,0,0
102079,-333.333333333333,4,2,30,50,0,0
102285,-333.333333333333,4,2,3,50,0,0
102490,-333.333333333333,4,2,3,20,0,0
102901,-333.333333333333,4,2,3,11,0,0
103312,-333.333333333333,4,2,3,5,0,0
103518,-200,4,2,3,11,0,0
103723,-200,4,2,3,11,0,0
104134,-200,4,2,3,11,0,0
104545,-153.846153846154,4,2,30,30,0,0
104853,-153.846153846154,4,2,30,5,0,0
104956,-100,4,2,30,60,0,0
105264,-100,4,2,30,5,0,0
105367,-66.6666666666667,4,2,1,85,0,1
105675,-66.6666666666667,4,2,1,5,0,1
105778,-66.6666666666667,4,2,1,85,0,1
106086,-66.6666666666667,4,2,1,5,0,1
106189,-66.6666666666667,4,2,1,85,0,1
106292,-66.6666666666667,4,2,1,5,0,1
106394,-66.6666666666667,4,2,1,85,0,1
106497,-66.6666666666667,4,2,1,5,0,1
106600,-66.6666666666667,4,2,1,85,0,1
106703,-66.6666666666667,4,2,1,5,0,1
106805,-66.6666666666667,4,2,1,85,0,1
106908,-66.6666666666667,4,2,1,5,0,1
107011,-83.3333333333333,4,2,1,85,0,1
107114,-83.3333333333333,4,2,1,5,0,1
107216,-83.3333333333333,4,2,1,85,0,1
107319,-83.3333333333333,4,2,1,5,0,1
107422,-83.3333333333333,4,2,1,85,0,1
107525,-83.3333333333333,4,2,1,5,0,1
107627,-83.3333333333333,4,2,1,85,0,1
107730,-83.3333333333333,4,2,1,5,0,1
107833,-83.3333333333333,4,2,1,85,0,1
107935,-83.3333333333333,4,2,1,5,0,1
108038,-83.3333333333333,4,2,1,85,0,1
108346,-83.3333333333333,4,2,1,5,0,1
108449,-83.3333333333333,4,2,1,85,0,1
109579,-83.3333333333333,4,2,1,5,0,1
109682,-83.3333333333333,4,2,1,85,0,1
109785,-83.3333333333333,4,2,1,5,0,1
109888,-83.3333333333333,4,2,1,85,0,1
109990,-83.3333333333333,4,2,1,5,0,1
110093,-83.3333333333333,4,2,1,85,0,1
110298,-83.3333333333333,4,2,1,85,0,1
111120,-66.6666666666667,4,2,1,85,0,1
111429,-66.6666666666667,4,2,1,5,0,1
111531,-83.3333333333333,4,2,1,85,0,1
111840,-83.3333333333333,4,2,1,5,0,1
111942,-100,4,2,1,85,0,1
112251,-100,4,2,1,5,0,1
112353,-100,4,2,1,85,0,1
112661,-100,4,2,1,5,0,1
112764,-83.3333333333333,4,2,1,85,0,1
113894,-83.3333333333333,4,2,1,5,0,1
113997,-83.3333333333333,4,2,1,85,0,1
114511,-83.3333333333333,4,2,1,5,0,1
114614,-83.3333333333333,4,2,1,85,0,1
114716,-83.3333333333333,4,2,1,5,0,1
114819,-83.3333333333333,4,2,1,85,0,1
115333,-83.3333333333333,4,2,1,5,0,1
115435,-83.3333333333333,4,2,1,85,0,1
115744,-83.3333333333333,4,2,1,5,0,1
115846,-83.3333333333333,4,2,1,85,0,1
115949,-83.3333333333333,4,2,1,5,0,1
116052,-83.3333333333333,4,2,1,85,0,1
116874,-66.6666666666667,4,2,1,85,0,1
116977,-66.6666666666667,4,2,1,5,0,1
117079,-66.6666666666667,4,2,1,85,0,1
117182,-66.6666666666667,4,2,1,5,0,1
117285,-66.6666666666667,4,2,1,85,0,1
117388,-66.6666666666667,4,2,1,5,0,1
117490,-66.6666666666667,4,2,1,85,0,1
117593,-66.6666666666667,4,2,1,5,0,1
117696,-66.6666666666667,4,2,1,85,0,1
117798,-66.6666666666667,4,2,1,5,0,1
117901,-66.6666666666667,4,2,1,85,0,1
118004,-66.6666666666667,4,2,1,5,0,1
118107,-100,4,2,1,85,0,1
118209,-100,4,2,1,5,0,1
118312,-100,4,2,1,85,0,1
118415,-100,4,2,1,5,0,1
118518,-66.6666666666667,4,2,1,70,0,0
118826,-66.6666666666667,4,2,1,5,0,0
118929,-66.6666666666667,4,2,1,70,0,0
119237,-66.6666666666667,4,2,1,5,0,0
119340,-100,4,2,1,70,0,0
120161,-100,4,2,1,70,0,0
120470,-100,4,2,1,5,0,0
120572,-100,4,2,1,70,0,0
120881,-100,4,2,1,5,0,0
120983,-100,4,2,1,70,0,0
121086,-100,4,2,1,5,0,0
121189,-100,4,2,1,70,0,0
121394,-100,4,2,1,70,0,0
121497,-100,4,2,1,5,0,0
121600,-100,4,2,1,70,0,0
121805,-100,4,2,1,50,0,0
122627,-100,4,2,1,50,0,0
122730,-100,4,2,1,5,0,0
122833,-100,4,2,1,50,0,0
122935,-100,4,2,1,5,0,0
123038,-100,4,2,1,50,0,0
123141,-100,4,2,1,5,0,0
123244,-100,4,2,1,50,0,0
123346,-100,4,2,1,5,0,0
123449,-100,4,2,1,40,0,0
124271,-100,4,2,1,40,0,0
124374,-100,4,2,1,5,0,0
124477,-100,4,2,1,40,0,0
124579,-100,4,2,1,5,0,0
124682,-100,4,2,1,40,0,0
124785,-100,4,2,1,5,0,0
124888,-100,4,2,1,40,0,0
124990,-100,4,2,1,5,0,0
125093,-133.333333333333,4,2,1,30,0,0
125401,-133.333333333333,4,2,1,5,0,0
125504,-133.333333333333,4,2,1,30,0,0
125812,-133.333333333333,4,2,1,5,0,0
125915,-133.333333333333,4,2,1,30,0,0
126737,-133.333333333333,4,2,1,20,0,0
127559,-133.333333333333,4,2,1,18,0,0
128381,-133.333333333333,4,2,1,16,0,0
129203,-133.333333333333,4,2,1,14,0,0
130025,-133.333333333333,4,2,1,12,0,0
130846,-133.333333333333,4,2,1,10,0,0
131668,-133.333333333333,4,2,25,5,0,0
143175,-133.333333333333,4,2,25,5,0,0
144819,-200,4,2,3,40,0,0
145127,-200,4,2,3,5,0,0
145230,-200,4,2,4,40,0,0
145435,-200,4,2,3,40,0,0
145538,-200,4,2,3,5,0,0
145846,-200,4,2,3,40,0,0
145949,-200,4,2,3,5,0,0
146052,-200,4,2,4,40,0,0
146257,-200,4,2,3,40,0,0
146360,-200,4,2,3,5,0,0
146463,-200,4,2,3,40,0,0
146771,-200,4,2,3,5,0,0
146874,-200,4,2,4,40,0,0
147079,-200,4,2,3,40,0,0
147696,-200,4,2,4,40,0,0
147901,-200,4,2,3,40,0,0
148518,-200,4,2,4,40,0,0
148723,-200,4,2,3,40,0,0
148826,-200,4,2,3,5,0,0
149134,-200,4,2,3,40,0,0
149237,-200,4,2,3,5,0,0
149340,-200,4,2,4,40,0,0
149545,-200,4,2,3,40,0,0
149648,-200,4,2,3,5,0,0
149751,-200,4,2,3,40,0,0
150059,-200,4,2,3,5,0,0
150162,-200,4,2,4,40,0,0
150367,-200,4,2,3,40,0,0
150572,-200,4,2,3,40,0,0
150983,-200,4,2,4,40,0,0
151189,-200,4,2,3,50,0,0
151394,-133.333333333333,4,2,3,60,0,0
151703,-133.333333333333,4,2,3,5,0,0
151805,-133.333333333333,4,2,3,60,0,0
153757,-133.333333333333,4,2,3,5,0,0
153860,-133.333333333333,4,2,3,60,0,0
154682,-133.333333333333,4,2,3,70,0,0
157970,-133.333333333333,4,2,40,5,0,0
159203,-133.333333333333,4,2,20,70,0,0
159614,-66.6666666666667,4,2,1,85,0,1
159922,-66.6666666666667,4,2,1,5,0,1
160025,-66.6666666666667,4,2,1,85,0,1
160333,-66.6666666666667,4,2,1,5,0,1
160435,-100,4,2,1,85,0,1
160538,-100,4,2,1,5,0,1
160641,-100,4,2,1,85,0,1
160949,-100,4,2,1,5,0,1
161052,-100,4,2,1,85,0,1
161257,-83.3333333333333,4,2,1,85,0,1
161360,-83.3333333333333,4,2,1,5,0,1
161463,-83.3333333333333,4,2,1,85,0,1
161566,-83.3333333333333,4,2,1,5,0,1
161668,-83.3333333333333,4,2,1,85,0,1
161771,-83.3333333333333,4,2,1,5,0,1
161874,-83.3333333333333,4,2,1,85,0,1
161977,-83.3333333333333,4,2,1,5,0,1
162079,-83.3333333333333,4,2,1,85,0,1
162182,-83.3333333333333,4,2,1,5,0,1
162285,-83.3333333333333,4,2,1,85,0,1
162388,-83.3333333333333,4,2,1,5,0,1
162490,-83.3333333333333,4,2,1,85,0,1
163209,-83.3333333333333,4,2,1,5,0,1
163312,-83.3333333333333,4,2,1,85,0,1
163415,-83.3333333333333,4,2,1,5,0,1
163518,-83.3333333333333,4,2,1,85,0,1
163620,-83.3333333333333,4,2,1,5,0,1
163723,-83.3333333333333,4,2,1,85,0,1
164031,-83.3333333333333,4,2,1,5,0,1
164134,-83.3333333333333,4,2,1,85,0,1
164237,-83.3333333333333,4,2,1,5,0,1
164340,-83.3333333333333,4,2,1,85,0,1
164442,-83.3333333333333,4,2,1,5,0,1
164545,-83.3333333333333,4,2,1,85,0,1
165881,-83.3333333333333,4,2,1,5,0,1
165983,-83.3333333333333,4,2,1,85,0,1
166086,-83.3333333333333,4,2,1,5,0,1
166189,-66.6666666666667,4,2,1,85,0,1
166497,-66.6666666666667,4,2,1,5,0,1
166600,-100,4,2,1,85,0,1
166703,-100,4,2,1,5,0,1
166805,-100,4,2,1,85,0,1
166908,-100,4,2,1,5,0,1
167011,-83.3333333333333,4,2,1,85,0,1
167114,-83.3333333333333,4,2,1,5,0,1
167216,-83.3333333333333,4,2,1,85,0,1
167319,-83.3333333333333,4,2,1,5,0,1
167422,-66.6666666666667,4,2,1,85,0,1
167525,-66.6666666666667,4,2,1,5,0,1
167627,-66.6666666666667,4,2,1,85,0,1
167730,-66.6666666666667,4,2,1,5,0,1
167833,-83.3333333333333,4,2,1,85,0,1
168346,-83.3333333333333,4,2,1,5,0,1
168449,-83.3333333333333,4,2,1,85,0,1
168552,-83.3333333333333,4,2,1,5,0,1
168655,-83.3333333333333,4,2,1,85,0,1
169579,-83.3333333333333,4,2,1,5,0,1
169682,-83.3333333333333,4,2,1,85,0,1
170196,-83.3333333333333,4,2,1,5,0,1
170298,-100,4,2,1,85,0,1
170401,-100,4,2,1,5,0,1
170504,-100,4,2,1,85,0,1
170812,-100,4,2,1,5,0,1
170915,-100,4,2,1,85,0,1
171120,-83.3333333333333,4,2,1,85,0,1
171223,-83.3333333333333,4,2,1,5,0,1
171326,-83.3333333333333,4,2,1,85,0,1
171429,-83.3333333333333,4,2,1,5,0,1
171531,-83.3333333333333,4,2,1,85,0,1
171634,-83.3333333333333,4,2,1,5,0,1
171737,-83.3333333333333,4,2,1,85,0,1
171840,-83.3333333333333,4,2,1,5,0,1
171942,-83.3333333333333,4,2,1,85,0,1
172251,-83.3333333333333,4,2,1,5,0,1
172353,-83.3333333333333,4,2,2,85,0,1
172764,-66.6666666666667,4,2,1,85,0,1
173072,-66.6666666666667,4,2,1,5,0,1
173175,-66.6666666666667,4,2,1,85,0,1
173483,-66.6666666666667,4,2,1,5,0,1
173586,-66.6666666666667,4,2,1,85,0,1
173689,-66.6666666666667,4,2,1,5,0,1
173792,-66.6666666666667,4,2,1,85,0,1
173894,-66.6666666666667,4,2,1,5,0,1
173997,-66.6666666666667,4,2,1,85,0,1
174100,-66.6666666666667,4,2,1,5,0,1
174203,-66.6666666666667,4,2,1,85,0,1
174305,-66.6666666666667,4,2,1,5,0,1
174408,-83.3333333333333,4,2,1,85,0,1
175333,-83.3333333333333,4,2,1,5,0,1
175435,-83.3333333333333,4,2,1,85,0,1
175538,-83.3333333333333,4,2,1,5,0,1
175641,-83.3333333333333,4,2,1,85,0,1
175949,-83.3333333333333,4,2,1,5,0,1
176052,-83.3333333333333,4,2,1,85,0,1
176155,-83.3333333333333,4,2,1,5,0,1
176257,-83.3333333333333,4,2,1,85,0,1
176566,-83.3333333333333,4,2,1,5,0,1
176668,-83.3333333333333,4,2,1,85,0,1
177798,-83.3333333333333,4,2,1,5,0,1
177901,-83.3333333333333,4,2,1,85,0,1
178004,-83.3333333333333,4,2,1,5,0,1
178107,-83.3333333333333,4,2,1,85,0,1
178209,-83.3333333333333,4,2,1,5,0,1
178312,-83.3333333333333,4,2,1,85,0,1
178415,-83.3333333333333,4,2,1,5,0,1
178518,-83.3333333333333,4,2,1,85,0,1
179237,-83.3333333333333,4,2,1,5,0,1
179340,-66.6666666666667,4,2,1,85,0,1
179648,-66.6666666666667,4,2,1,5,0,1
179751,-66.6666666666667,4,2,1,85,0,1
180059,-66.6666666666667,4,2,1,5,0,1
180162,-83.3333333333333,4,2,1,85,0,1
180470,-83.3333333333333,4,2,1,5,0,1
180572,-66.6666666666667,4,2,1,85,0,1
180675,-66.6666666666667,4,2,1,5,0,1
180778,-66.6666666666667,4,2,1,85,0,1
180881,-66.6666666666667,4,2,1,5,0,1
180983,-83.3333333333333,4,2,1,85,0,1
181086,-83.3333333333333,4,2,1,5,0,1
181189,-83.3333333333333,4,2,1,85,0,1
181292,-83.3333333333333,4,2,1,5,0,1
181394,-133.333333333333,4,2,1,85,0,1
181703,-133.333333333333,4,2,1,5,0,1
181805,-83.3333333333333,4,2,1,85,0,1
181908,-83.3333333333333,4,2,1,5,0,1
182011,-83.3333333333333,4,2,1,85,0,1
182114,-83.3333333333333,4,2,1,5,0,1
182216,-100,4,2,1,85,0,1
182627,-83.3333333333333,4,2,1,85,0,1
183141,-83.3333333333333,4,2,1,5,0,1
183244,-83.3333333333333,4,2,1,85,0,1
183552,-83.3333333333333,4,2,1,5,0,1
183655,-83.3333333333333,4,2,1,85,0,1
183757,-83.3333333333333,4,2,1,5,0,1
183860,-83.3333333333333,4,2,1,85,0,1
185093,-83.3333333333333,4,2,2,85,0,1
185915,-100,4,2,1,70,0,0
186120,-100,4,2,1,70,0,0
186223,-100,4,2,1,5,0,0
186326,-133.333333333333,4,2,1,70,0,0
188586,-133.333333333333,4,2,15,70,0,0
188792,-133.333333333333,4,2,1,70,0,0
188997,-133.333333333333,4,2,15,70,0,0
189203,-133.333333333333,4,2,1,70,0,0
191668,-83.3333333333333,4,2,1,70,0,0
191977,-83.3333333333333,4,2,1,5,0,0
192079,-200,4,2,1,70,0,0
192388,-200,4,2,1,5,0,0
192490,-100,4,2,1,70,0,0
192798,-100,4,2,1,5,0,0
192901,-133.333333333333,4,2,1,70,0,0
195162,-133.333333333333,4,2,15,70,0,0
195367,-133.333333333333,4,2,1,70,0,0
195572,-133.333333333333,4,2,15,70,0,0
195778,-133.333333333333,4,2,1,70,0,0
197422,-133.333333333333,4,2,1,40,0,0
197833,-133.333333333333,4,2,1,40,0,0
197935,-133.333333333333,4,2,1,5,0,0
198038,-133.333333333333,4,2,1,40,0,0
198141,-133.333333333333,4,2,1,5,0,0
198244,-133.333333333333,4,2,1,40,0,0
198655,-133.333333333333,4,2,1,40,0,0
199066,-100,4,2,1,20,0,0

[Colours]
Combo1 : 150,146,154
Combo2 : 43,206,190
Combo3 : 249,233,142
Combo4 : 152,103,241
Combo5 : 112,137,136
Combo6 : 171,169,158

[HitObjects]
256,192,6737,12,0,12901,0:0:0:0:
28,124,13312,6,0,B|69:123|95:80|95:80|117:39|159:42,1,161.999995056153,4|2,1:2|0:3,0:0:0:0:
228,128,13723,54,0,P|185:102|164:56,1,101.250003862381,8|2,1:2|0:3,0:0:0:0:
304,144,14134,2,0,P|278:186|232:207,1,101.250003862381,0|2,1:2|0:3,0:0:0:0:
244,52,14545,1,8,1:2:0:0:
120,164,14751,1,2,0:3:0:0:
332,60,14956,6,0,P|374:85|395:131,1,101.250003862381,0|2,1:2|0:3,0:0:0:0:
460,280,15367,2,0,P|417:254|396:208,1,101.250003862381,8|2,1:2|0:3,0:0:0:0:
480,100,15778,1,0,1:0:0:0:
308,236,15983,1,2,0:3:0:0:
231,182,16189,1,8,1:2:0:0:
313,142,16394,1,2,0:3:0:0:
416,348,16600,54,0,L|315:339,1,101.250003862381,0|2,1:0|0:3,0:0:0:0:
220,328,17011,1,8,1:2:0:0:
312,232,17216,1,0,0:3:0:0:
152,280,17422,2,0,P|134:326|146:375,1,101.250003862381,0|2,1:2|0:3,0:0:0:0:
228,252,17833,2,0,P|196:213|148:199,1,101.250003862381,8|2,1:2|0:3,0:0:0:0:
0,308,18141,1,0,0:0:0:0:
0,308,18244,6,0,P|38:276|52:228,1,101.250003862381,0|2,1:2|0:3,0:0:0:0:
132,64,18655,2,0,P|93:95|79:143,1,101.250003862381,8|2,1:2|0:3,0:0:0:0:
224,248,19066,22,0,B|283:242|283:242|322:262|322:262|350:228|390:221|428:228|460:256,1,242.999992584229,2|0,1:2|0:0,0:0:0:0:
455,256,19477,2,0,P|386:200|454:143,1,202.5,10|0,1:2|0:0,0:0:0:0:
464,144,19888,2,0,B|402:138|402:138|368:159|368:159|308:154,1,161.999995056153,2|2,1:2|0:3,0:0:0:0:
192,60,20298,38,0,L|293:69,1,101.250003862381,8|2,1:2|0:3,0:0:0:0:
156,164,20709,1,0,1:0:0:0:
84,68,20915,1,2,0:3:0:0:
48,256,21120,1,8,1:2:0:0:
200,64,21326,1,2,0:3:0:0:
224,252,21531,6,0,P|181:275|131:271,1,101.250003862381,0|2,1:0|0:3,0:0:0:0:
32,176,21840,1,0,0:0:0:0:
32,176,21942,2,0,P|74:152|124:156,1,101.250003862381,8|2,1:2|0:3,0:0:0:0:
216,268,22353,2,0,P|173:291|123:287,1,101.250003862381,0|2,1:2|0:3,0:0:0:0:
300,156,22764,1,8,1:2:0:0:
300,156,22867,1,0,0:0:0:0:
300,156,22970,1,2,0:3:0:0:
280,312,23175,5,0,1:2:0:0:
236,376,23381,1,2,0:3:0:0:
440,240,23586,1,8,1:2:0:0:
484,304,23792,1,2,0:3:0:0:
300,156,23997,69,0,1:0:0:0:
229,189,24203,1,2,0:3:0:0:
440,64,24408,1,8,1:2:0:0:
510,97,24614,1,2,0:3:0:0:
300,40,24819,6,0,L|199:49,1,101.250003862381,0|2,1:0|0:3,0:0:0:0:
344,232,25127,1,0,0:0:0:0:
344,232,25230,2,0,L|445:223,1,101.250003862381,8|2,1:2|0:3,0:0:0:0:
272,52,25641,2,0,L|171:61,1,101.250003862381,0|2,1:0|0:3,0:0:0:0:
316,244,26052,1,8,0:0:0:0:
366,239,26155,1,8,0:0:0:0:
416,235,26257,1,8,0:0:0:0:
100,356,26463,54,0,L|32:361,1,67.5,2|0,1:2|0:0,0:0:0:0:
244,260,26874,1,0,1:0:0:0:
120,336,27079,2,0,L|52:341,1,67.5,2|2,0:0|1:2,0:0:0:0:
96,196,27490,1,0,0:0:0:0:
248,188,27696,1,0,1:0:0:0:
92,204,27901,1,2,0:0:0:0:
216,112,28107,6,0,L|283:106,1,67.5,2|2,1:2|0:0,0:0:0:0:
104,40,28518,2,0,L|171:45,1,67.5,2|2,1:2|0:0,0:0:0:0:
280,104,28929,1,2,1:2:0:0:
171,45,29134,1,2,0:0:0:0:
340,52,29340,6,0,P|363:95|348:148,1,101.25,2|0,1:2|0:0,0:0:0:0:
348,152,29751,54,0,L|415:157,1,67.5,2|0,1:2|0:0,0:0:0:0:
220,212,30161,1,0,1:0:0:0:
356,172,30367,2,0,L|423:177,1,67.5,2|2,0:0|1:2,0:0:0:0:
444,352,30778,1,0,0:0:0:0:
424,188,30983,1,0,1:0:0:0:
452,356,31189,1,2,0:0:0:0:
288,312,31394,6,0,L|294:245,1,67.5,2|2,1:2|0:0,0:0:0:0:
192,340,31805,2,0,L|125:335,1,67.5,0|2,1:0|0:0,0:0:0:0:
294,244,32216,1,2,1:2:0:0:
124,334,32422,1,2,0:0:0:0:
372,260,32627,6,0,P|370:211|330:172,1,101.25,2|0,1:2|0:0,0:0:0:0:
328,164,33038,54,0,L|395:158,1,67.5,2|0,1:2|0:0,0:0:0:0:
416,140,33346,1,2,0:0:0:0:
416,140,33449,1,8,1:2:0:0:
204,64,33655,1,0,0:0:0:0:
204,64,33860,6,0,L|137:58,1,67.5,2|0,1:2|0:0,0:0:0:0:
116,40,34168,1,2,0:0:0:0:
116,40,34271,1,8,1:2:0:0:
248,200,34477,1,0,0:0:0:0:
248,200,34682,6,0,P|272:248|248:301,1,101.25,2|2,1:2|0:0,0:0:0:0:
248,304,35093,2,0,L|180:298,1,67.5,8|0,1:2|0:0,0:0:0:0:
328,176,35504,2,0,P|355:194|389:193,1,67.5,0|2,1:0|0:0,0:0:0:0:
192,136,35915,2,0,P|219:117|253:118,1,67.5,10|0,1:2|0:0,0:0:0:0:
88,232,36326,53,0,1:0:0:0:
184,316,36531,2,0,P|202:288|201:254,1,67.5,2|8,0:0|1:2,0:0:0:0:
132,84,36942,2,0,P|113:111|114:145,1,67.5,2|0,0:0|1:2,0:0:0:0:
260,200,37353,1,2,0:0:0:0:
8,220,37559,1,8,1:2:0:0:
188,132,37764,1,2,0:0:0:0:
260,304,37970,6,0,L|327:298,1,67.5,0|0,1:2|0:0,0:0:0:0:
448,228,38381,1,8,1:2:0:0:
464,220,38792,2,0,L|458:152,1,67.5,0|0,1:0|0:0,0:0:0:0:
500,40,39203,2,0,L|466:42,2,33.75,10|8|8,0:0|0:0|0:0,0:0:0:0:
336,168,39614,6,0,P|302:168|274:150,1,67.5,2|2,1:2|0:0,0:0:0:0:
132,36,40025,1,8,1:2:0:0:
328,96,40230,1,2,0:0:0:0:
112,140,40435,2,0,P|87:162|80:195,1,67.5,2|2,1:2|0:3,0:0:0:0:
268,268,40846,2,0,P|245:243|212:236,1,67.5,8|2,1:2|0:3,0:0:0:0:
84,384,41257,54,0,P|108:361|115:328,1,67.5,0|2,1:0|0:0,0:0:0:0:
112,140,41668,1,8,1:2:0:0:
32,320,41874,1,2,0:0:0:0:
240,160,42079,2,0,L|234:92,1,67.5,2|2,1:2|0:3,0:0:0:0:
152,60,42490,1,10,1:2:0:0:
400,28,42696,1,2,0:0:0:0:
148,152,42901,6,0,L|80:146,2,67.5,2|2|10,1:2|0:0|1:2,0:0:0:0:
240,160,43518,1,2,0:0:0:0:
292,384,43723,2,0,P|316:361|323:328,1,67.5,2|2,1:2|0:3,0:0:0:0:
424,168,44134,2,0,P|399:145|392:112,1,67.5,8|2,1:2|0:3,0:0:0:0:
456,280,44545,6,0,P|433:255|400:248,1,67.5,0|2,1:0|0:0,0:0:0:0:
252,256,44956,1,8,1:2:0:0:
252,256,45059,1,0,0:0:0:0:
252,256,45162,1,2,0:0:0:0:
348,384,45367,2,0,L|345:350,1,33.75,0|0,1:2|0:0,0:0:0:0:
456,280,45572,1,2,0:0:0:0:
456,280,45778,2,0,L|458:313,1,33.75,8|0,1:2|0:0,0:0:0:0:
504,384,45983,1,2,0:0:0:0:
280,188,46189,54,0,B|236:164|184:196|184:196|132:228|77:188,1,202.500007724762,2|8,1:2|1:2,0:0:0:0:
76,192,46805,2,0,L|80:141,1,50.6250019311906,2|0,0:0|0:0,0:0:0:0:
144,28,47011,1,0,1:0:0:0:
144,28,47216,2,0,L|177:30,1,33.75,2|2,0:0|0:0,0:0:0:0:
316,72,47422,1,10,1:2:0:0:
316,72,47627,2,0,L|313:105,1,33.75,2|0,0:0|0:0,0:0:0:0:
336,276,47833,6,0,P|412:308|402:225,1,202.500007724762,2|8,1:2|1:2,0:0:0:0:
388,220,48449,2,0,L|383:270,1,50.6250019311906,2|0,0:0|0:0,0:0:0:0:
240,368,48655,1,0,1:0:0:0:
240,368,48860,2,0,L|207:366,1,33.75,2|0,0:3|0:0,0:0:0:0:
48,204,49066,1,10,1:2:0:0:
74,181,49168,1,0,0:0:0:0:
106,171,49271,1,2,0:0:0:0:
139,176,49374,1,0,0:0:0:0:
167,193,49477,5,2,0:0:0:0:
240,268,49682,1,0,1:0:0:0:
156,208,49888,1,0,1:0:0:0:
229,283,50093,1,0,1:0:0:0:
336,204,50298,1,0,1:0:0:0:
360,232,50504,1,0,1:0:0:0:
328,224,50709,1,0,1:0:0:0:
340,216,50915,1,0,1:0:0:0:
464,264,51120,53,0,1:0:0:0:
484,276,51326,1,0,1:0:0:0:
400,332,51531,1,0,1:0:0:0:
472,176,51737,1,0,1:0:0:0:
245,160,51942,6,0,B|174:154|174:154|127:186|127:186|53:179,1,202.5,4|0,0:0|0:0,0:0:0:0:
48,195,52353,6,0,B|121:201|121:201|168:169|168:169|240:176,1,202.5,4|0,0:0|0:0,0:0:0:0:
272,256,52764,6,0,P|335:131|224:45,1,303.750011587143,6|0,1:2|0:0,0:0:0:0:
140,96,53175,2,0,P|279:78|304:212,1,303.750011587143,10|0,1:2|0:0,0:0:0:0:
104,332,53586,6,0,L|36:326,1,67.5,2|0,1:2|0:0,0:0:0:0:
116,240,53792,1,2,0:3:0:0:
256,300,53997,2,0,L|188:294,1,67.5,10|0,1:2|0:0,0:0:0:0:
268,208,54203,1,2,0:3:0:0:
452,304,54408,6,0,P|468:264|452:223,1,80.9999975280763,2|0,1:2|0:0,0:0:0:0:
336,108,54614,2,0,P|321:72|331:34,1,80.9999975280763,2|0,0:3|0:0,0:0:0:0:
440,316,54819,54,0,P|456:276|440:235,1,80.9999975280763,10|0,1:2|0:0,0:0:0:0:
325,121,55025,2,0,P|309:84|319:46,1,80.9999975280763,2|0,0:3|0:0,0:0:0:0:
364,276,55230,6,0,L|283:268,1,80.9999975280763,2|0,1:2|0:0,0:0:0:0:
393,81,55435,2,0,L|473:88,1,80.9999975280763,2|0,1:3|0:0,0:0:0:0:
344,296,55641,6,0,L|243:287,1,101.250003862381,10|0,1:2|0:0,0:0:0:0:
148,280,55846,1,2,1:3:0:0:
296,28,56052,53,2,1:2:0:0:
252,96,56155,1,0,0:0:0:0:
175,115,56257,2,0,P|138:99|118:65,1,80.9999975280763,2|0,1:3|0:0,0:0:0:0:
296,28,56463,2,0,P|332:42|352:77,1,80.9999975280763,10|0,1:2|0:0,0:0:0:0:
128,248,56668,2,0,P|91:233|71:198,1,80.9999975280763,2|0,0:3|0:0,0:0:0:0:
428,112,56874,5,2,1:2:0:0:
243,287,57079,2,0,L|234:378,1,80.9999975280763,2|0,0:3|0:0,0:0:0:0:
432,124,57285,2,0,L|523:132,1,80.9999975280763,10|0,1:2|0:0,0:0:0:0:
252,296,57490,2,0,L|243:387,1,80.9999975280763,2|0,0:3|0:0,0:0:0:0:
508,232,57696,5,2,1:2:0:0:
284,180,57901,2,0,P|268:143|278:105,1,80.9999975280763,2|0,0:3|0:0,0:0:0:0:
500,240,58107,1,10,1:2:0:0:
276,192,58312,2,0,P|260:155|270:117,1,80.9999975280763,2|0,0:3|0:0,0:0:0:0:
488,256,58518,53,2,1:2:0:0:
444,324,58620,1,0,0:0:0:0:
364,324,58723,1,2,0:3:0:0:
292,284,58826,1,0,0:0:0:0:
268,208,58929,2,0,P|304:192|342:202,1,80.9999975280763,10|0,1:2|0:0,0:0:0:0:
276,368,59134,2,0,P|239:353|219:318,1,80.9999975280763,2|0,0:3|0:0,0:0:0:0:
400,100,59340,6,0,B|348:132|292:100|292:100|216:140|216:140|164:112|108:144,1,303.750011587143,2|0,1:2|0:0,0:0:0:0:
96,148,59751,2,0,L|90:215,1,67.5,10|0,1:2|0:0,0:0:0:0:
212,104,59956,2,0,L|217:36,1,67.5,2|0,0:3|0:0,0:0:0:0:
40,292,60161,2,0,B|108:315|161:261|161:261|213:212|274:229,1,242.999992584229,2|0,1:2|0:0,0:0:0:0:
276,228,60572,2,0,P|292:274|270:318,1,101.250003862381,10|0,1:2|0:0,0:0:0:0:
90,215,60778,2,0,P|111:170|158:154,1,101.250003862381,2|0,0:3|0:0,0:0:0:0:
452,268,60983,6,0,L|444:348,1,80.9999975280763,2|0,1:2|0:0,0:0:0:0:
312,136,61189,1,2,0:3:0:0:
468,280,61394,2,0,L|460:360,1,80.9999975280763,10|0,1:2|0:0,0:0:0:0:
300,124,61600,2,0,L|307:43,1,80.9999975280763,2|0,0:3|0:0,0:0:0:0:
500,208,61805,53,2,1:2:0:0:
256,196,62011,1,2,0:3:0:0:
484,292,62216,5,10,1:2:0:0:
204,140,62422,1,2,0:3:0:0:
404,328,62627,6,0,P|360:340|323:320,1,80.9999975280763,2|0,1:2|0:0,0:0:0:0:
268,272,62833,1,2,0:3:0:0:
392,24,63038,2,0,B|384:107|384:107|388:108|388:108|380:198|380:198|376:205|376:205|371:261,1,242.999992584229,10|0,1:2|0:0,0:0:0:0:
192,296,63449,54,0,L|198:228,1,67.5,2|0,1:2|0:0,0:0:0:0:
204,140,63655,1,2,0:3:0:0:
96,244,63860,2,0,L|102:176,1,67.5,10|0,1:2|0:0,0:0:0:0:
108,88,64066,1,2,0:3:0:0:
272,233,64271,6,0,P|233:243|197:227,1,80.9999975280763,2|0,1:2|0:0,0:0:0:0:
352,116,64477,2,0,P|388:100|426:110,1,80.9999975280763,2|0,1:3|0:0,0:0:0:0:
256,256,64682,2,0,P|217:266|181:250,1,80.9999975280763,10|0,1:2|0:0,0:0:0:0:
360,92,64888,2,0,P|396:76|434:86,1,80.9999975280763,2|0,1:3|0:0,0:0:0:0:
232,180,65093,6,0,L|151:172,1,80.9999975280763,2|0,1:2|0:0,0:0:0:0:
400,152,65298,2,0,L|480:159,1,80.9999975280763,2|0,0:3|0:0,0:0:0:0:
252,164,65504,2,0,L|171:156,1,80.9999975280763,10|0,1:2|0:0,0:0:0:0:
384,172,65709,2,0,L|464:179,1,80.9999975280763,2|0,0:3|0:0,0:0:0:0:
116,220,65915,54,0,B|65:212|37:258|54:308|114:325|172:287|166:227|233:215|309:255,1,303.750011587143,6|0,1:2|0:0,0:0:0:0:
396,305,66326,2,0,B|446:301|470:349|449:398|388:410|333:367|345:308|279:290|200:323,1,303.750011587143,10|0,1:2|0:0,0:0:0:0:
280,120,66737,6,0,B|339:100|339:100|376:113,1,101.250003862381,2|0,1:2|0:0,0:0:0:0:
224,206,66942,2,0,B|261:219|261:219|320:199,1,101.250003862381,2|0,0:3|0:0,0:0:0:0:
279,108,67148,2,0,B|338:88|338:88|375:101,1,101.250003862381,10|0,1:2|0:0,0:0:0:0:
223,194,67353,2,0,B|260:207|260:207|319:187,1,101.250003862381,2|0,0:3|0:0,0:0:0:0:
176,88,67559,5,2,1:2:0:0:
12,224,67764,2,0,L|16:304,1,80.9999975280763,2|0,0:3|0:0,0:0:0:0:
164,104,67970,1,10,1:2:0:0:
0,240,68175,2,0,L|4:320,1,80.9999975280763,2|0,0:3|0:0,0:0:0:0:
100,52,68381,54,0,L|19:44,1,80.9999975280763,2|0,1:2|0:0,0:0:0:0:
196,240,68586,2,0,L|276:247,1,80.9999975280763,2|0,1:3|0:0,0:0:0:0:
96,36,68792,1,10,1:2:0:0:
348,212,68997,2,0,P|360:249|347:286,1,80.9999975280763,2|0,0:3|0:0,0:0:0:0:
164,104,69203,6,0,P|201:91|238:104,1,80.9999975280763,2|0,1:2|0:0,0:0:0:0:
308,144,69408,1,2,0:3:0:0:
192,56,69614,2,0,P|230:63|256:93,1,80.9999975280763,10|0,1:2|0:0,0:0:0:0:
296,161,69819,1,2,0:3:0:0:
136,304,70025,5,2,1:2:0:0:
16,68,70230,1,2,0:3:0:0:
72,352,70435,53,10,1:2:0:0:
80,116,70641,1,2,0:3:0:0:
204,352,70846,6,0,L|284:344,1,80.9999975280763,2|0,1:2|0:0,0:0:0:0:
228,136,71052,2,0,P|217:174|233:210,1,80.9999975280763,2|0,0:3|0:0,0:0:0:0:
356,380,71257,2,0,P|366:341|350:305,1,80.9999975280763,10|0,1:2|0:0,0:0:0:0:
240,144,71463,2,0,P|229:182|245:218,1,80.9999975280763,2|0,0:3|0:0,0:0:0:0:
472,192,71668,5,2,1:2:0:0:
472,192,71771,1,0,0:0:0:0:
472,192,71874,2,0,L|392:185,1,80.9999975280763,2|0,0:3|0:0,0:0:0:0:
220,64,72079,2,0,P|183:78|163:112,1,80.9999975280763,10|0,1:2|0:0,0:0:0:0:
260,300,72285,2,0,P|297:285|317:250,1,80.9999975280763,2|0,0:3|0:0,0:0:0:0:
24,124,72490,54,0,B|115:132|115:132|152:167|152:167|199:135|239:134|286:147|311:185,1,303.750011587143,2|0,1:2|0:0,0:0:0:0:
308,184,72901,2,0,L|313:116,1,67.5,10|0,1:2|0:0,0:0:0:0:
152,192,73107,2,0,L|146:259,1,67.5,2|0,0:3|0:0,0:0:0:0:
168,60,73312,2,0,P|213:133|102:122,1,242.999992584229,2|0,1:2|0:0,0:0:0:0:
100,116,73723,2,0,L|200:124,1,101.250003862381,10|0,1:2|0:0,0:0:0:0:
336,268,73929,2,0,L|235:259,1,101.250003862381,2|0,0:3|0:0,0:0:0:0:
8,252,74134,6,0,P|-8:288|1:326,1,80.9999975280763,2|0,1:2|0:0,0:0:0:0:
70,292,74340,2,0,P|84:329|118:349,1,80.9999975280763,2|0,1:3|0:0,0:0:0:0:
143,276,74545,2,0,P|183:213|163:142,1,151.875005793572,10|0,1:2|0:0,0:0:0:0:
120,72,74956,6,0,P|83:55|45:65,1,80.9999975280763,2|0,1:2|0:0,0:0:0:0:
75,133,75162,2,0,P|37:147|17:181,1,80.9999975280763,2|0,1:3|0:0,0:0:0:0:
92,208,75367,2,0,L|299:189,1,202.5,10|0,1:2|0:0,0:0:0:0:
315,187,75778,54,0,P|360:251|324:319,1,161.999995056153,2|2,1:2|0:3,0:0:0:0:
160,112,76189,2,0,L|240:104,1,80.9999975280763,10|0,1:2|0:0,0:0:0:0:
460,128,76394,2,0,L|379:135,1,80.9999975280763,2|0,0:3|0:0,0:0:0:0:
272,256,76600,1,2,1:2:0:0:
88,84,76805,2,0,P|78:123|94:159,1,80.9999975280763,2|0,0:3|0:0,0:0:0:0:
288,276,77011,1,10,1:2:0:0:
460,128,77216,2,0,P|470:167|454:203,1,80.9999975280763,2|0,0:3|0:0,0:0:0:0:
304,296,77422,6,0,B|260:328|216:296|216:296|112:216|25:281,1,303.750011587143,2|0,1:2|0:0,0:0:0:0:
12,272,77833,2,0,P|100:240|244:304,1,242.999992584229,8|0,0:0|0:0,0:0:0:0:
264,172,78244,1,8,0:0:0:0:
264,192,78346,1,8,0:0:0:0:
264,212,78449,1,8,0:0:0:0:
488,384,78655,1,8,0:0:0:0:
488,351,78757,1,8,0:0:0:0:
489,318,78860,1,8,0:0:0:0:
489,285,78963,1,8,0:0:0:0:
488,260,79066,70,0,B|448:270|431:240|431:240|414:211|357:225,1,135,4|2,1:2|0:3,0:0:0:0:
488,176,79477,37,8,1:2:0:0:
376,300,79682,2,0,L|308:295,1,67.5,2|2,0:0|1:2,0:0:0:0:
80,276,80093,1,2,0:3:0:0:
223,227,80298,1,8,1:2:0:0:
196,372,80504,1,2,0:0:0:0:
324,204,80709,6,0,L|391:198,1,67.5,2|2,1:2|0:0,0:0:0:0:
512,124,81120,2,0,L|445:119,1,67.5,10|2,1:2|0:3,0:0:0:0:
336,112,81531,1,2,1:2:0:0:
496,196,81737,1,2,0:3:0:0:
360,284,81942,2,0,P|312:270|288:227,1,101.25,10|0,1:2|0:0,0:0:0:0:
288,212,82353,70,0,L|221:207,1,67.5,2|2,1:2|0:3,0:0:0:0:
136,204,82764,1,8,1:2:0:0:
236,308,82970,2,0,L|169:303,1,67.5,2|2,0:0|1:2,0:0:0:0:
88,296,83381,1,2,0:3:0:0:
120,364,83586,1,8,1:2:0:0:
168,302,83792,1,2,0:0:0:0:
132,220,83997,6,0,L|91:216,1,40.4999987640381,2|2,1:2|0:0,0:0:0:0:
172,152,84408,2,0,L|212:155,1,40.4999987640381,10|2,1:2|0:3,0:0:0:0:
116,96,84819,1,2,1:2:0:0:
192,68,85025,1,2,0:3:0:0:
284,164,85230,2,0,P|280:193|258:214,1,60.7499981460572,10|0,1:2|0:0,0:0:0:0:
244,224,85641,6,0,B|193:243|156:196|156:196|119:149|48:171,1,202.499993820191,0|0,1:0|1:0,0:0:0:0:
56,172,86874,1,8,0:0:0:0:
268,40,87285,1,0,1:0:0:0:
272,32,87593,1,0,1:0:0:0:
276,44,87901,1,0,1:0:0:0:
276,44,88107,70,0,L|336:38,1,60.7499981460572,8|0,0:0|0:0,0:0:0:0:
344,44,88518,2,0,L|345:64,3,20.2499993820191,0|0|0|0,1:0|0:0|0:0|0:0,0:0:0:0:
404,103,88929,70,0,L|471:98,1,67.5,0|0,1:0|0:0,0:0:0:0:
512,172,89340,2,0,L|444:177,1,67.5,0|0,0:0|1:0,0:0:0:0:
312,128,89751,1,8,0:0:0:0:
320,132,89956,1,0,0:0:0:0:
308,136,90162,1,0,0:0:0:0:
308,136,90572,6,0,L|442:124,1,135
442,123,91394,5,10,0:0:0:0:
439,95,91497,1,8,0:0:0:0:
437,67,91600,1,8,0:0:0:0:
305,108,91805,1,10,0:0:0:0:
308,136,91908,1,8,0:0:0:0:
310,164,92011,1,8,0:0:0:0:
168,36,92216,70,0,P|134:35|106:53,1,67.5,2|2,1:2|0:3,0:0:0:0:
12,132,92627,1,8,1:2:0:0:
248,176,92833,1,2,0:0:0:0:
48,212,93038,2,0,P|55:244|80:266,1,67.5,2|2,1:2|0:3,0:0:0:0:
296,240,93449,2,0,P|320:218|328:185,1,67.5,8|2,1:2|0:3,0:0:0:0:
216,8,93860,70,0,P|183:15|160:39,1,67.5,0|2,1:0|0:0,0:0:0:0:
96,144,94271,1,10,1:2:0:0:
368,108,94477,1,2,0:0:0:0:
224,84,94682,1,2,1:2:0:0:
284,180,94888,1,10,0:0:0:0:
284,180,95093,2,0,L|289:247,1,67.5,10|2,1:2|0:0,0:0:0:0:
388,384,95504,6,0,L|394:315,1,67.5,2|2,1:2|0:3,0:0:0:0:
416,288,95812,1,2,0:0:0:0:
416,288,95915,1,8,1:2:0:0:
192,320,96120,1,2,0:0:0:0:
368,216,96326,2,0,P|392:193|399:160,1,67.5,2|2,1:2|0:3,0:0:0:0:
308,24,96737,2,0,P|306:57|324:86,1,67.5,8|2,1:2|0:3,0:0:0:0:
500,88,97148,70,0,P|477:63|444:56,1,67.5,0|2,1:0|0:3,0:0:0:0:
248,108,97559,1,8,1:2:0:0:
248,108,97662,1,0,0:0:0:0:
248,108,97764,1,2,0:3:0:0:
128,40,97970,2,0,L|94:43,1,33.75,0|0,1:2|0:0,0:0:0:0:
208,192,98175,1,2,0:3:0:0:
208,192,98381,2,0,L|241:190,1,33.75,8|0,1:2|0:0,0:0:0:0:
324,184,98586,1,2,0:3:0:0:
72,264,98792,6,0,B|147:257|147:257|193:277|193:277|269:270,1,202.500007724762,2|8,1:2|1:2,0:0:0:0:
280,268,99408,2,0,L|284:319,1,50.6250019311906,2|0,0:0|0:0,0:0:0:0:
376,384,99614,1,0,1:0:0:0:
376,384,99819,2,0,L|378:351,1,33.75,2|2,0:0|0:0,0:0:0:0:
512,280,100025,1,10,1:2:0:0:
512,280,100230,2,0,L|509:313,1,33.75,2|0,0:0|0:0,0:0:0:0:
496,156,100435,6,0,B|460:152|444:120|444:120|368:164|316:104,1,202.500007724762,2|8,1:2|1:2,0:0:0:0:
312,104,101052,2,0,L|307:154,1,50.6250019311906,2|0,0:0|0:0,0:0:0:0:
172,264,101257,1,0,1:0:0:0:
172,264,101463,2,0,L|174:231,1,33.75,10|0,0:0|0:0,0:0:0:0:
376,312,101668,1,10,1:2:0:0:
364,344,101771,1,0,0:0:0:0:
342,369,101874,1,2,0:0:0:0:
310,381,101977,1,0,0:0:0:0:
284,372,102079,54,0,B|252:396|232:344|278:320|356:360|356:360|424:388|480:336,1,283.499991348267,2|0,0:0|1:0,0:0:0:0:
436,208,103723,1,0,1:0:0:0:
436,216,103929,1,0,1:0:0:0:
436,224,104134,1,0,1:0:0:0:
436,232,104340,1,0,1:0:0:0:
436,236,104545,6,0,P|381:267|325:239,1,131.624993974686,4|0,0:0|0:0,0:0:0:0:
443,248,104956,6,0,P|353:278|290:206,1,202.5,4|0,0:0|0:0,0:0:0:0:
352,100,105367,6,0,B|317:123|276:106|276:106|218:139|218:139|160:140|124:84|156:24|216:28,1,303.750011587143,6|0,1:2|0:0,0:0:0:0:
352,112,105778,2,0,B|317:135|276:118|276:118|218:151|218:151|160:152|124:96|156:36|216:40,1,303.750011587143,10|0,1:2|0:0,0:0:0:0:
196,40,106189,6,0,L|95:31,1,101.250003862381,2|0,1:2|0:0,0:0:0:0:
7,215,106394,2,0,L|108:224,1,101.250003862381,2|0,1:3|0:0,0:0:0:0:
196,52,106600,2,0,L|95:43,1,101.250003862381,10|0,1:2|0:0,0:0:0:0:
7,227,106805,2,0,L|108:236,1,101.250003862381,2|0,1:3|0:0,0:0:0:0:
212,284,107011,6,0,P|218:323|197:357,1,80.9999975280763,2|0,1:2|0:0,0:0:0:0:
352,100,107216,2,0,P|366:62|401:43,1,80.9999975280763,2|0,0:3|0:0,0:0:0:0:
140,304,107422,2,0,P|103:320|65:308,1,80.9999975280763,10|0,1:2|0:0,0:0:0:0:
424,116,107627,2,0,P|463:120|490:149,1,80.9999975280763,2|0,0:3|0:0,0:0:0:0:
112,196,107833,54,0,P|86:164|88:124,1,80.9999975280763,2|0,1:2|0:0,0:0:0:0:
136,60,108038,1,2,0:3:0:0:
64,180,108244,2,0,P|58:140|79:106,1,80.9999975280763,10|0,1:2|0:0,0:0:0:0:
152,74,108449,1,2,0:3:0:0:
216,208,108655,5,2,1:2:0:0:
412,86,108860,2,0,P|449:100|469:134,1,80.9999975280763,2|0,0:3|0:0,0:0:0:0:
208,192,109066,1,10,1:2:0:0:
426,122,109271,2,0,P|458:146|468:183,1,80.9999975280763,2|0,0:3|0:0,0:0:0:0:
232,288,109477,6,0,L|151:280,1,80.9999975280763,2|0,1:2|0:0,0:0:0:0:
0,168,109682,2,0,L|80:175,1,80.9999975280763,2|0,0:3|0:0,0:0:0:0:
136,368,109888,2,0,P|99:354|79:320,1,80.9999975280763,10|0,1:2|0:0,0:0:0:0:
268,196,110093,1,2,0:3:0:0:
333,267,110196,1,0,0:0:0:0:
315,363,110298,53,2,1:2:0:0:
360,168,110504,2,0,L|440:175,1,80.9999975280763,2|0,0:3|0:0,0:0:0:0:
316,344,110709,1,10,1:2:0:0:
280,112,110915,2,0,L|199:119,1,80.9999975280763,2|0,0:3|0:0,0:0:0:0:
0,184,111120,6,0,B|119:173|119:173|170:205|170:205|293:194,1,303.750011587143,2|0,1:2|0:0,0:0:0:0:
304,196,111531,2,0,P|251:282|352:285,1,242.999992584229,10|0,1:2|0:0,0:0:0:0:
348,276,111942,2,0,B|296:280|296:280|292:284|292:284|288:281|288:281|224:286|224:286|220:283|220:283|216:287|216:287|152:293,1,202.5,2|0,1:2|0:0,0:0:0:0:
152,280,112353,2,0,B|215:274|215:274|219:270|219:270|223:273|223:273|287:268|287:268|291:271|291:271|295:267|295:267|347:262,1,202.5,10|0,1:2|0:0,0:0:0:0:
436,336,112764,5,2,1:2:0:0:
472,48,112970,1,2,0:3:0:0:
488,276,113175,53,10,1:2:0:0:
412,104,113381,1,2,0:3:0:0:
169,125,113586,6,0,P|203:195|337:145,1,242.999992584229,2|0,1:2|0:0,0:0:0:0:
349,158,113997,2,0,P|296:215|217:217,1,161.999995056153,10|2,1:2|0:3,0:0:0:0:
156,48,114408,2,0,P|198:48|228:76,1,80.9999975280763,2|0,1:2|0:0,0:0:0:0:
124,220,114614,2,0,P|81:219|52:192,1,80.9999975280763,2|0,1:3|0:0,0:0:0:0:
152,32,114819,1,10,1:2:0:0:
128,232,115025,2,0,P|88:238|54:217,1,80.9999975280763,2|0,0:3|0:0,0:0:0:0:
304,72,115230,6,0,L|384:79,1,80.9999975280763,2|0,1:2|0:0,0:0:0:0:
512,76,115435,1,2,0:3:0:0:
448,124,115538,1,0,0:0:0:0:
392,59,115641,2,0,L|312:52,1,80.9999975280763,10|0,1:2|0:0,0:0:0:0:
415,264,115846,2,0,L|496:272,1,80.9999975280763,2|0,1:3|0:0,0:0:0:0:
240,348,116052,54,0,P|208:325|200:286,1,80.9999975280763,2|0,1:2|0:0,0:0:0:0:
54,217,116257,1,2,0:3:0:0:
248,360,116463,2,0,P|216:337|208:298,1,80.9999975280763,10|0,1:2|0:0,0:0:0:0:
46,229,116668,1,2,0:3:0:0:
251,143,116874,6,0,B|275:191|275:191|252:232,1,101.250003862381,2|0,1:2|0:0,0:0:0:0:
264,144,117079,2,0,B|288:192|288:192|265:233,1,101.250003862381,2|0,0:3|0:0,0:0:0:0:
276,148,117285,2,0,B|300:196|300:196|277:237,1,101.250003862381
321,304,117490,6,0,B|273:328|273:328|231:305,1,101.250003862381,2|0,1:3|0:0,0:0:0:0:
320,316,117696,2,0,B|272:340|272:340|230:317,1,101.250003862381
317,328,117901,2,0,B|269:352|269:352|227:329,1,101.250003862381,2|0,0:3|0:0,0:0:0:0:
392,232,118107,2,0,P|425:232|452:251,1,67.5,10|0,1:2|0:0,0:0:0:0:
428,372,118312,2,0,P|404:348|398:315,1,67.5,2|0,0:3|0:0,0:0:0:0:
492,156,118518,54,0,B|384:112|384:112|380:108|380:108|376:112|376:112|256:156|256:156|285:117,1,303.750011587143,6|0,1:2|0:0,0:0:0:0:
492,144,118929,2,0,B|384:100|384:100|380:96|380:96|376:100|376:100|256:144|256:144|285:105,1,303.750011587143,10|0,1:2|0:0,0:0:0:0:
492,132,119340,1,2,1:2:0:0:
380,188,119545,1,2,1:3:0:0:
512,8,119751,1,10,1:2:0:0:
380,168,119956,1,2,0:3:0:0:
196,56,120161,5,2,1:2:0:0:
80,144,120367,2,0,L|85:211,1,67.5,2|0,0:3|0:0,0:0:0:0:
188,328,120572,1,10,1:2:0:0:
88,292,120778,2,0,L|20:297,1,67.5,2|0,0:3|0:0,0:0:0:0:
172,244,120983,2,0,L|239:238,1,67.5,2|0,1:2|0:0,0:0:0:0:
328,228,121189,1,2,0:3:0:0:
168,228,121394,2,0,L|235:222,1,67.5,10|0,1:2|0:0,0:0:0:0:
324,212,121600,1,2,0:3:0:0:
96,184,121805,6,0,P|79:247|119:299,1,135,2|2,1:2|0:3,0:0:0:0:
184,152,122216,2,0,P|150:95|85:86,1,135,10|2,1:2|0:3,0:0:0:0:
60,100,122525,1,0,0:0:0:0:
36,116,122627,2,0,L|32:48,1,67.5,2|0,1:2|0:0,0:0:0:0:
96,184,122833,2,0,L|100:252,1,67.5,2|0,0:3|0:0,0:0:0:0:
28,128,123038,2,0,L|24:60,1,67.5,2|0,1:2|0:0,0:0:0:0:
88,196,123244,2,0,L|92:264,1,67.5,2|0,0:3|0:0,0:0:0:0:
100,348,123449,53,2,1:2:0:0:
192,290,123655,2,0,L|259:284,1,67.5,2|0,0:3|0:0,0:0:0:0:
344,280,123860,1,2,1:2:0:0:
344,280,124066,2,0,L|338:212,1,67.5,2|0,0:3|0:0,0:0:0:0:
480,176,124271,6,0,P|453:195|419:195,1,67.5,2|0,1:2|0:0,0:0:0:0:
332,124,124477,2,0,P|358:104|392:104,1,67.5,2|0,1:3|0:0,0:0:0:0:
468,168,124682,6,0,P|441:187|407:187,1,67.5,2|0,1:2|0:0,0:0:0:0:
320,116,124888,2,0,P|346:96|380:96,1,67.5,2|0,1:3|0:0,0:0:0:0:
493,292,125093,54,0,B|440:282|440:282|384:286|384:286|341:278,1,151.875005793572,2|0,1:2|0:0,0:0:0:0:
337,293,125504,2,0,B|380:300|380:300|436:297|436:297|488:306,1,151.875005793572,2|0,1:2|0:0,0:0:0:0:
400,372,125915,1,2,1:2:0:0:
376,220,126120,1,2,0:3:0:0:
408,370,126326,1,2,1:2:0:0:
384,218,126531,1,2,0:3:0:0:
256,352,126737,5,2,1:2:0:0:
256,192,126840,12,2,131668,0:0:0:0:
256,192,143175,12,0,144408,0:0:0:0:
488,368,144819,21,2,0:0:0:0:
424,304,145025,2,0,L|421:270,1,33.75,2|0,0:3|0:0,0:0:0:0:
480,360,145230,1,8,0:2:0:0:
416,296,145435,2,0,L|413:262,1,33.75,2|0,0:3|0:0,0:0:0:0:
408,288,145846,6,0,L|405:254,1,33.75,2|0,0:3|0:0,0:0:0:0:
464,344,146052,1,8,0:0:0:0:
400,280,146257,2,0,L|397:246,1,33.75,2|0,0:3|0:0,0:0:0:0:
336,344,146463,5,0,0:0:0:0:
272,280,146668,2,0,L|238:277,1,33.75,2|0,0:3|0:0,0:0:0:0:
160,252,146874,2,0,L|227:257,1,67.5,10|2,0:0|0:3,0:0:0:0:
92,280,147285,2,0,P|84:248|97:212,1,67.5,2|2,0:0|0:3,0:0:0:0:
232,180,147696,2,0,L|164:174,1,67.5,10|2,0:0|0:3,0:0:0:0:
308,152,148107,54,0,P|316:184|302:219,1,67.5,2|2,0:0|0:3,0:0:0:0:
244,100,148518,1,8,0:0:0:0:
308,36,148723,2,0,L|342:33,1,33.75,2|0,0:3|0:0,0:0:0:0:
316,32,149134,6,0,L|350:29,1,33.75,2|0,0:3|0:0,0:0:0:0:
260,92,149340,1,8,0:0:0:0:
324,28,149545,2,0,L|358:25,1,33.75,2|0,0:3|0:0,0:0:0:0:
428,80,149751,5,0,0:0:0:0:
495,178,149956,2,0,L|492:144,1,33.75,2|0,0:3|0:0,0:0:0:0:
416,96,150162,1,8,0:0:0:0:
349,194,150367,1,2,0:3:0:0:
456,256,150572,2,0,P|423:250|388:261,1,67.5,2|2,0:0|0:3,0:0:0:0:
324,304,150983,1,10,0:0:0:0:
432,364,151189,2,0,L|429:330,1,33.75,2|0,0:0|0:0,0:0:0:0:
244,272,151394,69,0,1:0:0:0:
240,296,151497,1,0,0:0:0:0:
236,320,151600,2,0,L|185:324,1,50.6250019311906,2|0,0:3|0:0,0:0:0:0:
88,352,151805,2,0,L|191:342,1,101.250003862381,0|2,1:0|0:3,0:0:0:0:
72,168,152216,2,0,L|21:172,1,50.6250019311906,0|0,1:0|0:0,0:0:0:0:
132,224,152422,2,0,L|182:219,1,50.6250019311906,2|0,0:3|0:0,0:0:0:0:
132,56,152627,1,0,1:0:0:0:
124,104,152730,1,0,0:0:0:0:
152,145,152833,1,2,0:3:0:0:
176,148,152935,1,0,0:0:0:0:
200,144,153038,6,0,L|250:139,1,50.6250019311906,0|0,1:0|0:0,0:0:0:0:
376,52,153244,2,0,L|325:56,1,50.6250019311906,2|0,0:3|0:0,0:0:0:0:
182,218,153449,2,0,L|186:268,1,50.6250019311906,0|0,1:0|0:0,0:0:0:0:
340,186,153655,1,2,0:3:0:0:
212,288,153860,54,0,B|278:273|312:315|312:315|346:358|407:341,1,202.500007724762,2|0,1:2|1:0,0:0:0:0:
402,342,154477,1,2,0:3:0:0:
296,56,154682,5,2,1:2:0:0:
272,152,154888,1,2,1:3:0:0:
348,128,155093,5,0,1:0:0:0:
216,84,155298,1,2,1:3:0:0:
360,239,155504,53,0,1:0:0:0:
383,241,155607,1,0,1:0:0:0:
407,243,155709,1,2,1:3:0:0:
430,246,155812,1,0,1:0:0:0:
455,248,155915,2,0,L|459:198,3,50.6250019311906,0|0|2|0,1:0|1:0|1:3|1:0,0:0:0:0:
489,170,156326,5,0,1:0:0:0:
256,192,156429,12,2,157970,0:0:0:0:
256,192,159203,5,8,0:0:0:0:
200,252,159614,6,0,B|248:292|311:261|311:261|307:257|307:257|371:266|371:266|367:262|367:262|434:236|483:272,1,303.750011587143,6|0,1:2|0:0,0:0:0:0:
474,286,160025,2,0,B|435:256|368:282|368:282|372:287|372:287|309:277|309:277|312:281|312:281|249:312|201:272,1,303.750011587143,10|0,1:2|0:0,0:0:0:0:
80,148,160435,6,0,L|148:154,1,67.5,2|0,1:2|0:0,0:0:0:0:
36,72,160641,1,2,0:3:0:0:
192,84,160846,2,0,L|260:90,1,67.5,10|0,1:2|0:0,0:0:0:0:
136,16,161052,1,2,0:3:0:0:
352,100,161257,5,2,1:2:0:0:
496,264,161463,1,2,0:3:0:0:
376,384,161668,53,10,1:2:0:0:
500,280,161874,1,2,0:3:0:0:
312,304,162079,6,0,L|231:296,1,80.9999975280763,2|0,1:2|0:0,0:0:0:0:
176,160,162285,2,0,L|96:153,1,80.9999975280763,2|0,1:3|0:0,0:0:0:0:
316,316,162490,1,10,1:2:0:0:
181,175,162696,1,2,1:3:0:0:
336,320,162901,5,2,1:2:0:0:
412,342,163004,1,0,0:0:0:0:
488,363,163107,2,0,P|498:324|484:288,1,80.9999975280763,2|0,0:3|0:0,0:0:0:0:
326,203,163312,2,0,P|340:239|375:259,1,80.9999975280763,10|0,1:2|0:0,0:0:0:0:
512,180,163518,2,0,P|475:164|436:175,1,80.9999975280763,2|0,0:3|0:0,0:0:0:0:
308,320,163723,53,2,1:2:0:0:
104,200,163929,2,0,L|13:191,1,80.9999975280763,2|0,0:3|0:0,0:0:0:0:
292,112,164134,2,0,L|383:120,1,80.9999975280763,10|0,1:2|0:0,0:0:0:0:
108,212,164340,2,0,L|17:203,1,80.9999975280763,2|0,0:3|0:0,0:0:0:0:
324,332,164545,5,2,1:2:0:0:
216,96,164751,2,0,P|230:58|264:38,1,80.9999975280763,2|0,0:3|0:0,0:0:0:0:
312,324,164956,5,10,1:2:0:0:
204,88,165162,2,0,P|218:50|252:30,1,80.9999975280763,2|0,0:3|0:0,0:0:0:0:
300,316,165367,53,2,1:2:0:0:
252,252,165470,1,0,0:0:0:0:
304,188,165572,1,2,0:3:0:0:
380,216,165675,1,0,0:0:0:0:
380,296,165778,2,0,P|341:306|305:290,1,80.9999975280763,10|0,1:2|0:0,0:0:0:0:
400,140,165983,2,0,P|437:155|457:190,1,80.9999975280763,2|0,0:3|0:0,0:0:0:0:
68,88,166189,6,0,B|131:93|131:93|135:93|135:93|136:89|136:89|216:48|291:107|291:107|246:111|230:158,1,303.750011587143,2|0,1:2|0:0,0:0:0:0:
232,148,166600,2,0,L|238:215,1,67.5,10|0,1:2|0:0,0:0:0:0:
364,60,166805,2,0,L|432:54,1,67.5,2|0,0:3|0:0,0:0:0:0:
240,236,167011,2,0,L|159:243,1,80.9999975280763,2|0,1:2|0:0,0:0:0:0:
68,172,167216,2,0,L|148:164,1,80.9999975280763,2|0,0:3|0:0,0:0:0:0:
413,277,167422,2,0,P|429:323|407:367,1,101.250003862381,10|0,1:2|0:0,0:0:0:0:
232,212,167627,2,0,P|227:162|260:125,1,101.250003862381,2|0,0:3|0:0,0:0:0:0:
219,346,167833,5,2,1:2:0:0:
140,340,167935,1,0,0:0:0:0:
60,333,168038,1,2,0:3:0:0:
24,100,168244,2,0,L|105:107,1,80.9999975280763,10|0,1:2|0:0,0:0:0:0:
232,360,168449,2,0,L|152:352,1,80.9999975280763,2|0,0:3|0:0,0:0:0:0:
320,180,168655,53,2,1:2:0:0:
406,367,168860,1,2,0:3:0:0:
404,111,169066,5,10,1:2:0:0:
232,212,169271,1,2,0:3:0:0:
416,32,169477,6,0,P|460:43|482:79,1,80.9999975280763,2|0,1:2|0:0,0:0:0:0:
496,148,169682,1,2,0:3:0:0:
168,91,169888,2,0,B|227:96|227:96|231:100|231:100|235:96|235:96|327:104|327:104|331:101|331:101|335:105|335:105|403:111,1,242.999992584229,10|0,1:2|0:0,0:0:0:0:
512,232,170298,54,0,L|444:226,1,67.5,2|0,1:2|0:0,0:0:0:0:
360,220,170504,1,2,0:3:0:0:
464,324,170709,2,0,L|396:318,1,67.5,10|0,1:2|0:0,0:0:0:0:
312,312,170915,1,2,0:3:0:0:
276,120,171120,6,0,P|266:81|282:45,1,80.9999975280763,2|0,1:2|0:0,0:0:0:0:
212,272,171326,2,0,P|173:282|137:266,1,80.9999975280763,2|0,1:3|0:0,0:0:0:0:
348,88,171531,2,0,P|376:59|415:55,1,80.9999975280763,10|0,1:2|0:0,0:0:0:0:
184,204,171737,2,0,P|155:176|151:136,1,80.9999975280763,2|0,1:3|0:0,0:0:0:0:
412,136,171942,5,0,1:2:0:0:
264,209,172148,2,0,L|344:216,1,80.9999975280763,2|0,0:3|0:0,0:0:0:0:
416,268,172353,1,8,0:0:0:0:
401,344,172456,1,8,0:0:0:0:
332,381,172559,1,10,0:0:0:0:
261,349,172662,1,8,0:0:0:0:
216,284,172764,54,0,B|160:279|160:279|145:261|145:261|96:273|96:273|62:246|58:197|90:156|139:144|177:172,1,303.750011587143,6|0,1:2|0:0,0:0:0:0:
204,296,173175,2,0,B|148:291|148:291|133:273|133:273|84:285|84:285|50:258|46:209|78:168|127:156|165:184,1,303.750011587143,10|0,1:2|0:0,0:0:0:0:
247,195,173586,6,0,B|348:204,1,101.250003862381,2|0,1:2|0:0,0:0:0:0:
344,188,173792,2,0,B|243:179,1,101.250003862381,2|0,1:3|0:0,0:0:0:0:
400,56,173997,2,0,B|501:65,1,101.250003862381,10|0,1:2|0:0,0:0:0:0:
497,49,174203,2,0,B|396:40,1,101.250003862381,2|0,1:3|0:0,0:0:0:0:
141,172,174408,5,2,1:2:0:0:
280,288,174614,2,0,L|360:284,1,80.9999975280763,2|0,0:3|0:0,0:0:0:0:
152,160,174819,1,10,1:2:0:0:
56,292,175025,2,0,L|60:372,1,80.9999975280763,2|0,0:3|0:0,0:0:0:0:
243,179,175230,54,0,L|251:98,1,80.9999975280763,2|0,1:2|0:0,0:0:0:0:
188,256,175435,2,0,L|181:336,1,80.9999975280763,2|0,1:3|0:0,0:0:0:0:
268,88,175641,1,10,1:2:0:0:
92,260,175846,2,0,P|55:272|18:259,1,80.9999975280763,2|0,0:3|0:0,0:0:0:0:
328,152,176052,6,0,P|363:168|380:204,1,80.9999975280763,2|0,1:2|0:0,0:0:0:0:
401,282,176257,1,2,0:3:0:0:
344,140,176463,2,0,P|378:156|396:192,1,80.9999975280763,10|0,1:2|0:0,0:0:0:0:
418,268,176668,1,2,0:3:0:0:
100,284,176874,5,2,1:2:0:0:
316,212,177079,1,2,0:3:0:0:
152,111,177285,53,10,1:2:0:0:
320,296,177490,1,2,0:3:0:0:
104,192,177696,6,0,L|24:184,1,80.9999975280763,2|0,1:2|0:0,0:0:0:0:
312,32,177901,2,0,P|323:70|307:106,1,80.9999975280763,2|0,0:3|0:0,0:0:0:0:
194,258,178107,2,0,P|184:219|200:183,1,80.9999975280763,10|0,1:2|0:0,0:0:0:0:
328,40,178312,2,0,P|338:78|322:114,1,80.9999975280763,2|0,0:3|0:0,0:0:0:0:
72,104,178518,6,0,L|153:112,1,80.9999975280763,2|0,1:2|0:0,0:0:0:0:
352,232,178723,2,0,L|272:225,1,80.9999975280763,2|0,0:3|0:0,0:0:0:0:
80,116,178929,1,10,1:2:0:0:
360,244,179134,2,0,L|280:237,1,80.9999975280763,2|0,0:3|0:0,0:0:0:0:
72,292,179340,54,0,B|139:297|139:297|169:320|169:320|245:327|245:327|250:319|250:319|362:329,1,303.750011587143,2|0,1:2|0:0,0:0:0:0:
360,344,179751,2,0,B|247:334|247:334|242:341|242:341|166:335|166:335|136:312|136:312|69:306,1,303.750011587143,10|0,1:2|0:0,0:0:0:0:
308,64,180162,2,0,P|353:137|242:126,1,242.999992584229,2|0,1:2|0:0,0:0:0:0:
232,128,180572,2,0,P|252:172|316:181,1,101.250003862381,10|0,1:2|0:0,0:0:0:0:
448,288,180778,2,0,P|427:243|363:234,1,101.250003862381,2|0,0:3|0:0,0:0:0:0:
112,224,180983,6,0,L|192:231,1,80.9999975280763,2|0,1:2|0:0,0:0:0:0:
168,312,181189,2,0,L|247:297,1,80.9999975280763,2|0,1:3|0:0,0:0:0:0:
276,220,181394,2,0,P|241:153|169:135,1,151.875005793572,10|0,1:2|0:0,0:0:0:0:
336,136,181805,6,0,L|343:55,1,80.9999975280763,2|0,1:2|0:0,0:0:0:0:
424,80,182011,2,0,L|409:0,1,80.9999975280763,2|0,1:3|0:0,0:0:0:0:
500,144,182216,2,0,B|520:248|520:248|481:345,1,202.5,10|0,1:2|0:0,0:0:0:0:
264,220,182627,54,0,L|425:234,1,161.999995056153,2|2,1:2|0:3,0:0:0:0:
171,134,183038,2,0,P|160:96|176:60,1,80.9999975280763,10|0,1:2|0:0,0:0:0:0:
328,0,183244,1,2,0:3:0:0:
128,212,183449,2,0,L|47:204,1,80.9999975280763,2|0,1:2|0:0,0:0:0:0:
320,96,183655,2,0,L|239:103,1,80.9999975280763,2|0,0:3|0:0,0:0:0:0:
492,216,183860,1,10,1:2:0:0:
392,60,184066,2,0,P|404:97|390:134,1,80.9999975280763,2|0,0:3|0:0,0:0:0:0:
252,272,184271,5,2,1:2:0:0:
200,172,184477,1,2,0:3:0:0:
132,272,184682,1,0,0:0:0:0:
248,292,184888,5,2,1:3:0:0:
204,200,185093,1,8,0:0:0:0:
204,200,185196,1,8,0:0:0:0:
204,200,185298,1,8,0:0:0:0:
124,292,185504,1,8,0:0:0:0:
108,290,185607,1,8,0:0:0:0:
92,289,185709,1,8,0:0:0:0:
76,287,185812,1,8,0:0:0:0:
57,286,185915,54,0,B|110:271|153:311|153:311|196:352|252:338,1,202.5,6|0,1:2|0:0,0:0:0:0:
248,328,186326,38,0,P|197:326|156:297,1,101.250003862381,10|2,1:2|0:3,0:0:0:0:
300,260,186634,1,0,0:0:0:0:
300,260,186737,2,0,P|329:300|330:350,1,101.250003862381,2|2,1:2|0:3,0:0:0:0:
320,140,187148,1,10,1:2:0:0:
156,298,187353,1,2,0:3:0:0:
336,60,187559,6,0,P|378:85|399:131,1,101.250003862381,2|2,1:2|0:3,0:0:0:0:
132,220,187970,2,0,P|158:177|204:156,1,101.250003862381,10|2,1:2|0:3,0:0:0:0:
448,208,188278,1,0,0:0:0:0:
448,208,188381,2,0,P|400:219|353:202,1,101.250003862381,2|2,1:2|0:3,0:0:0:0:
220,244,188792,1,10,1:2:0:0:
193,55,188997,1,2,0:3:0:0:
193,55,189100,1,0,0:0:0:0:
193,55,189203,70,0,L|202:156,1,101.250003862381,2|2,1:2|0:3,0:0:0:0:
224,324,189614,1,10,1:2:0:0:
312,232,189819,1,2,0:3:0:0:
140,284,190025,1,2,1:2:0:0:
312,316,190230,1,2,0:3:0:0:
220,244,190435,1,10,1:2:0:0:
384,112,190641,1,2,0:3:0:0:
384,112,190744,1,0,0:0:0:0:
384,112,190846,6,0,P|334:107|290:131,1,101.250003862381,2|2,1:2|0:3,0:0:0:0:
372,284,191257,2,0,P|377:234|353:190,1,101.250003862381,10|2,1:2|0:3,0:0:0:0:
72,268,191668,22,0,B|141:285|141:285|146:289|146:289|149:285|149:285|211:255|211:255|215:251|215:251|219:255|219:255|260:267|260:267|310:239,1,242.999992584229,2|0,1:2|0:0,0:0:0:0:
300,248,192079,2,0,P|324:290|303:334,1,101.25,8|0,0:2|0:0,0:0:0:0:
296,340,192490,6,0,B|349:354|388:315|388:315|430:270|491:287,1,202.5,2|0,1:2|0:0,0:0:0:0:
488,284,192901,22,0,L|479:183,1,101.250003862381,10|2,1:2|0:3,0:0:0:0:
336,76,193209,1,0,0:0:0:0:
336,76,193312,2,0,L|345:177,1,101.250003862381,2|2,1:2|0:3,0:0:0:0:
436,40,193723,1,10,1:2:0:0:
164,88,193929,1,2,0:3:0:0:
310,250,194134,6,0,P|359:255|404:232,1,101.250003862381,2|2,1:2|0:3,0:0:0:0:
420,216,194442,1,0,0:0:0:0:
436,204,194545,2,0,L|445:305,1,101.250003862381,10|2,1:2|0:3,0:0:0:0:
276,164,194956,2,0,P|233:141|183:145,1,101.250003862381,2|2,1:2|0:3,0:0:0:0:
244,304,195367,2,0,P|284:332|334:333,1,101.250003862381,10|2,1:2|0:3,0:0:0:0:
216,224,195778,6,0,L|115:233,1,101.250003862381,2|2,1:2|0:3,0:0:0:0:
168,60,196189,2,0,L|67:51,1,101.250003862381,10|2,1:2|0:3,0:0:0:0:
168,76,196600,53,2,1:2:0:0:
67,67,196805,1,2,0:3:0:0:
216,240,197011,49,10,1:2:0:0:
115,248,197216,1,2,0:3:0:0:
276,164,197422,6,0,L|377:155,1,101.250003862381,2|2,0:0|0:3,0:0:0:0:
392,168,197833,2,0,L|341:172,1,50.6250019311906,10|0,0:2|0:0,0:0:0:0:
168,76,198038,2,0,L|218:71,1,50.6250019311906,2|0,0:3|0:0,0:0:0:0:
404,176,198244,1,2,0:0:0:0:
160,68,198449,1,2,0:3:0:0:
416,184,198655,1,10,0:0:0:0:
152,60,198860,1,2,0:3:0:0:
240,280,199066,5,6,1:2:0:0:
