osu file format v14

[General]
AudioFilename: audio.mp3
AudioLeadIn: 0
PreviewTime: 52758
Countdown: 0
SampleSet: Soft
StackLeniency: 0.5
Mode: 0
LetterboxInBreaks: 0
WidescreenStoryboard: 1

[Editor]
DistanceSpacing: 1
BeatDivisor: 4
GridSize: 4
TimelineZoom: 2

[Metadata]
Title:Someone Special
TitleUnicode:Someone Special
Artist:tomatoism
ArtistUnicode:tomatoism
Creator:Jiysea
Version:A n o t h e r
Source:
Tags:future funk simple tech dochakuso records female vocal chops japanese electronic DCKS-0049 OTAKIBA tokyo girls' style reflection lecandy
BeatmapID:2662924
BeatmapSetID:1282080

[Difficulty]
HPDrainRate:4
CircleSize:3.6
OverallDifficulty:7.5
ApproachRate:8.8
SliderMultiplier:2.2
SliderTickRate:1

[Events]
//Background and Video events
0,0,"shinobu.jpg",0,0
//Break Periods
2,85635,88300
2,131868,144190
//Storyboard Layer 0 (Background)
//Storyboard Layer 1 (Fail)
//Storyboard Layer 2 (Pass)
//Storyboard Layer 3 (Foreground)
//Storyboard Layer 4 (Overlay)
//Storyboard Sound Samples

[TimingPoints]
162,410.958904109589,4,2,1,5,1,0
6737,-100,4,2,1,15,0,0
11668,-100,4,2,1,45,0,0
12490,-100,4,2,1,5,0,0
13312,-100,4,2,1,70,0,0
13620,-100,4,2,1,5,0,0
13723,-133.333333333333,4,2,3,70,0,0
15983,-133.333333333333,4,2,15,50,0,0
16189,-133.333333333333,4,2,3,70,0,0
16394,-133.333333333333,4,2,15,50,0,0
16600,-133.333333333333,4,2,3,70,0,0
19066,-100,4,2,3,70,0,0
19374,-100,4,2,3,5,0,0
19477,-100,4,2,3,70,0,0
19785,-100,4,2,3,5,0,0
19888,-133.333333333333,4,2,3,70,0,0
22559,-133.333333333333,4,2,15,50,0,0
22764,-133.333333333333,4,2,3,70,0,0
22970,-133.333333333333,4,2,15,50,0,0
23175,-133.333333333333,4,2,3,70,0,0
26052,-100,4,2,2,70,0,0
26463,-100,4,2,3,50,0,0
39203,-100,4,2,2,55,0,0
39614,-100,4,2,3,70,0,0
47525,-100,4,2,3,5,0,0
47627,-100,4,2,3,70,0,0
47730,-100,4,2,3,5,0,0
47833,-100,4,2,3,70,0,0
49477,-100,4,2,30,50,0,0
49682,-100,4,2,1,30,0,0
49888,-100,4,2,1,25,0,0
50298,-100,4,2,1,20,0,0
50709,-100,4,2,1,17,0,0
51120,-100,4,2,1,15,0,0
51531,-100,4,2,1,25,0,0
51737,-100,4,2,1,45,0,0
51942,-100,4,2,30,50,0,0
52251,-100,4,2,30,5,0,0
52353,-100,4,2,30,50,0,0
52661,-100,4,2,30,5,0,0
52764,-66.6666666666667,4,2,1,85,0,1
53072,-66.6666666666667,4,2,1,5,0,1
53175,-66.6666666666667,4,2,1,85,0,1
53483,-66.6666666666667,4,2,1,5,0,1
53586,-66.6666666666667,4,2,1,85,0,1
53689,-66.6666666666667,4,2,1,5,0,1
53792,-66.6666666666667,4,2,1,85,0,1
54100,-66.6666666666667,4,2,1,5,0,1
54203,-66.6666666666667,4,2,1,85,0,1
54716,-66.6666666666667,4,2,1,5,0,1
54819,-66.6666666666667,4,2,1,85,0,1
54922,-66.6666666666667,4,2,1,5,0,1
55025,-66.6666666666667,4,2,1,85,0,1
55127,-66.6666666666667,4,2,1,5,0,1
55230,-66.6666666666667,4,2,1,85,0,1
56360,-66.6666666666667,4,2,1,5,0,1
56463,-66.6666666666667,4,2,1,85,0,1
56566,-66.6666666666667,4,2,1,5,0,1
56668,-66.6666666666667,4,2,1,85,0,1
56771,-66.6666666666667,4,2,1,5,0,1
56874,-66.6666666666667,4,2,1,85,0,1
57182,-66.6666666666667,4,2,1,5,0,1
57285,-66.6666666666667,4,2,1,85,0,1
57388,-66.6666666666667,4,2,1,5,0,1
57490,-66.6666666666667,4,2,1,85,0,1
57593,-66.6666666666667,4,2,1,5,0,1
57696,-66.6666666666667,4,2,1,85,0,1
59648,-66.6666666666667,4,2,1,5,0,1
59751,-66.6666666666667,4,2,1,85,0,1
60470,-66.6666666666667,4,2,1,5,0,1
60572,-66.6666666666667,4,2,1,85,0,1
60881,-66.6666666666667,4,2,1,5,0,1
60983,-66.6666666666667,4,2,1,85,0,1
61292,-66.6666666666667,4,2,1,5,0,1
61394,-66.6666666666667,4,2,1,85,0,1
61497,-66.6666666666667,4,2,1,5,0,1
61600,-66.6666666666667,4,2,1,85,0,1
61703,-66.6666666666667,4,2,1,5,0,1
61805,-66.6666666666667,4,2,1,85,0,1
61908,-66.6666666666667,4,2,1,5,0,1
62011,-66.6666666666667,4,2,1,85,0,1
62114,-66.6666666666667,4,2,1,5,0,1
62216,-66.6666666666667,4,2,1,85,0,1
62319,-66.6666666666667,4,2,1,5,0,1
62422,-66.6666666666667,4,2,1,85,0,1
62525,-66.6666666666667,4,2,1,5,0,1
62627,-66.6666666666667,4,2,1,85,0,1
63552,-66.6666666666667,4,2,1,5,0,1
63655,-66.6666666666667,4,2,1,85,0,1
63963,-66.6666666666667,4,2,1,5,0,1
64066,-66.6666666666667,4,2,1,85,0,1
64374,-66.6666666666667,4,2,1,5,0,1
64477,-66.6666666666667,4,2,1,85,0,1
64579,-66.6666666666667,4,2,1,5,0,1
64682,-66.6666666666667,4,2,1,85,0,1
64785,-66.6666666666667,4,2,1,5,0,1
64888,-66.6666666666667,4,2,1,85,0,1
64990,-66.6666666666667,4,2,1,5,0,1
65093,-66.6666666666667,4,2,1,85,0,1
66223,-66.6666666666667,4,2,1,5,0,1
66326,-66.6666666666667,4,2,1,85,0,1
66634,-66.6666666666667,4,2,1,5,0,1
66737,-66.6666666666667,4,2,1,85,0,1
66840,-66.6666666666667,4,2,1,5,0,1
66942,-66.6666666666667,4,2,1,85,0,1
67045,-66.6666666666667,4,2,1,5,0,1
67148,-66.6666666666667,4,2,1,85,0,1
67251,-66.6666666666667,4,2,1,5,0,1
67353,-66.6666666666667,4,2,1,85,0,1
67456,-66.6666666666667,4,2,1,5,0,1
67559,-66.6666666666667,4,2,1,85,0,1
69511,-66.6666666666667,4,2,1,5,0,1
69614,-66.6666666666667,4,2,1,85,0,1
69922,-66.6666666666667,4,2,1,5,0,1
70025,-66.6666666666667,4,2,1,85,0,1
70127,-66.6666666666667,4,2,1,5,0,1
70230,-66.6666666666667,4,2,1,85,0,1
70538,-66.6666666666667,4,2,1,5,0,1
70641,-66.6666666666667,4,2,1,85,0,1
72798,-66.6666666666667,4,2,1,5,0,1
72901,-66.6666666666667,4,2,1,85,0,1
73620,-66.6666666666667,4,2,1,5,0,1
73723,-66.6666666666667,4,2,1,85,0,1
74442,-66.6666666666667,4,2,1,5,0,1
74545,-200,4,2,1,85,0,1
74853,-200,4,2,1,5,0,1
74956,-66.6666666666667,4,2,1,85,0,1
75264,-66.6666666666667,4,2,1,5,0,1
75367,-200,4,2,1,85,0,1
75778,-66.6666666666667,4,2,1,85,0,1
77422,-83.3333333333333,4,2,1,85,0,1
78244,-83.3333333333333,4,2,2,85,0,1
79066,-100,4,2,1,60,0,0
79271,-100,4,2,3,60,0,0
79374,-100,4,2,1,5,0,0
79477,-133.333333333333,4,2,3,60,0,0
82353,-133.333333333333,4,2,3,50,0,0
83175,-133.333333333333,4,2,3,40,0,0
83997,-200,4,2,3,30,0,0
90572,-100,4,2,3,5,0,0
91394,-200,4,2,2,40,0,0
91805,-133.333333333333,4,2,2,40,0,0
92216,-100,4,2,3,70,0,0
93244,-100,4,2,15,70,0,0
93449,-100,4,2,3,70,0,0
93655,-100,4,2,15,70,0,0
93860,-100,4,2,3,70,0,0
96531,-100,4,2,15,70,0,0
96737,-100,4,2,3,70,0,0
96942,-100,4,2,15,70,0,0
97148,-100,4,2,3,70,0,0
100127,-100,4,2,3,5,0,0
100230,-100,4,2,3,70,0,0
100333,-100,4,2,3,5,0,0
100435,-100,4,2,3,70,0,0
102079,-133.333333333333,4,2,30,50,0,0
102285,-133.333333333333,4,2,3,30,0,0
102490,-133.333333333333,4,2,3,20,0,0
102901,-200,4,2,3,11,0,0
103723,-333.333333333333,4,2,3,11,0,0
104545,-200,4,2,30,30,0,0
104853,-200,4,2,30,5,0,0
104956,-100,4,2,30,60,0,0
105264,-100,4,2,30,5,0,0
105367,-66.6666666666667,4,2,1,85,0,1
105675,-66.6666666666667,4,2,1,5,0,1
105778,-66.6666666666667,4,2,1,85,0,1
106086,-66.6666666666667,4,2,1,5,0,1
106189,-66.6666666666667,4,2,1,85,0,1
106292,-66.6666666666667,4,2,1,5,0,1
106394,-66.6666666666667,4,2,1,85,0,1
106497,-66.6666666666667,4,2,1,5,0,1
106600,-66.6666666666667,4,2,1,85,0,1
106703,-66.6666666666667,4,2,1,5,0,1
106805,-66.6666666666667,4,2,1,85,0,1
106908,-66.6666666666667,4,2,1,5,0,1
107011,-66.6666666666667,4,2,1,85,0,1
107935,-66.6666666666667,4,2,1,5,0,1
108038,-66.6666666666667,4,2,1,85,0,1
108346,-66.6666666666667,4,2,1,5,0,1
108449,-66.6666666666667,4,2,1,85,0,1
110607,-66.6666666666667,4,2,1,5,0,1
110709,-66.6666666666667,4,2,1,85,0,1
111018,-66.6666666666667,4,2,1,5,0,1
111120,-66.6666666666667,4,2,1,85,0,1
111429,-66.6666666666667,4,2,1,5,0,1
111531,-66.6666666666667,4,2,1,85,0,1
111840,-66.6666666666667,4,2,1,5,0,1
111942,-66.6666666666667,4,2,1,85,0,1
112251,-66.6666666666667,4,2,1,5,0,1
112353,-66.6666666666667,4,2,1,85,0,1
112661,-66.6666666666667,4,2,1,5,0,1
112764,-66.6666666666667,4,2,1,85,0,1
113689,-66.6666666666667,4,2,1,5,0,1
113792,-66.6666666666667,4,2,1,85,0,1
113894,-66.6666666666667,4,2,1,5,0,1
113997,-66.6666666666667,4,2,1,85,0,1
114100,-66.6666666666667,4,2,1,5,0,1
114203,-66.6666666666667,4,2,1,85,0,1
114305,-66.6666666666667,4,2,1,5,0,1
114408,-66.6666666666667,4,2,1,85,0,1
114511,-66.6666666666667,4,2,1,5,0,1
114614,-66.6666666666667,4,2,1,85,0,1
114716,-66.6666666666667,4,2,1,5,0,1
114819,-66.6666666666667,4,2,1,85,0,1
115744,-66.6666666666667,4,2,1,5,0,1
115846,-66.6666666666667,4,2,1,85,0,1
115949,-66.6666666666667,4,2,1,5,0,1
116052,-66.6666666666667,4,2,1,85,0,1
116874,-83.3333333333333,4,2,1,85,0,1
118107,-66.6666666666667,4,2,1,85,0,1
118518,-83.3333333333333,4,2,1,70,0,0
118826,-83.3333333333333,4,2,1,5,0,0
118929,-83.3333333333333,4,2,1,70,0,0
119237,-83.3333333333333,4,2,1,5,0,0
119340,-83.3333333333333,4,2,1,70,0,0
119442,-83.3333333333333,4,2,1,5,0,0
119545,-83.3333333333333,4,2,1,70,0,0
119648,-83.3333333333333,4,2,1,5,0,0
119751,-83.3333333333333,4,2,1,70,0,0
121292,-83.3333333333333,4,2,1,5,0,0
121394,-83.3333333333333,4,2,1,70,0,0
121703,-83.3333333333333,4,2,1,5,0,0
121805,-83.3333333333333,4,2,1,50,0,0
123449,-83.3333333333333,4,2,1,40,0,0
124374,-83.3333333333333,4,2,1,5,0,0
124477,-83.3333333333333,4,2,1,40,0,0
124579,-83.3333333333333,4,2,1,5,0,0
124682,-83.3333333333333,4,2,1,40,0,0
124785,-83.3333333333333,4,2,1,5,0,0
124888,-83.3333333333333,4,2,1,40,0,0
124990,-83.3333333333333,4,2,1,5,0,0
125093,-83.3333333333333,4,2,1,30,0,0
125401,-83.3333333333333,4,2,1,5,0,0
125504,-83.3333333333333,4,2,1,30,0,0
125812,-83.3333333333333,4,2,1,5,0,0
125915,-83.3333333333333,4,2,1,30,0,0
126737,-83.3333333333333,4,2,1,20,0,0
128381,-83.3333333333333,4,2,1,15,0,0
130025,-83.3333333333333,4,2,1,10,0,0
131668,-83.3333333333333,4,2,25,5,0,0
144819,-200,4,2,3,40,0,0
145230,-200,4,2,4,40,0,0
145435,-200,4,2,3,40,0,0
146052,-200,4,2,4,40,0,0
146257,-200,4,2,3,40,0,0
146874,-200,4,2,4,40,0,0
147079,-200,4,2,3,40,0,0
147696,-200,4,2,4,40,0,0
147901,-200,4,2,3,40,0,0
148518,-200,4,2,4,40,0,0
148723,-200,4,2,3,40,0,0
149340,-200,4,2,4,40,0,0
149545,-200,4,2,3,40,0,0
150162,-200,4,2,4,40,0,0
150367,-200,4,2,3,40,0,0
150983,-200,4,2,4,40,0,0
151189,-200,4,2,3,50,0,0
151394,-133.333333333333,4,2,3,60,0,0
154682,-133.333333333333,4,2,3,70,0,0
157970,-100,4,2,40,70,0,0
159203,-100,4,2,20,70,0,0
159614,-66.6666666666667,4,2,1,85,0,1
159922,-66.6666666666667,4,2,1,5,0,1
160025,-66.6666666666667,4,2,1,85,0,1
160333,-66.6666666666667,4,2,1,5,0,1
160435,-66.6666666666667,4,2,1,85,0,1
160538,-66.6666666666667,4,2,1,5,0,1
160641,-66.6666666666667,4,2,1,85,0,1
160949,-66.6666666666667,4,2,1,5,0,1
161052,-66.6666666666667,4,2,1,85,0,1
161566,-66.6666666666667,4,2,1,5,0,1
161668,-66.6666666666667,4,2,1,85,0,1
161771,-66.6666666666667,4,2,1,5,0,1
161874,-66.6666666666667,4,2,1,85,0,1
161977,-66.6666666666667,4,2,1,5,0,1
162079,-66.6666666666667,4,2,1,85,0,1
163209,-66.6666666666667,4,2,1,5,0,1
163312,-66.6666666666667,4,2,1,85,0,1
163415,-66.6666666666667,4,2,1,5,0,1
163518,-66.6666666666667,4,2,1,85,0,1
163620,-66.6666666666667,4,2,1,5,0,1
163723,-66.6666666666667,4,2,1,85,0,1
164031,-66.6666666666667,4,2,1,5,0,1
164134,-66.6666666666667,4,2,1,85,0,1
164237,-66.6666666666667,4,2,1,5,0,1
164340,-66.6666666666667,4,2,1,85,0,1
164442,-66.6666666666667,4,2,1,5,0,1
164545,-66.6666666666667,4,2,1,85,0,1
164751,-133.333333333333,4,2,1,85,0,1
164956,-66.6666666666667,4,2,1,85,0,1
167730,-66.6666666666667,4,2,1,5,0,1
167833,-66.6666666666667,4,2,1,85,0,1
168141,-66.6666666666667,4,2,1,5,0,1
168244,-66.6666666666667,4,2,1,85,0,1
168346,-66.6666666666667,4,2,1,5,0,1
168449,-66.6666666666667,4,2,1,85,0,1
168552,-66.6666666666667,4,2,1,5,0,1
168655,-66.6666666666667,4,2,1,85,0,1
168757,-66.6666666666667,4,2,1,5,0,1
168860,-66.6666666666667,4,2,1,85,0,1
168963,-66.6666666666667,4,2,1,5,0,1
169066,-66.6666666666667,4,2,1,85,0,1
169168,-66.6666666666667,4,2,1,5,0,1
169271,-66.6666666666667,4,2,1,85,0,1
169374,-66.6666666666667,4,2,1,5,0,1
169477,-66.6666666666667,4,2,1,85,0,1
170401,-66.6666666666667,4,2,1,5,0,1
170504,-66.6666666666667,4,2,1,85,0,1
170812,-66.6666666666667,4,2,1,5,0,1
170915,-66.6666666666667,4,2,1,85,0,1
171223,-66.6666666666667,4,2,1,5,0,1
171326,-66.6666666666667,4,2,1,85,0,1
171429,-66.6666666666667,4,2,1,5,0,1
171531,-66.6666666666667,4,2,1,85,0,1
171634,-66.6666666666667,4,2,1,5,0,1
171737,-66.6666666666667,4,2,1,85,0,1
171840,-66.6666666666667,4,2,1,5,0,1
171942,-66.6666666666667,4,2,1,85,0,1
172251,-66.6666666666667,4,2,1,5,0,1
172353,-66.6666666666667,4,2,2,85,0,1
172764,-66.6666666666667,4,2,1,85,0,1
173072,-66.6666666666667,4,2,1,5,0,1
173175,-66.6666666666667,4,2,1,85,0,1
173483,-66.6666666666667,4,2,1,5,0,1
173586,-66.6666666666667,4,2,1,85,0,1
173689,-66.6666666666667,4,2,1,5,0,1
173792,-66.6666666666667,4,2,1,85,0,1
173894,-66.6666666666667,4,2,1,5,0,1
173997,-66.6666666666667,4,2,1,85,0,1
174100,-66.6666666666667,4,2,1,5,0,1
174203,-66.6666666666667,4,2,1,85,0,1
174305,-66.6666666666667,4,2,1,5,0,1
174408,-66.6666666666667,4,2,1,85,0,1
176360,-66.6666666666667,4,2,1,5,0,1
176463,-66.6666666666667,4,2,1,85,0,1
176771,-66.6666666666667,4,2,1,5,0,1
176874,-66.6666666666667,4,2,1,85,0,1
176977,-66.6666666666667,4,2,1,5,0,1
177079,-66.6666666666667,4,2,1,85,0,1
177388,-66.6666666666667,4,2,1,5,0,1
177490,-66.6666666666667,4,2,1,85,0,1
178004,-66.6666666666667,4,2,1,5,0,1
178107,-66.6666666666667,4,2,1,85,0,1
178209,-66.6666666666667,4,2,1,5,0,1
178312,-66.6666666666667,4,2,1,85,0,1
178415,-66.6666666666667,4,2,1,5,0,1
178518,-66.6666666666667,4,2,1,85,0,1
179031,-66.6666666666667,4,2,1,5,0,1
179134,-66.6666666666667,4,2,1,85,0,1
179340,-66.6666666666667,4,2,1,85,0,1
179648,-66.6666666666667,4,2,1,5,0,1
179751,-66.6666666666667,4,2,1,85,0,1
180059,-66.6666666666667,4,2,1,5,0,1
180162,-66.6666666666667,4,2,1,85,0,1
181394,-200,4,2,1,85,0,1
181703,-200,4,2,1,5,0,1
181805,-66.6666666666667,4,2,1,85,0,1
182216,-200,4,2,1,85,0,1
182525,-200,4,2,1,5,0,1
182627,-66.6666666666667,4,2,1,85,0,1
185093,-83.3333333333333,4,2,2,85,0,1
185915,-66.6666666666667,4,2,1,70,0,0
186120,-66.6666666666667,4,2,1,70,0,0
186223,-66.6666666666667,4,2,1,5,0,0
186326,-100,4,2,1,70,0,0
188586,-100,4,2,15,70,0,0
188792,-100,4,2,1,70,0,0
188997,-100,4,2,15,70,0,0
189203,-100,4,2,1,70,0,0
190846,-100,4,2,1,70,0,0
191977,-100,4,2,1,5,0,0
192079,-100,4,2,1,70,0,0
192388,-100,4,2,1,5,0,0
192490,-100,4,2,1,70,0,0
192798,-100,4,2,1,5,0,0
192901,-100,4,2,1,70,0,0
195162,-100,4,2,15,70,0,0
195367,-100,4,2,1,70,0,0
195572,-100,4,2,15,70,0,0
195778,-100,4,2,1,70,0,0
197422,-100,4,2,1,40,0,0
199066,-100,4,2,1,20,0,0

[Colours]
Combo1 : 150,146,154
Combo2 : 58,177,163
Combo3 : 251,245,145
Combo4 : 187,156,245
Combo5 : 112,137,136
Combo6 : 171,169,158

[HitObjects]
256,192,6737,12,0,12490,0:0:0:0:
488,32,13312,6,0,B|432:27|432:27|389:51|389:51|329:46,1,165,4|0,1:2|0:0,0:0:0:0:
252,124,13723,70,0,L|334:131,1,82.5000031471254,8|2,1:2|0:3,0:0:0:0:
500,200,14134,2,0,L|417:192,1,82.5000031471254,0|2,1:2|0:3,0:0:0:0:
320,256,14545,1,8,1:2:0:0:
456,112,14751,1,2,0:3:0:0:
232,208,14956,54,0,L|148:200,1,82.5000031471254,0|2,1:2|0:3,0:0:0:0:
132,212,15264,1,0,0:0:0:0:
116,227,15367,2,0,P|93:261|97:302,1,82.5000031471254,8|2,1:2|0:3,0:0:0:0:
288,384,15778,2,0,L|284:342,1,41.2500015735627,0|0,1:0|0:0,0:0:0:0:
176,284,15983,2,0,L|217:280,1,41.2500015735627,2|0,0:3|0:0,0:0:0:0:
340,252,16189,2,0,L|298:255,1,41.2500015735627,8|0,1:2|0:0,0:0:0:0:
228,152,16394,2,0,L|231:193,1,41.2500015735627,2|0,0:3|0:0,0:0:0:0:
384,336,16600,6,0,P|417:358|458:354,1,82.5000031471254,0|2,1:0|0:3,0:0:0:0:
476,348,16908,1,0,0:0:0:0:
492,336,17011,2,0,L|484:253,1,82.5000031471254,8|2,1:2|0:3,0:0:0:0:
476,144,17422,1,0,1:2:0:0:
312,224,17627,2,0,L|394:216,1,82.5000031471254,2|8,0:3|1:2,0:0:0:0:
480,120,18038,1,2,0:3:0:0:
284,0,18244,6,0,P|261:33|265:74,1,82.5000031471254,0|2,1:2|0:3,0:0:0:0:
192,140,18655,2,0,L|109:132,1,82.5000031471254,8|2,1:2|0:3,0:0:0:0:
96,120,18963,1,0,0:0:0:0:
76,104,19066,6,0,P|12:147|32:221,1,165,2|0,1:2|0:0,0:0:0:0:
40,228,19477,2,0,P|104:271|83:345,1,165,10|0,1:2|0:0,0:0:0:0:
72,352,19888,54,0,L|154:344,1,82.5000031471254,2|2,1:2|0:3,0:0:0:0:
292,332,20298,1,8,1:2:0:0:
216,240,20504,1,2,0:3:0:0:
376,184,20709,1,0,1:0:0:0:
260,112,20915,1,2,0:3:0:0:
376,288,21120,1,8,1:2:0:0:
228,252,21326,1,2,0:3:0:0:
380,168,21531,6,0,L|462:160,1,82.5000031471254,0|2,1:0|0:3,0:0:0:0:
484,244,21942,1,8,1:2:0:0:
484,244,22148,1,2,0:3:0:0:
376,84,22353,2,0,L|334:80,1,41.2500015735627,0|0,1:2|0:0,0:0:0:0:
244,68,22559,2,0,L|240:26,1,41.2500015735627,2|0,0:3|0:0,0:0:0:0:
188,148,22764,2,0,L|229:151,1,41.2500015735627,8|0,1:2|0:0,0:0:0:0:
320,164,22970,2,0,L|323:205,1,41.2500015735627,2|0,0:3|0:0,0:0:0:0:
124,88,23175,54,0,P|99:119|99:160,1,82.5000031471254,0|2,1:0|0:3,0:0:0:0:
168,240,23586,2,0,P|192:271|192:312,1,82.5000031471254,8|2,1:2|0:3,0:0:0:0:
48,360,23997,1,0,1:0:0:0:
200,332,24203,1,2,0:3:0:0:
56,380,24408,1,8,1:2:0:0:
208,352,24614,1,2,0:3:0:0:
368,360,24819,6,0,L|450:352,1,82.5000031471254,0|2,1:0|0:3,0:0:0:0:
472,352,25127,1,0,0:0:0:0:
492,348,25230,2,0,L|484:265,1,82.5000031471254,8|2,1:2|0:3,0:0:0:0:
468,256,25538,1,0,0:0:0:0:
452,244,25641,2,0,P|451:203|476:171,1,82.5000031471254,0|2,1:0|0:3,0:0:0:0:
512,60,26052,1,8,0:0:0:0:
483,61,26155,1,8,0:0:0:0:
455,63,26257,1,8,0:0:0:0:
428,67,26360,1,8,0:0:0:0:
400,69,26463,6,0,B|376:84|376:84|290:78,1,110,2|0,1:2|0:0,0:0:0:0:
184,72,26874,1,0,1:0:0:0:
232,176,27079,1,2,0:0:0:0:
232,176,27285,2,0,B|208:191|208:191|122:185,1,110,2|0,1:2|0:0,0:0:0:0:
16,176,27696,1,0,1:0:0:0:
76,84,27901,1,2,0:0:0:0:
152,268,28107,54,0,P|167:319|145:368,1,110,2|2,1:2|0:0,0:0:0:0:
136,384,28415,1,0,0:0:0:0:
136,384,28518,1,2,1:2:0:0:
56,312,28723,1,2,0:0:0:0:
236,380,28929,2,0,L|345:370,1,110,2|2,1:2|0:0,0:0:0:0:
400,276,29340,2,0,L|509:285,1,110,2|0,1:2|0:0,0:0:0:0:
324,184,29751,6,0,P|308:132|330:83,1,110,2|0,1:2|0:0,0:0:0:0:
408,4,30161,1,0,1:0:0:0:
492,84,30367,1,2,0:0:0:0:
492,84,30572,2,0,P|513:133|498:184,1,110,2|0,1:2|0:0,0:0:0:0:
400,276,30983,1,0,1:0:0:0:
324,192,31189,1,2,0:0:0:0:
188,312,31394,6,0,L|78:302,1,110,2|2,1:2|0:0,0:0:0:0:
60,288,31703,1,0,0:0:0:0:
60,288,31805,1,0,1:0:0:0:
148,208,32011,1,2,0:0:0:0:
44,156,32216,1,2,1:2:0:0:
60,288,32422,1,2,0:0:0:0:
160,216,32627,2,0,L|269:206,1,110,2|0,1:2|0:0,0:0:0:0:
448,40,33038,54,0,P|477:85|469:138,1,110,2|0,1:2|0:0,0:0:0:0:
456,160,33346,1,2,0:0:0:0:
456,160,33449,1,8,1:2:0:0:
224,104,33860,2,0,P|269:74|322:82,1,110,2|0,1:2|0:0,0:0:0:0:
344,96,34168,1,2,0:0:0:0:
344,96,34271,1,8,1:2:0:0:
300,320,34682,6,0,P|270:274|278:221,1,110,2|0,1:2|0:0,0:0:0:0:
292,200,34990,1,2,0:0:0:0:
292,200,35093,1,8,1:2:0:0:
376,256,35298,1,0,0:0:0:0:
200,360,35504,2,0,L|90:350,1,110,0|2,1:0|0:0,0:0:0:0:
112,232,35915,2,0,L|2:241,1,110,10|0,1:2|0:0,0:0:0:0:
156,100,36326,5,0,1:0:0:0:
155,100,36531,2,0,P|202:72|255:82,1,110,2|8,0:0|1:2,0:0:0:0:
360,144,36942,1,2,0:0:0:0:
216,164,37148,2,0,P|205:216|233:263,1,110,0|2,1:2|0:0,0:0:0:0:
328,340,37559,1,8,1:2:0:0:
304,200,37764,1,2,0:0:0:0:
448,304,37970,54,0,L|457:194,1,110,0|0,1:2|0:0,0:0:0:0:
368,112,38381,2,0,L|358:2,1,110,8|0,1:2|0:0,0:0:0:0:
468,52,38792,1,0,1:0:0:0:
196,92,39203,1,10,0:0:0:0:
224,112,39305,1,8,0:0:0:0:
232,148,39408,1,8,0:0:0:0:
220,184,39511,1,8,0:0:0:0:
196,208,39614,6,0,L|86:217,1,110,2|2,1:2|0:0,0:0:0:0:
68,236,39922,1,0,0:0:0:0:
68,236,40025,1,8,1:2:0:0:
156,320,40230,1,2,0:0:0:0:
40,120,40435,2,0,P|28:67|57:23,1,110,2|2,1:2|0:3,0:0:0:0:
212,52,40846,2,0,P|172:88|119:85,1,110,8|2,1:2|0:3,0:0:0:0:
144,0,41257,5,0,1:0:0:0:
296,112,41463,1,2,0:0:0:0:
296,112,41566,1,0,0:0:0:0:
296,112,41668,2,0,L|305:221,1,110,8|2,1:2|0:0,0:0:0:0:
508,312,42079,2,0,P|468:275|415:278,1,110,2|2,1:2|0:3,0:0:0:0:
288,352,42490,1,10,1:2:0:0:
436,360,42696,1,2,0:0:0:0:
220,252,42901,54,0,L|110:242,1,110,2|2,1:2|0:0,0:0:0:0:
92,220,43209,1,2,0:0:0:0:
92,220,43312,1,10,1:2:0:0:
180,336,43518,1,2,0:0:0:0:
288,168,43723,2,0,P|327:131|380:134,1,110,2|2,1:2|0:3,0:0:0:0:
512,188,44134,2,0,P|472:224|419:221,1,110,8|2,1:2|0:3,0:0:0:0:
284,48,44545,5,0,1:0:0:0:
156,136,44751,1,2,0:3:0:0:
156,136,44853,1,0,0:0:0:0:
156,136,44956,2,0,L|101:131,1,55,8|0,1:2|0:0,0:0:0:0:
4,40,45162,2,0,L|58:44,1,55,2|0,0:3|0:0,0:0:0:0:
156,56,45367,1,0,1:2:0:0:
156,56,45572,1,2,0:3:0:0:
240,96,45778,1,8,1:2:0:0:
168,148,45983,1,2,0:3:0:0:
412,212,46189,6,0,B|356:244|312:196|312:196|248:196|217:241,1,220,2|8,1:2|1:2,0:0:0:0:
300,296,46805,1,2,0:0:0:0:
300,296,46908,1,0,0:0:0:0:
300,296,47011,1,0,1:0:0:0:
376,136,47216,2,0,L|371:81,1,55,2|2,0:0|0:0,0:0:0:0:
492,136,47422,2,0,L|496:190,1,55,10|0,1:2|0:0,0:0:0:0:
352,128,47627,2,0,L|347:73,1,55,2|0,0:0|0:0,0:0:0:0:
226,212,47833,54,0,B|282:180|326:228|326:228|390:228|420:182,1,220,2|8,1:2|1:2,0:0:0:0:
251,114,48449,1,2,0:0:0:0:
251,114,48552,1,0,0:0:0:0:
251,114,48655,1,0,1:0:0:0:
84,192,48860,2,0,L|88:246,1,55,2|0,0:3|0:0,0:0:0:0:
224,296,49066,1,10,1:2:0:0:
92,264,49271,1,2,0:0:0:0:
256,192,49477,5,2,0:0:0:0:
244,200,49682,1,0,1:0:0:0:
248,184,49888,1,0,1:0:0:0:
256,192,50093,1,0,1:0:0:0:
360,296,50298,1,0,1:0:0:0:
356,292,50504,1,0,1:0:0:0:
360,288,50709,1,0,1:0:0:0:
360,296,50915,1,0,1:0:0:0:
484,108,51120,5,0,1:0:0:0:
444,96,51326,1,0,1:0:0:0:
472,180,51531,1,0,1:0:0:0:
512,32,51737,1,0,1:0:0:0:
336,156,51942,2,0,B|287:167|258:135|258:135|230:102|176:113,1,165,4|0,0:0|0:0,0:0:0:0:
180,132,52353,2,0,B|224:122|253:155|253:155|281:187|330:176,1,165,4|0,0:0|0:0,0:0:0:0:
288,260,52764,6,0,B|232:255|232:255|201:236|201:236|145:231|145:231|142:227|142:227|137:230|137:230|86:226|86:226|81:229|81:229|78:225|78:225|42:222,1,247.500009441376,6|0,1:2|0:0,0:0:0:0:
52,244,53175,2,0,B|77:246|77:246|80:250|80:250|84:246|84:246|136:251|136:251|141:247|141:247|144:252|144:252|200:256|200:256|230:275|230:275|286:280,1,247.500009441376,10|0,1:2|0:0,0:0:0:0:
384,248,53586,6,0,L|376:331,1,82.5000031471254,2|0,1:2|0:0,0:0:0:0:
300,360,53792,1,2,0:3:0:0:
512,200,53997,2,0,L|505:282,1,82.5000031471254,10|0,1:2|0:0,0:0:0:0:
456,348,54203,1,2,0:3:0:0:
312,196,54408,5,2,1:2:0:0:
312,196,54614,2,0,P|291:161|296:121,1,82.5000031471254,2|0,0:3|0:0,0:0:0:0:
439,176,54819,2,0,P|479:175|511:199,1,82.5000031471254,10|0,1:2|0:0,0:0:0:0:
392,288,55025,2,0,P|372:323|335:339,1,82.5000031471254,2|0,0:3|0:0,0:0:0:0:
188,264,55230,53,2,1:2:0:0:
64,360,55435,1,2,1:3:0:0:
176,248,55641,1,10,1:2:0:0:
52,344,55846,1,2,1:3:0:0:
124,160,56052,5,2,1:2:0:0:
124,160,56155,1,0,0:0:0:0:
124,160,56257,2,0,L|206:152,1,82.5000031471254,2|0,1:3|0:0,0:0:0:0:
168,56,56463,2,0,L|85:63,1,82.5000031471254,10|0,1:2|0:0,0:0:0:0:
280,84,56668,2,0,L|272:1,1,82.5000031471254,2|0,0:3|0:0,0:0:0:0:
348,204,56874,5,2,1:2:0:0:
348,204,57079,2,0,L|355:286,1,82.5000031471254,2|0,0:3|0:0,0:0:0:0:
256,328,57285,2,0,P|224:303|219:263,1,82.5000031471254,10|0,1:2|0:0,0:0:0:0:
464,308,57490,2,0,P|459:347|427:372,1,82.5000031471254,2|0,0:3|0:0,0:0:0:0:
348,204,57696,53,2,1:2:0:0:
512,160,57901,1,2,0:3:0:0:
512,160,58004,1,0,0:0:0:0:
512,160,58107,1,10,1:2:0:0:
416,24,58312,1,2,0:3:0:0:
416,24,58415,1,0,0:0:0:0:
416,24,58518,6,0,L|408:106,1,82.5000031471254,2|0,1:2|0:0,0:0:0:0:
284,136,58723,2,0,L|276:53,1,82.5000031471254,2|0,0:3|0:0,0:0:0:0:
148,20,58929,1,10,1:2:0:0:
132,32,59031,1,0,0:0:0:0:
120,48,59134,1,2,0:3:0:0:
120,48,59340,6,0,B|112:136|112:136|71:189|71:189|63:281,1,247.500009441376,2|0,1:2|0:0,0:0:0:0:
156,340,59751,1,10,1:2:0:0:
160,312,59853,1,0,0:0:0:0:
168,288,59956,1,2,0:3:0:0:
168,288,60161,54,0,B|260:280|260:280|313:240|313:240|400:232,1,247.500009441376,2|0,1:2|0:0,0:0:0:0:
488,224,60572,1,10,1:2:0:0:
432,148,60675,1,0,0:0:0:0:
352,196,60778,2,0,P|326:228|327:269,1,82.5000031471254,2|0,0:3|0:0,0:0:0:0:
288,372,60983,5,2,1:2:0:0:
288,372,61086,1,0,0:0:0:0:
288,372,61189,2,0,L|205:379,1,82.5000031471254,2|0,0:3|0:0,0:0:0:0:
104,329,61394,2,0,P|128:297|167:287,1,82.5000031471254,10|0,1:2|0:0,0:0:0:0:
324,284,61600,2,0,P|300:252|261:242,1,82.5000031471254,2|0,0:3|0:0,0:0:0:0:
208,144,61805,6,0,L|290:151,1,82.5000031471254,2|0,1:2|0:0,0:0:0:0:
380,76,62011,2,0,P|345:54|304:55,1,82.5000031471254,2|0,0:3|0:0,0:0:0:0:
464,168,62216,2,0,L|471:85,1,82.5000031471254,10|0,1:2|0:0,0:0:0:0:
420,264,62422,2,0,L|412:346,1,82.5000031471254,2|0,0:3|0:0,0:0:0:0:
272,356,62627,53,2,1:2:0:0:
272,356,62833,2,0,P|240:381|199:381,1,82.5000031471254,2|0,0:3|0:0,0:0:0:0:
80,272,63038,2,0,P|150:236|210:285,1,165.000006294251,10|2,1:2|0:3,0:0:0:0:
20,200,63449,2,0,L|28:117,1,82.5000031471254,2|0,1:2|0:0,0:0:0:0:
40,24,63655,1,2,0:3:0:0:
216,168,63860,2,0,L|223:86,1,82.5000031471254,10|0,1:2|0:0,0:0:0:0:
224,0,64066,1,2,0:3:0:0:
136,228,64271,6,0,P|161:261|206:269,1,82.5000031471254,2|0,1:2|0:0,0:0:0:0:
376,200,64477,2,0,P|349:166|303:158,1,82.5000031471254,2|0,1:3|0:0,0:0:0:0:
198,270,64682,2,0,P|192:312|219:349,1,82.5000031471254,10|0,1:2|0:0,0:0:0:0:
312,157,64888,2,0,P|317:114|290:76,1,82.5000031471254,2|0,1:3|0:0,0:0:0:0:
224,0,65093,5,2,1:2:0:0:
392,48,65298,2,0,L|474:40,1,82.5000031471254,2|0,0:3|0:0,0:0:0:0:
232,20,65504,1,10,1:2:0:0:
400,64,65709,2,0,L|482:57,1,82.5000031471254,2|0,0:3|0:0,0:0:0:0:
512,148,65915,54,0,P|399:172|389:288,1,247.500009441376,6|0,1:2|0:0,0:0:0:0:
484,348,66326,2,0,B|426:346|386:286|386:286|344:215|285:222,1,247.500009441376,10|0,1:2|0:0,0:0:0:0:
212,268,66737,6,0,P|192:232|200:192,1,82.5000031471254,2|0,1:2|0:0,0:0:0:0:
256,56,66942,2,0,P|276:92|268:132,1,82.5000031471254,2|0,0:3|0:0,0:0:0:0:
192,276,67148,2,0,P|172:240|180:200,1,82.5000031471254,10|0,1:2|0:0,0:0:0:0:
276,44,67353,2,0,P|296:80|288:120,1,82.5000031471254,2|0,0:3|0:0,0:0:0:0:
140,96,67559,6,0,L|57:103,1,82.5000031471254,2|0,1:2|0:0,0:0:0:0:
0,40,67764,1,2,0:3:0:0:
179,200,67970,2,0,L|97:208,1,82.5000031471254,10|0,1:2|0:0,0:0:0:0:
8,176,68175,1,2,0:3:0:0:
136,344,68381,54,0,P|58:345|28:272,2,165.000006294251,2|2|10,1:2|1:3|1:2,0:0:0:0:
272,224,68997,1,2,0:3:0:0:
428,304,69203,5,2,1:2:0:0:
510,296,69408,2,0,L|427:303,1,82.5000031471254,2|0,0:3|0:0,0:0:0:0:
356,244,69614,1,10,1:2:0:0:
274,236,69819,2,0,L|356:243,1,82.5000031471254,2|0,0:3|0:0,0:0:0:0:
436,176,70025,6,0,P|452:138|441:99,1,82.5000031471254,2|0,1:2|0:0,0:0:0:0:
380,36,70230,1,2,0:3:0:0:
204,172,70435,2,0,P|180:204|180:245,1,82.5000031471254,10|0,1:2|0:0,0:0:0:0:
232,320,70641,1,2,0:3:0:0:
436,176,70846,53,2,1:2:0:0:
436,176,71052,2,0,L|353:168,1,82.5000031471254,2|0,0:3|0:0,0:0:0:0:
296,72,71257,2,0,P|264:47|223:47,1,82.5000031471254,10|0,1:2|0:0,0:0:0:0:
180,245,71463,2,0,P|220:241|248:212,1,82.5000031471254,2|0,0:3|0:0,0:0:0:0:
144,128,71668,5,2,1:2:0:0:
105,108,71771,1,0,0:0:0:0:
66,106,71874,1,2,0:3:0:0:
27,122,71977,1,0,0:0:0:0:
1,152,72079,2,0,L|8:235,1,82.5000031471254,10|0,1:2|0:0,0:0:0:0:
60,312,72285,1,2,0:3:0:0:
60,312,72490,6,0,B|132:340|176:276|176:276|248:252|308:312,1,247.500009441376,2|0,1:2|0:0,0:0:0:0:
224,352,72901,1,10,1:2:0:0:
140,200,73107,1,2,0:3:0:0:
304,100,73312,2,0,B|282:161|343:216|343:216|392:260|372:322,1,247.500009441376,2|0,1:2|0:0,0:0:0:0:
284,292,73723,1,10,1:2:0:0:
392,120,73929,1,2,0:3:0:0:
200,76,74134,53,2,1:2:0:0:
200,76,74237,1,0,0:0:0:0:
200,76,74340,2,0,L|117:68,1,82.5000031471254,2|0,1:3|0:0,0:0:0:0:
24,144,74545,6,0,L|106:151,1,82.5,10|0,1:2|0:0,0:0:0:0:
184,216,74956,5,2,1:2:0:0:
184,216,75059,1,0,0:0:0:0:
184,216,75162,2,0,L|176:298,1,82.5000031471254,2|0,1:3|0:0,0:0:0:0:
260,352,75367,54,0,L|267:269,1,82.5,10|0,1:2|0:0,0:0:0:0:
275,176,75778,6,0,P|338:125|414:147,1,165.000006294251,2|2,1:2|0:3,0:0:0:0:
500,304,76189,1,10,1:2:0:0:
356,216,76394,1,2,0:3:0:0:
512,136,76600,2,0,L|504:53,1,82.5000031471254,2|0,1:2|0:0,0:0:0:0:
364,228,76805,2,0,L|372:319,1,82.5000031471254,2|0,0:3|0:0,0:0:0:0:
456,384,77011,1,10,1:2:0:0:
272,272,77216,1,2,0:3:0:0:
272,272,77422,6,0,B|215:284|177:238|177:238|140:194|80:219,1,197.99999395752,2|0,1:2|0:0,0:0:0:0:
90,234,77833,2,0,B|136:214|173:258|173:258|211:304|268:292,1,197.99999395752,8|0,0:0|0:0,0:0:0:0:
248,208,78244,1,8,0:0:0:0:
248,208,78346,1,8,0:0:0:0:
248,208,78449,1,8,0:0:0:0:
108,312,78655,1,8,0:0:0:0:
108,320,78757,1,8,0:0:0:0:
108,328,78860,1,8,0:0:0:0:
108,336,78963,1,8,0:0:0:0:
108,344,79066,54,0,B|163:339|163:339|209:315|209:315|266:310,1,165,4|0,1:2|0:0,0:0:0:0:
364,220,79477,70,0,L|281:227,1,82.5000031471254,8|2,1:2|0:0,0:0:0:0:
452,264,79888,2,0,P|468:220|452:181,1,82.5000031471254,2|2,1:2|0:3,0:0:0:0:
360,120,80298,1,8,1:2:0:0:
512,128,80504,1,2,0:0:0:0:
400,52,80709,54,0,P|356:36|317:52,1,82.5000031471254,2|2,1:2|0:0,0:0:0:0:
308,60,81018,1,0,0:0:0:0:
288,68,81120,2,0,L|205:60,1,82.5000031471254,10|2,1:2|0:3,0:0:0:0:
96,56,81531,1,2,1:2:0:0:
96,56,81634,1,0,0:0:0:0:
96,56,81737,1,0,0:0:0:0:
156,224,81942,2,0,P|171:186|160:147,1,82.5000031471254,10|0,1:2|0:0,0:0:0:0:
28,284,82353,6,0,L|110:291,1,82.5000031471254,2|2,1:2|0:3,0:0:0:0:
192,300,82764,1,8,1:2:0:0:
260,252,82970,1,2,0:0:0:0:
260,252,83175,2,0,L|342:259,1,82.5000031471254,2|2,1:2|0:3,0:0:0:0:
424,272,83586,1,8,1:2:0:0:
384,344,83792,1,2,0:0:0:0:
392,188,83997,6,0,P|391:158|406:134,1,55,2|2,1:2|0:0,0:0:0:0:
480,96,84408,2,0,P|480:66|465:42,1,55,10|2,1:2|0:3,0:0:0:0:
380,20,84819,1,2,1:2:0:0:
380,20,85025,1,2,0:3:0:0:
320,84,85230,1,10,1:2:0:0:
320,84,85435,1,2,0:3:0:0:
256,192,88929,12,0,90572,0:0:0:0:
36,104,91394,54,0,L|8:106,2,27.5,10|8|8,0:0|0:0|0:0,0:0:0:0:
120,148,91805,2,0,L|161:151,2,41.2500015735627,10|8|8,0:0|0:0|0:0,0:0:0:0:
16,300,92216,6,0,B|56:308|88:276|88:276|136:272|176:304,1,165,2|2,1:2|0:0,0:0:0:0:
184,316,92627,2,0,L|294:306,1,110,8|2,1:2|0:0,0:0:0:0:
385,300,93038,1,2,1:2:0:0:
325,216,93244,1,2,0:3:0:0:
489,120,93449,1,8,1:2:0:0:
429,204,93655,1,2,0:3:0:0:
351,83,93860,6,0,P|305:55|252:60,1,110,0|2,1:0|0:0,0:0:0:0:
228,72,94168,1,0,0:0:0:0:
204,88,94271,2,0,P|157:116|104:111,1,110,10|2,1:2|0:0,0:0:0:0:
24,60,94682,1,2,1:2:0:0:
76,192,94888,1,10,0:0:0:0:
75,191,95093,2,0,P|103:237|89:289,1,110,10|2,1:2|0:0,0:0:0:0:
104,384,95504,54,0,B|167:378|167:378|201:355|201:355|260:350,1,165,2|2,1:2|0:0,0:0:0:0:
296,344,95915,2,0,P|296:289|263:246,1,110,8|2,1:2|0:0,0:0:0:0:
128,160,96326,1,2,1:2:0:0:
128,160,96429,1,0,0:0:0:0:
128,160,96531,1,2,0:3:0:0:
264,144,96737,2,0,L|373:134,1,110,8|2,1:2|0:3,0:0:0:0:
512,120,97148,5,0,1:0:0:0:
444,40,97353,1,2,0:3:0:0:
444,40,97456,1,0,0:0:0:0:
444,40,97559,2,0,L|334:49,1,110,8|2,1:2|0:3,0:0:0:0:
236,60,97970,1,0,1:2:0:0:
92,8,98175,1,2,0:3:0:0:
92,7,98381,2,0,P|64:53|78:105,1,110,8|2,1:2|0:3,0:0:0:0:
176,236,98792,6,0,B|232:252|284:220|284:220|292:228|292:228|341:197|395:216,1,220,2|8,1:2|1:2,0:0:0:0:
360,304,99408,1,2,0:0:0:0:
360,304,99511,1,0,0:0:0:0:
360,304,99614,1,0,1:0:0:0:
216,160,99819,1,2,0:0:0:0:
216,160,99922,1,2,0:0:0:0:
216,160,100025,2,0,L|162:156,1,55,10|0,1:2|0:0,0:0:0:0:
280,68,100230,2,0,L|335:63,1,55,2|0,0:0|0:0,0:0:0:0:
428,52,100435,54,0,B|466:81|435:132|435:132|462:143|462:143|427:198|472:238,1,220,2|8,1:2|1:2,0:0:0:0:
512,352,101052,1,2,0:0:0:0:
512,352,101155,1,0,0:0:0:0:
512,352,101257,1,0,1:0:0:0:
368,260,101463,1,10,0:0:0:0:
368,260,101668,2,0,L|258:269,1,110,10|2,1:2|0:0,0:0:0:0:
87,295,102079,6,0,P|78:256|93:218,3,82.5000031471254,2|0|0|0,0:0|1:0|1:0|1:0,0:0:0:0:
180,216,102901,2,0,P|188:184|180:161,3,55,0|0|0|0,1:0|1:0|1:0|1:0,0:0:0:0:
104,100,103723,2,0,L|136:97,3,32.99999899292,0|0|0|0,1:0|1:0|1:0|1:0,0:0:0:0:
204,32,104545,6,0,B|247:28|247:28|267:22|267:22|287:20,1,82.5,4|0,0:0|0:0,0:0:0:0:
312,36,104956,2,0,B|363:40|363:40|371:45|371:45|431:50|431:50|435:46|435:46|476:50,1,165,4|0,0:0|0:0,0:0:0:0:
492,76,105367,6,0,P|448:184|376:120,1,247.500009441376,6|0,1:2|0:0,0:0:0:0:
370,95,105778,2,0,P|408:198|508:152,1,247.500009441376,10|0,1:2|0:0,0:0:0:0:
512,272,106189,6,0,P|523:314|510:355,1,82.5000031471254,2|0,1:2|0:0,0:0:0:0:
340,340,106394,2,0,P|329:300|340:261,1,82.5000031471254,2|0,1:3|0:0,0:0:0:0:
496,272,106600,2,0,P|507:312|497:351,1,82.5000031471254,10|0,1:2|0:0,0:0:0:0:
324,340,106805,2,0,P|312:301|324:262,1,82.5000031471254,2|0,1:3|0:0,0:0:0:0:
437,128,107011,5,2,1:2:0:0:
209,192,107216,1,2,0:3:0:0:
432,108,107422,1,10,1:2:0:0:
204,172,107627,1,2,0:3:0:0:
300,0,107833,54,0,L|307:82,1,82.5000031471254,2|0,1:2|0:0,0:0:0:0:
356,168,108038,1,2,0:3:0:0:
128,24,108244,2,0,L|135:106,1,82.5000031471254,10|0,1:2|0:0,0:0:0:0:
204,172,108449,1,2,0:3:0:0:
20,212,108655,5,2,1:2:0:0:
176,348,108860,2,0,P|188:309|173:271,1,82.5000031471254,2|0,0:3|0:0,0:0:0:0:
84,288,109066,1,10,1:2:0:0:
292,164,109271,2,0,P|251:156|213:169,1,82.5000031471254,2|0,0:3|0:0,0:0:0:0:
268,256,109477,5,2,1:2:0:0:
268,256,109579,1,0,0:0:0:0:
268,256,109682,1,2,0:3:0:0:
428,120,109888,1,10,1:2:0:0:
268,72,110093,1,2,0:3:0:0:
268,72,110196,1,0,0:0:0:0:
268,72,110298,53,2,1:2:0:0:
102,219,110504,2,0,L|19:211,1,82.5000031471254,2|0,0:3|0:0,0:0:0:0:
64,132,110709,1,10,1:2:0:0:
212,288,110915,2,0,L|219:370,1,82.5000031471254,2|0,0:3|0:0,0:0:0:0:
304,348,111120,6,0,B|372:342|372:342|372:334|372:334|372:342|372:342|437:300|437:300|438:308|438:308|441:299|441:299|510:293,1,247.500009441376,2|0,1:2|0:0,0:0:0:0:
512,312,111531,2,0,B|443:318|443:318|440:326|440:326|439:318|439:318|375:360|375:360|374:352|374:352|375:360|375:360|307:366,1,247.500009441376,10|0,1:2|0:0,0:0:0:0:
328,264,111942,6,0,P|314:149|421:108,1,247.500009441376,2|0,1:2|0:0,0:0:0:0:
300,188,112353,2,0,P|208:116|255:11,1,247.500009441376,10|0,1:2|0:0,0:0:0:0:
304,92,112764,1,2,1:2:0:0:
120,44,112970,1,2,0:3:0:0:
320,96,113175,1,10,1:2:0:0:
100,40,113381,2,0,L|93:122,1,82.5000031471254,2|0,0:3|0:0,0:0:0:0:
44,200,113586,54,0,P|84:200|118:222,1,82.5000031471254,2|0,1:2|0:0,0:0:0:0:
232,264,113792,2,0,P|211:298|174:317,1,82.5000031471254,2|0,0:3|0:0,0:0:0:0:
80,384,113997,2,0,P|60:348|62:307,1,82.5000031471254,10|0,1:2|0:0,0:0:0:0:
56,188,114203,2,0,P|96:188|130:210,1,82.5000031471254,2|0,0:3|0:0,0:0:0:0:
220,328,114408,6,0,L|302:320,1,82.5000031471254,2|0,1:2|0:0,0:0:0:0:
388,216,114614,2,0,L|306:224,1,82.5000031471254,2|0,1:3|0:0,0:0:0:0:
436,384,114819,1,10,1:2:0:0:
436,383,115025,2,0,P|438:342|418:307,1,82.5000031471254,2|0,0:3|0:0,0:0:0:0:
388,216,115230,5,2,1:2:0:0:
512,64,115435,1,2,0:3:0:0:
512,64,115538,1,0,0:0:0:0:
512,64,115641,2,0,L|504:147,1,82.5000031471254,10|0,1:2|0:0,0:0:0:0:
344,88,115846,2,0,P|305:72|285:37,1,82.5000031471254,2|0,1:3|0:0,0:0:0:0:
192,120,116052,54,0,L|200:203,1,82.5000031471254,2|0,1:2|0:0,0:0:0:0:
208,288,116257,1,2,0:3:0:0:
56,108,116463,2,0,L|64:191,1,82.5000031471254,10|0,1:2|0:0,0:0:0:0:
72,272,116668,1,2,0:3:0:0:
336,239,116874,6,0,P|400:238|452:277,2,131.99999597168,2|2|0,1:2|0:3|0:0,0:0:0:0:
187,311,117490,6,0,P|121:311|70:271,2,131.99999597168,2|0|2,1:3|0:0|0:3,0:0:0:0:
200,152,118107,1,10,1:2:0:0:
324,108,118312,1,2,0:3:0:0:
468,120,118518,54,0,B|490:175|445:217|445:217|398:254|421:310,1,197.99999395752,6|0,1:2|0:0,0:0:0:0:
420,308,118929,2,0,B|377:326|340:278|340:278|298:234|242:256,1,197.99999395752,10|0,1:2|0:0,0:0:0:0:
235,260,119340,6,0,P|224:290|232:321,1,65.9999979858399,2|0,1:2|0:0,0:0:0:0:
328,180,119545,2,0,P|339:149|331:118,1,65.9999979858399,2|0,1:3|0:0,0:0:0:0:
228,144,119751,1,10,1:2:0:0:
412,228,119956,1,2,0:3:0:0:
235,260,120161,5,2,1:2:0:0:
72,184,120367,2,0,L|66:119,1,65.9999979858399,2|0,0:3|0:0,0:0:0:0:
116,56,120572,1,10,1:2:0:0:
324,52,120778,2,0,L|330:117,1,65.9999979858399,2|0,0:3|0:0,0:0:0:0:
352,200,120983,2,0,B|288:194|288:194|230:161|230:161|163:155,1,197.99999395752,2|0,1:2|0:0,0:0:0:0:
164,168,121394,2,0,P|204:252|134:312,1,197.99999395752,10|0,1:2|0:0,0:0:0:0:
128,328,121805,54,0,P|181:292|244:307,1,131.99999597168,2|2,1:2|0:3,0:0:0:0:
300,336,122114,1,0,0:0:0:0:
352,296,122216,2,0,L|340:164,1,131.99999597168,10|2,1:2|0:3,0:0:0:0:
336,136,122525,1,0,0:0:0:0:
360,116,122627,2,0,P|418:88|482:99,1,131.99999597168,2|2,1:2|0:3,0:0:0:0:
328,0,123038,2,0,P|270:27|206:16,1,131.99999597168,2|2,1:2|0:3,0:0:0:0:
84,76,123449,5,2,1:2:0:0:
192,136,123655,1,2,0:3:0:0:
192,136,123757,1,0,0:0:0:0:
192,136,123860,1,2,1:2:0:0:
92,192,124066,1,2,0:3:0:0:
192,252,124271,6,0,L|197:317,1,65.9999979858399,2|0,1:2|0:0,0:0:0:0:
96,312,124477,2,0,L|101:377,1,65.9999979858399,2|0,1:3|0:0,0:0:0:0:
176,256,124682,2,0,L|181:321,1,65.9999979858399,2|0,1:2|0:0,0:0:0:0:
80,316,124888,2,0,L|85:381,1,65.9999979858399,2|0,1:3|0:0,0:0:0:0:
280,348,125093,54,0,B|338:337|338:337|393:383|393:383|458:369,1,197.99999395752,2|0,1:2|0:0,0:0:0:0:
472,280,125504,2,0,B|414:290|414:290|359:244|359:244|294:258,1,197.99999395752,2|0,1:2|0:0,0:0:0:0:
256,192,125915,12,2,131668,0:0:0:0:
75,80,144819,70,0,P|99:65|126:64,2,55,2|2|8,0:0|0:3|0:2,0:0:0:0:
24,148,145435,1,2,0:3:0:0:
96,108,145846,2,0,P|119:93|146:92,2,55,2|8|2,0:3|0:0|0:3,0:0:0:0:
192,240,146668,54,0,P|206:263|207:290,2,55,2|10|2,0:3|0:0|0:3,0:0:0:0:
152,164,147285,2,0,L|206:159,1,55,2|2,0:0|0:3,0:0:0:0:
280,216,147696,2,0,L|334:220,1,55,10|2,0:0|0:3,0:0:0:0:
416,76,148107,6,0,L|411:21,2,55,2|2|8,0:0|0:3|0:0,0:0:0:0:
504,128,148723,1,2,0:3:0:0:
400,88,149134,2,0,L|395:33,2,55,2|8|2,0:3|0:0|0:3,0:0:0:0:
320,236,149956,6,0,L|265:231,2,55,2|8|2,0:3|0:0|0:3,0:0:0:0:
396,280,150572,2,0,P|410:303|411:330,1,55,0|2,0:0|0:3,0:0:0:0:
320,328,150983,2,0,P|292:328|269:343,1,55,10|2,0:0|0:0,0:0:0:0:
164,292,151394,53,0,1:0:0:0:
164,292,151497,1,0,0:0:0:0:
164,292,151600,2,0,L|122:288,1,41.2500015735627,2|0,0:3|0:0,0:0:0:0:
0,184,151805,2,0,P|38:171|78:181,1,82.5000031471254,0|2,1:0|0:3,0:0:0:0:
156,208,152216,1,0,1:0:0:0:
40,256,152422,1,2,0:3:0:0:
152,124,152627,1,0,1:0:0:0:
162,84,152730,1,0,0:0:0:0:
148,46,152833,1,2,0:3:0:0:
114,23,152935,1,0,0:0:0:0:
72,16,153038,5,0,1:0:0:0:
248,48,153244,1,2,0:3:0:0:
72,104,153449,1,0,1:0:0:0:
40,128,153552,1,0,0:0:0:0:
41,170,153655,2,0,L|82:171,1,41.2500015735627,2|0,0:3|0:0,0:0:0:0:
172,204,153860,6,0,B|116:208|116:208|70:236|70:236|15:241,1,165.000006294251,2|0,1:2|1:0,0:0:0:0:
15,241,154477,1,2,0:3:0:0:
112,356,154682,53,2,1:2:0:0:
156,288,154888,1,2,1:3:0:0:
228,376,155093,1,0,1:0:0:0:
280,220,155298,1,2,1:3:0:0:
432,384,155504,2,0,L|473:380,3,41.2500015735627,0|0|2|0,1:0|1:0|1:3|1:0,0:0:0:0:
509,259,155915,2,0,L|468:256,3,41.2500015735627,0|0|2|0,1:0|1:0|1:3|1:0,0:0:0:0:
256,192,156326,12,2,157970,0:0:0:0:
259,192,159203,5,8,0:0:0:0:
316,137,159614,22,0,P|204:137|203:253,1,247.500009441376,6|0,1:2|0:0,0:0:0:0:
199,249,160025,2,0,P|311:249|312:133,1,247.500009441376,10|0,1:2|0:0,0:0:0:0:
220,96,160435,6,0,L|137:88,1,82.5000031471254,2|0,1:2|0:0,0:0:0:0:
56,76,160641,1,2,0:3:0:0:
259,192,160846,2,0,L|177:185,1,82.5000031471254,10|0,1:2|0:0,0:0:0:0:
95,176,161052,1,2,0:3:0:0:
367,270,161257,5,2,1:2:0:0:
367,270,161463,2,0,P|332:290|292:288,1,82.5000031471254,2|0,0:3|0:0,0:0:0:0:
206,134,161668,2,0,P|241:155|259:192,1,82.5000031471254,10|0,1:2|0:0,0:0:0:0:
168,348,161874,2,0,P|168:307|191:273,1,82.5000031471254,2|0,0:3|0:0,0:0:0:0:
392,136,162079,53,2,1:2:0:0:
472,268,162285,1,2,1:3:0:0:
404,128,162490,1,10,1:2:0:0:
484,260,162696,1,2,1:3:0:0:
444,44,162901,5,2,1:2:0:0:
444,44,163004,1,0,0:0:0:0:
444,44,163107,2,0,L|361:36,1,82.5000031471254,2|0,0:3|0:0,0:0:0:0:
240,88,163312,2,0,P|269:116|309:125,1,82.5000031471254,10|0,1:2|0:0,0:0:0:0:
152,0,163518,2,0,P|117:20|98:57,1,82.5000031471254,2|0,0:3|0:0,0:0:0:0:
44,204,163723,5,2,1:2:0:0:
44,204,163929,2,0,L|52:287,1,82.5000031471254,2|0,0:3|0:0,0:0:0:0:
236,232,164134,2,0,L|243:314,1,82.5000031471254,10|0,1:2|0:0,0:0:0:0:
136,136,164340,2,0,L|144:219,1,82.5000031471254,2|0,0:3|0:0,0:0:0:0:
152,320,164545,53,2,1:2:0:0:
228,148,164751,2,0,L|224:107,2,41.2500015735627,2|0|10,0:3|0:0|1:2,0:0:0:0:
352,276,165162,1,2,0:3:0:0:
352,276,165264,1,0,0:0:0:0:
351,277,165367,6,0,P|390:264|428:279,1,82.5000031471254,2|0,1:2|0:0,0:0:0:0:
243,314,165572,2,0,L|235:231,1,82.5000031471254,2|0,0:3|0:0,0:0:0:0:
228,148,165778,1,10,1:2:0:0:
236,100,165881,1,0,0:0:0:0:
280,76,165983,1,2,0:3:0:0:
280,76,166189,6,0,B|332:92|372:52|372:52|448:40|512:80,1,247.500009441376,2|0,1:2|0:0,0:0:0:0:
488,164,166600,1,10,1:2:0:0:
484,204,166703,1,0,0:0:0:0:
484,248,166805,1,2,0:3:0:0:
484,248,167011,54,0,B|421:254|421:254|400:292|400:292|342:297,2,165.000006294251,2|2|10,1:2|0:3|1:2,0:0:0:0:
500,336,167525,1,0,0:0:0:0:
424,372,167627,2,0,L|341:379,1,82.5000031471254,2|0,0:3|0:0,0:0:0:0:
252,344,167833,5,2,1:2:0:0:
252,344,167935,1,0,0:0:0:0:
252,344,168038,2,0,L|169:337,1,82.5000031471254,2|0,0:3|0:0,0:0:0:0:
132,244,168244,2,0,L|214:251,1,82.5000031471254,10|0,1:2|0:0,0:0:0:0:
268,128,168449,2,0,P|294:160|293:201,1,82.5000031471254,2|0,0:3|0:0,0:0:0:0:
164,136,168655,6,0,P|163:95|189:64,1,82.5000031471254,2|0,1:2|0:0,0:0:0:0:
364,48,168860,2,0,L|281:40,1,82.5000031471254,2|0,0:3|0:0,0:0:0:0:
500,0,169066,2,0,L|492:82,1,82.5000031471254,10|0,1:2|0:0,0:0:0:0:
416,200,169271,2,0,P|444:171|484:167,1,82.5000031471254,2|0,0:3|0:0,0:0:0:0:
512,300,169477,53,2,1:2:0:0:
512,300,169682,2,0,L|429:307,1,82.5000031471254,2|0,0:3|0:0,0:0:0:0:
281,325,169888,2,0,B|328:318|357:354|357:354|387:390|428:384,1,165.000006294251,10|2,1:2|0:3,0:0:0:0:
200,272,170298,2,0,L|192:355,1,82.5000031471254,2|0,1:2|0:0,0:0:0:0:
120,384,170504,1,2,0:3:0:0:
8,128,170709,2,0,L|0:210,1,82.5000031471254,10|0,1:2|0:0,0:0:0:0:
60,256,170915,1,2,0:3:0:0:
224,96,171120,6,0,P|200:63|160:52,1,82.5000031471254,2|0,1:2|0:0,0:0:0:0:
376,100,171326,2,0,P|359:137|370:176,1,82.5000031471254,2|0,1:3|0:0,0:0:0:0:
160,52,171531,2,0,P|200:47|228:18,1,82.5000031471254,10|0,1:2|0:0,0:0:0:0:
370,176,171737,2,0,P|346:143|306:132,1,82.5000031471254,2|0,1:3|0:0,0:0:0:0:
208,288,171942,5,0,1:2:0:0:
208,288,172148,2,0,L|290:296,1,82.5000031471254,2|0,0:3|0:0,0:0:0:0:
456,308,172353,1,8,0:0:0:0:
456,300,172456,1,8,0:0:0:0:
456,292,172559,1,10,0:0:0:0:
456,284,172662,1,8,0:0:0:0:
456,276,172764,54,0,B|384:269|384:269|325:208|325:208|229:199,1,247.500009441376,6|0,1:2|0:0,0:0:0:0:
239,179,173175,2,0,B|329:188|329:188|388:249|388:249|460:256,1,247.500009441376,10|0,1:2|0:0,0:0:0:0:
444,148,173586,6,0,L|452:66,1,82.5000031471254,2|0,1:2|0:0,0:0:0:0:
284,264,173792,2,0,L|277:347,1,82.5000031471254,2|0,1:3|0:0,0:0:0:0:
424,144,173997,2,0,L|432:62,1,82.5000031471254,10|0,1:2|0:0,0:0:0:0:
264,260,174203,2,0,L|257:343,1,82.5000031471254,2|0,1:3|0:0,0:0:0:0:
156,284,174408,6,0,P|119:265|78:265,1,82.5000031471254,2|0,1:2|0:0,0:0:0:0:
8,312,174614,1,2,0:3:0:0:
192,184,174819,2,0,P|151:184|114:165,1,82.5000031471254,10|0,1:2|0:0,0:0:0:0:
64,100,175025,1,2,0:3:0:0:
296,24,175230,54,0,B|362:29|362:29|388:52|388:52|452:57,2,165.000006294251,2|2|10,1:2|1:3|1:2,0:0:0:0:
512,128,175846,2,0,P|521:167|508:206,1,82.5000031471254,2|0,0:3|0:0,0:0:0:0:
408,264,176052,5,2,1:2:0:0:
401,182,176257,2,0,L|408:264,1,82.5000031471254,2|0,0:3|0:0,0:0:0:0:
308,300,176463,1,10,1:2:0:0:
315,382,176668,2,0,L|307:299,1,82.5000031471254,2|0,0:3|0:0,0:0:0:0:
224,216,176874,6,0,L|142:209,1,82.5000031471254,2|0,1:2|0:0,0:0:0:0:
80,152,177079,1,2,0:3:0:0:
136,308,177285,2,0,L|218:316,1,82.5000031471254,10|0,1:2|0:0,0:0:0:0:
307,299,177490,1,2,0:3:0:0:
152,127,177696,53,2,1:2:0:0:
152,127,177901,2,0,P|111:126|79:151,1,82.5000031471254,2|0,0:3|0:0,0:0:0:0:
184,284,178107,2,0,P|179:243|150:215,1,82.5000031471254,10|0,1:2|0:0,0:0:0:0:
24,328,178312,2,0,P|64:323|92:294,1,82.5000031471254,2|0,0:3|0:0,0:0:0:0:
244,160,178518,5,2,1:2:0:0:
280,168,178620,1,0,0:0:0:0:
304,192,178723,1,2,0:3:0:0:
316,224,178826,1,0,0:0:0:0:
316,256,178929,2,0,L|399:249,1,82.5000031471254,10|0,1:2|0:0,0:0:0:0:
480,208,179134,1,2,0:3:0:0:
480,208,179340,6,0,P|482:95|370:87,1,247.500009441376,2|0,1:2|0:0,0:0:0:0:
340,100,179751,2,0,P|445:55|516:152,1,247.500009441376,10|0,1:2|0:0,0:0:0:0:
396,232,180162,2,0,B|340:236|340:236|340:240|340:240|340:236|340:236|280:242|280:242|233:165|233:165|177:170|177:170|177:166|177:166|177:170|177:170|117:176,1,330.000012588501,2|10,1:2|1:2,0:0:0:0:
340,100,180778,1,2,0:3:0:0:
192,260,180983,53,2,1:2:0:0:
192,260,181086,1,0,0:0:0:0:
192,260,181189,2,0,L|200:343,1,82.5000031471254,2|0,1:3|0:0,0:0:0:0:
120,384,181394,6,0,P|91:356|51:355,1,82.5,10|0,1:2|0:0,0:0:0:0:
0,268,181805,5,2,1:2:0:0:
0,268,181908,1,0,0:0:0:0:
0,268,182011,2,0,L|8:186,1,82.5000031471254,2|0,1:3|0:0,0:0:0:0:
80,104,182216,54,0,P|110:131|150:132,1,82.5,10|0,1:2|0:0,0:0:0:0:
224,64,182627,6,0,B|280:69|280:69|326:49|326:49|385:54,1,165.000006294251,2|2,1:2|0:3,0:0:0:0:
512,176,183038,1,10,1:2:0:0:
336,156,183244,1,2,0:3:0:0:
500,76,183449,2,0,P|512:37|497:0,1,82.5000031471254,2|0,1:2|0:0,0:0:0:0:
344,172,183655,2,0,P|331:210|346:247,1,82.5000031471254,2|0,0:3|0:0,0:0:0:0:
400,312,183860,1,10,1:2:0:0:
200,248,184066,1,2,0:3:0:0:
200,248,184271,5,2,1:2:0:0:
344,172,184477,1,2,0:3:0:0:
408,328,184682,1,0,0:0:0:0:
204,268,184888,53,2,1:3:0:0:
352,188,185093,1,8,0:0:0:0:
356,196,185196,1,8,0:0:0:0:
360,204,185298,1,8,0:0:0:0:
416,344,185504,1,8,0:0:0:0:
424,344,185607,1,8,0:0:0:0:
432,344,185709,1,8,0:0:0:0:
440,344,185812,1,8,0:0:0:0:
448,344,185915,6,0,B|480:372|504:316|456:244|392:396|344:372|220:288,1,247.500009441376,6|0,1:2|0:0,0:0:0:0:
264,316,186326,53,10,1:2:0:0:
364,212,186531,1,2,0:3:0:0:
172,196,186737,1,2,1:2:0:0:
172,196,186942,2,0,P|131:160|78:166,2,110,2|10|2,0:3|1:2|0:3,0:0:0:0:
32,80,187559,54,0,B|95:74|95:74|129:51|129:51|189:46,1,165,2|0,1:2|0:0,0:0:0:0:
208,64,187970,2,0,L|317:73,1,110,10|2,1:2|0:3,0:0:0:0:
512,96,188381,1,2,1:2:0:0:
392,160,188586,1,2,0:3:0:0:
408,32,188792,1,10,1:2:0:0:
512,116,188997,1,2,0:3:0:0:
392,180,189203,6,0,L|282:170,1,110,2|2,1:2|0:3,0:0:0:0:
56,244,189614,2,0,P|109:242|147:280,1,110,10|2,1:2|0:3,0:0:0:0:
392,196,190025,2,0,L|282:186,1,110,2|2,1:2|0:3,0:0:0:0:
56,260,190435,1,10,1:2:0:0:
168,56,190641,1,2,0:3:0:0:
168,56,190744,1,0,0:0:0:0:
168,56,190846,6,0,L|177:165,1,110,2|2,1:2|0:3,0:0:0:0:
215,379,191257,2,0,P|227:326|274:300,1,110,10|2,1:2|0:3,0:0:0:0:
424,348,191668,6,0,B|385:354|350:320|350:320|316:286|273:302,1,165,2|0,1:2|0:0,0:0:0:0:
274,321,192079,2,0,B|316:306|350:340|350:340|385:374|424:368,1,165,8|0,0:2|0:0,0:0:0:0:
500,340,192490,2,0,P|488:268|412:284,1,165,2|0,1:2|0:0,0:0:0:0:
404,260,192901,54,0,L|394:150,1,110,10|2,1:2|0:3,0:0:0:0:
480,32,193312,1,2,1:2:0:0:
480,32,193518,2,0,P|427:25|389:62,2,110,2|10|2,0:3|1:2|0:3,0:0:0:0:
316,112,194134,6,0,B|268:128|236:96|236:96|192:88|151:112,1,165,2|0,1:2|0:0,0:0:0:0:
140,119,194545,2,0,P|119:169|137:220,1,110,10|2,1:2|0:3,0:0:0:0:
176,292,194956,1,2,1:2:0:0:
0,372,195162,1,2,0:3:0:0:
0,372,195367,2,0,L|109:381,1,110,10|2,1:2|0:3,0:0:0:0:
264,300,195778,53,2,1:2:0:0:
300,376,195983,1,2,0:3:0:0:
392,224,196189,1,10,1:2:0:0:
356,300,196394,1,2,0:3:0:0:
224,152,196600,5,2,1:2:0:0:
307,158,196805,1,2,0:3:0:0:
460,80,197011,1,10,1:2:0:0:
377,86,197216,1,2,0:3:0:0:
208,32,197422,6,0,P|154:34|117:74,2,110,2|2|10,0:0|0:3|0:2,0:0:0:0:
200,132,198038,1,2,0:3:0:0:
307,158,198244,54,0,P|360:160|397:200,2,110,2|2|10,0:0|0:3|0:0,0:0:0:0:
316,260,198860,1,2,0:3:0:0:
48,336,199066,5,6,1:2:0:0:
