osu file format v14

[General]
AudioFilename: audio.mp3
AudioLeadIn: 0
PreviewTime: 52758
Countdown: 0
SampleSet: Soft
StackLeniency: 0.8
Mode: 0
LetterboxInBreaks: 0
WidescreenStoryboard: 1

[Editor]
Bookmarks: 105367,159608
DistanceSpacing: 1
BeatDivisor: 4
GridSize: 4
TimelineZoom: 2

[Metadata]
Title:Someone Special
TitleUnicode:Someone Special
Artist:tomatoism
ArtistUnicode:tomatoism
Creator:Jiysea
Version:A d v a n c e d
Source:
Tags:future funk simple tech dochakuso records female vocal chops japanese electronic DCKS-0049 OTAKIBA tokyo girls' style reflection lecandy
BeatmapID:2662923
BeatmapSetID:1282080

[Difficulty]
HPDrainRate:4
CircleSize:3.2
OverallDifficulty:5
ApproachRate:5.5
SliderMultiplier:1.2
SliderTickRate:1

[Events]
//Background and Video events
0,0,"shinobu.jpg",0,0
//Break Periods
2,85635,87804
2,131868,143694
//Storyboard Layer 0 (Background)
//Storyboard Layer 1 (Fail)
//Storyboard Layer 2 (Pass)
//Storyboard Layer 3 (Foreground)
//Storyboard Layer 4 (Overlay)
//Storyboard Sound Samples

[TimingPoints]
162,410.958904109589,4,2,1,5,1,0
6737,-100,4,2,1,15,0,0
10025,-100,4,2,1,30,0,0
11668,-100,4,2,1,5,0,0
13312,-100,4,2,1,70,0,0
13723,-100,4,2,3,70,0,0
15983,-100,4,2,15,50,0,0
16189,-100,4,2,3,70,0,0
16394,-100,4,2,15,50,0,0
16600,-100,4,2,3,70,0,0
22559,-100,4,2,15,50,0,0
22764,-100,4,2,3,70,0,0
22970,-100,4,2,15,50,0,0
23175,-100,4,2,3,70,0,0
26052,-100,4,2,2,70,0,0
26463,-100,4,2,3,50,0,0
39203,-100,4,2,2,55,0,0
39614,-100,4,2,3,70,0,0
49477,-100,4,2,30,50,0,0
51942,-100,4,2,30,50,0,0
52764,-83.3333333333333,4,2,1,85,0,1
78244,-83.3333333333333,4,2,2,85,0,1
79066,-100,4,2,1,60,0,0
79477,-100,4,2,3,60,0,0
82353,-100,4,2,3,50,0,0
83175,-100,4,2,3,40,0,0
83997,-100,4,2,3,30,0,0
90572,-100,4,2,3,5,0,0
91394,-100,4,2,2,40,0,0
92216,-100,4,2,3,70,0,0
102079,-100,4,2,30,50,0,0
102285,-100,4,2,3,50,0,0
104545,-100,4,2,30,30,0,0
104956,-100,4,2,30,60,0,0
105367,-83.3333333333333,4,2,1,85,0,1
118518,-83.3333333333333,4,2,1,70,0,0
121805,-83.3333333333333,4,2,1,50,0,0
123449,-100,4,2,1,40,0,0
125093,-100,4,2,1,30,0,0
126737,-100,4,2,1,20,0,0
131668,-100,4,2,25,11,0,0
144819,-100,4,2,3,40,0,0
146874,-100,4,2,4,40,0,0
147079,-100,4,2,3,40,0,0
147696,-100,4,2,4,40,0,0
149750,-100,4,2,4,40,0,0
150162,-100,4,2,4,40,0,0
150983,-100,4,2,4,40,0,0
151189,-100,4,2,4,50,0,0
151394,-100,4,2,3,60,0,0
154682,-100,4,2,3,70,0,0
157970,-100,4,2,3,70,0,0
159203,-100,4,2,20,70,0,0
159614,-83.3333333333333,4,2,1,85,0,1
172353,-83.3333333333333,4,2,2,85,0,1
172764,-83.3333333333333,4,2,1,85,0,1
185093,-83.3333333333333,4,2,2,85,0,1
185915,-100,4,2,1,70,0,0
186326,-100,4,2,1,70,0,0
188586,-100,4,2,15,70,0,0
188792,-100,4,2,1,70,0,0
188997,-100,4,2,15,70,0,0
189203,-100,4,2,1,70,0,0
195162,-100,4,2,15,70,0,0
195367,-100,4,2,1,70,0,0
195572,-100,4,2,15,70,0,0
195778,-100,4,2,1,70,0,0
197422,-100,4,2,1,40,0,0
199066,-100,4,2,1,20,0,0

[Colours]
Combo1 : 150,146,154
Combo2 : 58,177,163
Combo3 : 251,245,145
Combo4 : 187,156,245
Combo5 : 112,137,136
Combo6 : 171,169,158

[HitObjects]
256,192,6737,12,0,11668,0:0:0:0:
28,44,13312,6,0,B|53:36|80:60|80:60|103:83|138:76,1,120,4|8,1:2|1:2,0:0:0:0:
244,20,14134,38,0,P|259:45|260:75,1,60,0|2,1:2|0:3,0:0:0:0:
220,120,14545,2,0,P|204:145|203:175,1,60,8|2,1:2|0:3,0:0:0:0:
240,224,14956,1,0,1:2:0:0:
136,284,15367,1,8,1:2:0:0:
232,356,15778,2,0,L|291:350,1,60,0|2,1:0|0:3,0:0:0:0:
328,300,16189,2,0,L|387:305,1,60,8|2,1:2|0:3,0:0:0:0:
440,332,16600,5,0,1:0:0:0:
512,236,17011,2,0,P|511:206|495:180,1,60,8|0,1:2|0:3,0:0:0:0:
452,140,17422,2,0,P|452:110|468:84,1,60,0|2,1:2|0:3,0:0:0:0:
512,44,17833,1,8,1:2:0:0:
396,8,18244,6,0,L|336:13,1,60,0|2,1:2|0:3,0:0:0:0:
296,56,18655,2,0,L|236:50,1,60,8|2,1:2|0:3,0:0:0:0:
187,84,19066,6,0,P|172:138|215:175,1,120,0|8,1:2|1:2,0:0:0:0:
288,272,19888,38,0,L|228:266,1,60,0|2,1:2|0:3,0:0:0:0:
180,304,20298,2,0,L|120:309,1,60,8|2,1:2|0:3,0:0:0:0:
68,280,20709,2,0,L|8:274,2,60,0|2|8,1:0|0:3|1:2,0:0:0:0:
148,188,21531,5,0,1:0:0:0:
60,108,21942,1,8,1:2:0:0:
148,28,22353,2,0,L|207:33,1,60,0|2,1:2|0:3,0:0:0:0:
260,64,22764,2,0,L|319:58,1,60,8|2,1:2|0:3,0:0:0:0:
372,28,23175,5,0,1:2:0:0:
480,76,23586,1,8,1:2:0:0:
376,136,23997,1,0,1:0:0:0:
484,184,24408,1,8,1:2:0:0:
388,256,24819,54,0,L|328:250,1,60,0|2,1:0|0:3,0:0:0:0:
268,248,25230,2,0,P|252:273|251:303,1,60,8|2,1:2|0:3,0:0:0:0:
256,364,25641,2,0,L|196:358,1,60,0|2,1:0|0:3,0:0:0:0:
140,336,26052,2,0,L|142:306,2,30,8|8|8,0:0|0:0|0:0,0:0:0:0:
88,368,26463,6,0,L|102:248,1,120,2|0,1:2|1:0,0:0:0:0:
148,208,27079,1,2,0:0:0:0:
148,208,27285,2,0,L|133:88,1,120,2|0,1:2|1:0,0:0:0:0:
188,56,27901,1,2,0:0:0:0:
188,56,28107,6,0,P|217:55|243:39,1,60,2|2,1:2|0:0,0:0:0:0:
292,4,28518,2,0,L|351:9,1,60,2|2,1:2|0:0,0:0:0:0:
392,56,28929,2,0,L|451:51,1,60,2|2,1:2|0:0,0:0:0:0:
492,96,29340,1,2,1:2:0:0:
436,180,29751,54,0,P|423:237|447:291,1,120,2|0,1:2|1:0,0:0:0:0:
476,352,30367,1,2,0:0:0:0:
476,352,30572,2,0,P|422:327|364:340,1,120,2|0,1:2|1:0,0:0:0:0:
320,380,31189,1,2,0:0:0:0:
320,380,31394,6,0,L|261:375,1,60,2|2,1:2|0:0,0:0:0:0:
220,332,31805,2,0,L|161:337,1,60,0|2,1:0|0:0,0:0:0:0:
104,364,32216,1,2,1:2:0:0:
68,316,32422,1,2,0:0:0:0:
36,264,32627,1,2,1:2:0:0:
56,156,33038,6,0,B|90:152|113:171|113:171|141:191|171:187,1,120,2|8,1:2|1:2,0:0:0:0:
276,132,33860,2,0,B|241:135|218:116|218:116|190:96|160:100,1,120,2|8,1:2|1:2,0:0:0:0:
268,40,34682,1,2,1:2:0:0:
364,112,35093,2,0,P|370:140|362:169,1,60,8|0,1:2|0:0,0:0:0:0:
324,216,35504,2,0,P|318:244|326:273,1,60,0|2,1:0|0:0,0:0:0:0:
380,304,35915,1,10,1:2:0:0:
280,368,36326,53,0,1:0:0:0:
280,368,36531,2,0,L|216:362,1,60,2|8,0:0|1:2,0:0:0:0:
184,316,36942,2,0,L|120:321,1,60,2|0,0:0|1:2,0:0:0:0:
72,288,37353,2,0,L|77:224,1,60,2|8,0:0|1:2,0:0:0:0:
36,176,37764,1,2,0:0:0:0:
40,180,37970,5,0,1:2:0:0:
136,108,38381,1,8,1:2:0:0:
232,180,38792,1,0,1:0:0:0:
328,104,39203,2,0,L|325:74,2,30,10|8|8,0:0|0:0|0:0,0:0:0:0:
376,140,39614,6,0,L|435:134,1,60,2|2,1:2|0:0,0:0:0:0:
484,172,40025,2,0,P|490:200|482:229,1,60,8|2,1:2|0:0,0:0:0:0:
448,280,40435,2,0,L|388:285,1,60,2|2,1:2|0:3,0:0:0:0:
348,328,40846,1,8,1:2:0:0:
252,256,41257,53,0,1:0:0:0:
204,216,41463,2,0,P|178:202|148:203,1,60,2|8,0:0|1:2,0:0:0:0:
96,236,41874,1,2,0:0:0:0:
60,188,42079,2,0,L|54:128,1,60,2|2,1:2|0:3,0:0:0:0:
104,96,42490,2,0,L|109:36,1,60,10|2,1:2|0:0,0:0:0:0:
168,28,42901,6,0,B|215:23|215:23|241:37|241:37|284:33,1,120,2|10,1:2|1:2,0:0:0:0:
344,40,43518,1,2,0:0:0:0:
392,76,43723,2,0,P|406:102|405:132,1,60,2|2,1:2|0:3,0:0:0:0:
363,176,44134,2,0,P|352:233|378:286,1,120,8|0,1:2|1:0,0:0:0:0:
432,316,44751,6,0,L|491:310,2,60,2|8|2,0:3|1:2|0:3,0:0:0:0:
404,368,45367,1,0,1:2:0:0:
288,340,45778,1,8,1:2:0:0:
176,380,46189,54,0,P|119:366|99:312,1,120,2|8,1:2|1:2,0:0:0:0:
48,284,46805,2,0,L|53:224,1,60,2|0,0:0|1:0,0:0:0:0:
36,172,47216,1,2,0:0:0:0:
36,172,47422,1,10,1:2:0:0:
96,60,47833,6,0,P|145:30|198:53,1,120,2|8,1:2|1:2,0:0:0:0:
240,104,48449,1,2,0:0:0:0:
240,104,48655,2,0,L|300:99,1,60,0|2,1:0|0:3,0:0:0:0:
344,140,49066,2,0,L|404:145,1,60,10|2,1:2|0:0,0:0:0:0:
456,116,49477,1,2,0:0:0:0:
484,359,51942,6,0,P|490:302|451:258,1,120,4|4,0:0|0:0,0:0:0:0:
300,172,52764,6,0,B|336:167|336:167|371:178,1,71.9999978027344,6|2,1:2|0:3,0:0:0:0:
456,164,53175,2,0,B|466:129|466:129|461:93,1,71.9999978027344,10|2,1:2|0:3,0:0:0:0:
396,36,53586,2,0,L|399:0,2,35.9999989013672,2|0|2,1:2|0:0|0:3,0:0:0:0:
312,64,53997,2,0,L|316:28,2,35.9999989013672,10|0|2,1:2|0:0|0:3,0:0:0:0:
248,120,54408,5,2,1:2:0:0:
248,120,54614,2,0,L|176:113,1,71.9999978027344,2|10,0:3|1:2,0:0:0:0:
116,52,55025,2,0,L|44:58,1,71.9999978027344,2|2,0:3|1:2,0:0:0:0:
16,140,55435,2,0,P|7:174|19:208,1,71.9999978027344,2|10,1:3|1:2,0:0:0:0:
76,272,55846,1,2,1:3:0:0:
8,360,56052,6,0,L|80:366,1,71.9999978027344,2|2,1:2|1:3,0:0:0:0:
172,344,56463,2,0,P|161:311|170:277,1,71.9999978027344,10|2,1:2|0:3,0:0:0:0:
264,236,56874,2,0,P|273:270|262:303,1,71.9999978027344,2|2,1:2|0:3,0:0:0:0:
336,364,57285,2,0,P|369:375|403:366,1,71.9999978027344,10|2,1:2|0:3,0:0:0:0:
468,308,57696,53,2,1:2:0:0:
468,308,57901,2,0,L|504:312,2,35.9999989013672,2|0|10,0:3|0:0|1:2,0:0:0:0:
476,220,58312,2,0,L|512:224,2,35.9999989013672,2|0|2,0:3|0:0|1:2,0:0:0:0:
483,135,58723,1,2,0:3:0:0:
483,135,58929,2,0,P|481:99|461:70,1,71.9999978027344,10|2,1:2|0:3,0:0:0:0:
388,20,59340,6,0,B|333:24|333:24|306:43|306:43|251:48,1,143.999995605469,2|10,1:2|1:2,0:0:0:0:
200,120,59956,1,2,0:3:0:0:
200,120,60161,2,0,B|144:115|144:115|117:96|117:96|62:91,1,143.999995605469,2|10,1:2|1:2,0:0:0:0:
36,176,60778,1,2,0:3:0:0:
36,176,60983,6,0,L|0:173,2,35.9999989013672,2|0|2,1:2|0:0|0:3,0:0:0:0:
104,228,61394,2,0,P|112:262|100:295,1,71.9999978027344,10|2,1:2|0:3,0:0:0:0:
68,376,61805,2,0,L|139:369,1,71.9999978027344,2|2,1:2|0:3,0:0:0:0:
216,332,62216,1,10,1:2:0:0:
216,332,62422,2,0,L|287:338,1,71.9999978027344,2|2,0:3|1:2,0:0:0:0:
376,372,62833,54,0,P|408:382|442:373,1,71.9999978027344,2|10,0:3|1:2,0:0:0:0:
500,308,63244,1,2,0:3:0:0:
500,308,63449,2,0,L|494:237,1,71.9999978027344,2|2,1:2|0:3,0:0:0:0:
416,196,63860,2,0,L|423:125,1,71.9999978027344,10|2,1:2|0:3,0:0:0:0:
436,40,64271,6,0,P|470:31|503:42,2,71.9999978027344,2|2|10,1:2|1:3|1:2,0:0:0:0:
360,72,64888,1,2,1:3:0:0:
360,72,65093,2,0,P|325:82|292:71,1,71.9999978027344,2|2,1:2|0:3,0:0:0:0:
212,36,65504,2,0,P|177:25|143:36,1,71.9999978027344,10|2,1:2|0:3,0:0:0:0:
84,96,65915,70,0,B|71:130|71:130|82:164,1,71.9999978027344,6|2,1:2|0:3,0:0:0:0:
148,220,66326,2,0,B|161:254|161:254|149:288,1,71.9999978027344,10|2,1:2|0:3,0:0:0:0:
132,380,66737,1,2,1:2:0:0:
132,380,66942,1,2,0:3:0:0:
132,380,67148,2,0,L|203:373,1,71.9999978027344,10|2,1:2|0:3,0:0:0:0:
288,360,67559,6,0,L|323:363,2,35.9999989013672,2|0|2,1:2|0:0|0:3,0:0:0:0:
292,272,67970,2,0,L|328:276,2,35.9999989013672,10|0|2,1:2|0:0|0:3,0:0:0:0:
308,192,68381,1,2,1:2:0:0:
308,192,68586,1,2,1:3:0:0:
308,192,68792,2,0,L|315:121,1,71.9999978027344,10|2,1:2|0:3,0:0:0:0:
376,56,69203,6,0,P|410:46|443:57,1,71.9999978027344,2|2,1:2|0:3,0:0:0:0:
488,132,69614,2,0,P|507:162|504:197,1,71.9999978027344,10|2,1:2|0:3,0:0:0:0:
476,280,70025,2,0,L|511:284,2,35.9999989013672,2|0|2,1:2|0:0|0:3,0:0:0:0:
428,352,70435,2,0,L|356:345,1,71.9999978027344,10|2,1:2|0:3,0:0:0:0:
276,368,70846,53,2,1:2:0:0:
276,368,71052,2,0,L|205:361,1,71.9999978027344,2|10,0:3|1:2,0:0:0:0:
172,288,71463,1,2,0:3:0:0:
172,288,71668,2,0,L|175:253,2,35.9999989013672,2|0|2,1:2|0:0|0:3,0:0:0:0:
100,340,72079,2,0,P|66:348|33:337,1,71.9999978027344,10|2,1:2|0:3,0:0:0:0:
4,256,72490,6,0,B|-5:223|24:194|24:194|52:164|42:124,1,143.999995605469,2|10,1:2|1:2,0:0:0:0:
40,40,73107,1,2,0:3:0:0:
40,40,73312,2,0,B|74:31|103:60|103:60|133:88|173:78,1,143.999995605469,2|10,1:2|1:2,0:0:0:0:
256,116,73929,1,2,0:3:0:0:
256,116,74134,6,0,L|253:152,2,35.9999989013672,2|0|2,1:2|0:0|1:3,0:0:0:0:
312,48,74545,2,0,P|346:41|381:48,1,71.9999978027344,10|2,1:2|0:3,0:0:0:0:
448,104,74956,2,0,L|484:107,2,35.9999989013672,2|0|2,1:2|0:0|1:3,0:0:0:0:
392,168,75367,1,10,1:2:0:0:
392,168,75572,2,0,P|384:202|391:237,1,71.9999978027344,2|2,0:3|1:2,0:0:0:0:
420,324,75983,70,0,L|348:317,1,71.9999978027344,2|10,0:3|1:2,0:0:0:0:
296,256,76394,1,2,0:3:0:0:
296,256,76600,2,0,L|224:262,1,71.9999978027344,2|2,1:2|0:3,0:0:0:0:
168,328,77011,2,0,L|96:321,1,71.9999978027344,10|2,1:2|0:3,0:0:0:0:
44,252,77422,6,0,P|2:194|8:124,2,143.999995605469,2|8|8,1:2|0:0|0:0,0:0:0:0:
148,152,78655,2,0,L|184:149,2,35.9999989013672,8|8|8,0:0|0:0|0:0,0:0:0:0:
124,96,79066,6,0,P|161:50|218:32,1,120,4|8,1:2|1:2,0:0:0:0:
276,64,79682,1,2,0:0:0:0:
276,64,79888,2,0,L|397:79,1,120,2|8,1:2|1:2,0:0:0:0:
448,120,80504,1,2,0:0:0:0:
448,120,80709,6,0,L|443:179,1,60,2|2,1:2|0:0,0:0:0:0:
400,224,81120,2,0,L|341:229,1,60,10|2,1:2|0:3,0:0:0:0:
296,272,81531,2,0,L|237:267,1,60,2|2,1:2|0:3,0:0:0:0:
188,228,81942,1,10,1:2:0:0:
204,112,82353,6,0,P|147:99|93:123,1,120,2|8,1:2|1:2,0:0:0:0:
60,176,82970,1,2,0:0:0:0:
60,176,83175,2,0,P|48:234|73:288,1,120,2|8,1:2|1:2,0:0:0:0:
120,336,83792,1,2,0:0:0:0:
120,336,83997,54,0,L|179:331,1,60,2|2,1:2|0:0,0:0:0:0:
232,304,84408,2,0,L|291:309,1,60,10|2,1:2|0:3,0:0:0:0:
344,336,84819,2,0,L|403:331,1,60,2|2,1:2|0:3,0:0:0:0:
456,296,85230,1,10,1:2:0:0:
456,296,85435,1,2,0:3:0:0:
256,192,88929,12,0,90572,0:0:0:0:
264,124,91394,6,0,L|267:94,2,30,10|8|8,0:0|0:0|0:0,0:0:0:0:
204,108,91805,2,0,L|207:78,2,30,10|8|8,0:0|0:0|0:0,0:0:0:0:
148,136,92216,70,0,L|89:130,1,60,2|2,1:2|0:3,0:0:0:0:
40,168,92627,2,0,L|45:227,1,60,8|2,1:2|0:0,0:0:0:0:
84,272,93038,2,0,L|144:277,1,60,2|2,1:2|0:3,0:0:0:0:
188,320,93449,1,8,1:2:0:0:
276,240,93860,21,0,1:0:0:0:
276,240,94066,2,0,P|302:226|332:227,1,60,2|10,0:0|1:2,0:0:0:0:
384,252,94477,2,0,P|410:266|440:265,1,60,2|2,0:0|1:2,0:0:0:0:
484,224,94888,1,10,0:0:0:0:
484,224,95093,1,10,1:2:0:0:
444,116,95504,54,0,B|397:111|397:111|371:125|371:125|328:121,1,120,2|8,1:2|1:2,0:0:0:0:
276,152,96120,1,2,0:0:0:0:
228,116,96326,2,0,L|168:110,1,60,2|2,1:2|0:3,0:0:0:0:
120,148,96737,2,0,P|134:174|133:204,1,60,8|2,1:2|0:3,0:0:0:0:
116,260,97148,5,0,1:0:0:0:
92,316,97353,2,0,L|151:310,1,60,2|8,0:3|1:2,0:0:0:0:
200,348,97764,2,0,L|259:354,1,60,2|0,0:3|1:2,0:0:0:0:
312,324,98175,1,2,0:3:0:0:
312,324,98381,1,10,1:2:0:0:
428,324,98792,6,0,P|458:273|434:221,1,120,2|8,1:2|1:2,0:0:0:0:
396,176,99408,2,0,L|336:172,1,60,2|0,0:0|1:0,0:0:0:0:
316,120,99819,1,2,0:0:0:0:
316,120,100025,1,8,1:2:0:0:
220,212,100435,54,0,P|190:261|213:314,1,120,2|8,1:2|1:2,0:0:0:0:
236,372,101052,2,0,L|176:367,1,60,2|0,0:0|1:0,0:0:0:0:
124,340,101463,1,10,0:0:0:0:
128,344,101668,2,0,L|68:349,1,60,10|2,1:2|0:0,0:0:0:0:
16,376,102079,1,2,0:0:0:0:
80,112,104545,6,0,P|41:145|20:97,1,120,4|4,0:0|0:0,0:0:0:0:
176,24,105367,22,0,P|211:20|245:30,1,71.9999978027344,6|2,1:2|0:3,0:0:0:0:
304,96,105778,2,0,P|339:101|373:91,1,71.9999978027344,10|2,1:2|0:3,0:0:0:0:
456,52,106189,1,2,1:2:0:0:
456,52,106394,1,2,1:3:0:0:
456,52,106600,2,0,L|462:123,1,71.9999978027344,10|2,1:2|1:3,0:0:0:0:
472,208,107011,6,0,L|507:211,2,35.9999989013672,2|0|2,1:2|0:0|0:3,0:0:0:0:
392,240,107422,2,0,L|356:236,2,35.9999989013672,10|0|2,1:2|0:0|0:3,0:0:0:0:
460,292,107833,2,0,L|453:363,1,71.9999978027344,2|2,1:2|0:3,0:0:0:0:
368,372,108244,2,0,P|332:376|298:365,1,71.9999978027344,10|2,1:2|0:3,0:0:0:0:
256,288,108655,6,0,L|262:216,2,71.9999978027344,2|2|10,1:2|0:3|1:2,0:0:0:0:
204,360,109271,1,2,0:3:0:0:
203,360,109477,2,0,P|168:364|134:353,1,71.9999978027344,2|2,1:2|0:3,0:0:0:0:
104,272,109888,2,0,P|69:261|34:266,1,71.9999978027344,10|2,1:2|0:3,0:0:0:0:
12,188,110298,53,2,1:2:0:0:
12,188,110504,2,0,L|19:117,1,71.9999978027344,2|10,0:3|1:2,0:0:0:0:
88,60,110915,1,2,0:3:0:0:
88,60,111120,2,0,B|135:55|135:55|173:24|173:24|221:20,1,143.999995605469,2|10,1:2|1:2,0:0:0:0:
392,24,111942,6,0,B|397:72|397:72|428:110|428:110|432:158,1,143.999995605469,2|10,1:2|1:2,0:0:0:0:
508,312,112764,2,0,P|474:324|438:319,1,71.9999978027344,2|2,1:2|0:3,0:0:0:0:
384,252,113175,2,0,P|350:240|314:245,1,71.9999978027344,10|2,1:2|0:3,0:0:0:0:
240,284,113586,5,2,1:2:0:0:
96,376,113997,1,10,1:2:0:0:
36,212,114408,2,0,L|0:215,2,35.9999989013672,2|0|2,1:2|0:0|1:3,0:0:0:0:
104,160,114819,2,0,P|118:127|112:92,1,71.9999978027344,10|2,1:2|0:3,0:0:0:0:
88,16,115230,53,2,1:2:0:0:
88,16,115435,2,0,L|53:12,2,35.9999989013672,2|0|10,0:3|0:0|1:2,0:0:0:0:
176,32,115846,1,2,1:3:0:0:
176,32,116052,2,0,P|208:42|242:33,1,71.9999978027344,2|2,1:2|0:3,0:0:0:0:
328,4,116463,2,0,L|334:75,1,71.9999978027344,10|2,1:2|0:3,0:0:0:0:
408,124,116874,6,0,L|479:117,2,71.9999978027344,2|2|0,1:2|0:3|0:0,0:0:0:0:
336,172,117490,2,0,L|265:165,2,71.9999978027344,2|0|2,1:3|0:0|0:3,0:0:0:0:
408,220,118107,2,0,P|417:254|405:287,1,71.9999978027344,10|2,1:2|0:3,0:0:0:0:
360,344,118518,6,0,B|320:354|290:325|290:325|260:296|220:306,1,143.999995605469,6|10,1:2|1:2,0:0:0:0:
88,344,119340,2,0,P|78:310|88:276,1,71.9999978027344,2|2,1:2|1:3,0:0:0:0:
144,232,119751,2,0,P|154:198|142:165,1,71.9999978027344,10|2,1:2|0:3,0:0:0:0:
96,116,120161,53,2,1:2:0:0:
96,116,120367,2,0,L|25:109,2,71.9999978027344,2|10|2,0:3|1:2|0:3,0:0:0:0:
148,64,120983,2,0,L|219:57,1,71.9999978027344,2|2,1:2|0:3,0:0:0:0:
284,20,121394,2,0,L|355:27,1,71.9999978027344,10|2,1:2|0:3,0:0:0:0:
428,36,121805,5,2,1:2:0:0:
500,160,122216,2,0,P|509:194|497:227,1,71.9999978027344,10|2,1:2|0:3,0:0:0:0:
456,288,122627,2,0,L|384:281,1,71.9999978027344,2|2,1:2|0:3,0:0:0:0:
332,232,123038,2,0,L|260:238,1,71.9999978027344,2|2,1:2|0:3,0:0:0:0:
200,244,123449,6,0,P|171:192|182:134,1,120,2|2,1:2|1:2,0:0:0:0:
208,84,124066,1,2,0:3:0:0:
208,84,124271,2,0,B|109:76|109:76|89:84,1,120,2|2,1:2|1:2,0:0:0:0:
0,164,125093,53,2,1:2:0:0:
256,192,125504,12,2,131668,0:0:0:0:
40,56,144819,38,0,B|131:142|262:102|262:102|397:64|502:179,1,480,2|0,0:0|0:0,0:0:0:0:
464,280,146874,2,0,P|431:285|404:274,1,60,10|2,0:0|0:3,0:0:0:0:
364,236,147285,2,0,P|331:230|304:241,1,60,2|2,0:0|0:3,0:0:0:0:
260,276,147696,1,10,0:0:0:0:
160,344,148107,6,0,P|132:135|342:143,1,480,2|0,0:0|0:0,0:0:0:0:
408,244,150162,1,8,0:0:0:0:
468,140,150572,1,2,0:0:0:0:
396,60,150983,1,10,0:0:0:0:
396,60,151189,1,2,0:0:0:0:
396,60,151394,6,0,L|398:30,2,30,0|0|2,1:0|0:0|0:3,0:0:0:0:
348,96,151805,2,0,L|288:90,1,60,0|2,1:0|0:3,0:0:0:0:
240,52,152216,2,0,L|243:21,2,30,0|0|2,1:0|0:0|0:3,0:0:0:0:
184,72,152627,2,0,L|155:69,2,30,0|0|2,1:0|0:0|0:3,0:0:0:0:
184,132,153038,54,0,L|178:192,1,60,0|2,1:0|0:3,0:0:0:0:
136,236,153449,2,0,L|107:233,2,30,0|0|2,1:0|0:0|0:3,0:0:0:0:
164,288,153860,2,0,B|211:292|211:292|230:309|230:309|276:313,1,120,2|0,1:2|1:0,0:0:0:0:
372,236,154682,6,0,L|366:176,2,60,2|2|0,1:2|1:3|1:0,0:0:0:0:
424,276,155298,1,2,1:3:0:0:
424,276,155504,2,0,L|453:273,2,30,0|0|2,1:0|1:0|1:3,0:0:0:0:
392,328,155915,2,0,L|395:357,2,30,0|0|2,1:0|1:0|1:3,0:0:0:0:
256,192,156326,12,2,157970,0:0:0:0:
256,192,159203,5,8,0:0:0:0:
176,40,159614,6,0,P|140:35|106:45,1,71.9999978027344,6|2,1:2|0:3,0:0:0:0:
60,116,160025,2,0,P|65:152|55:186,1,71.9999978027344,10|2,1:2|0:3,0:0:0:0:
36,268,160435,6,0,L|1:265,2,35.9999989013672,2|0|2,1:2|0:0|0:3,0:0:0:0:
92,332,160846,2,0,L|87:368,2,35.9999989013672,10|0|2,1:2|0:0|0:3,0:0:0:0:
168,284,161257,5,2,1:2:0:0:
168,284,161463,2,0,L|240:291,1,71.9999978027344,2|10,0:3|1:2,0:0:0:0:
292,360,161874,2,0,L|364:354,1,71.9999978027344,2|2,0:3|1:2,0:0:0:0:
452,340,162285,1,2,1:3:0:0:
452,340,162490,2,0,L|458:269,1,71.9999978027344,10|2,1:2|1:3,0:0:0:0:
476,184,162901,54,0,L|511:181,2,35.9999989013672,2|0|2,1:2|0:0|0:3,0:0:0:0:
428,112,163312,2,0,L|356:105,1,71.9999978027344,10|2,1:2|0:3,0:0:0:0:
276,136,163723,2,0,P|266:170|277:203,1,71.9999978027344,2|2,1:2|0:3,0:0:0:0:
304,288,164134,2,0,L|233:295,1,71.9999978027344,10|2,1:2|0:3,0:0:0:0:
168,348,164545,5,2,1:2:0:0:
168,348,164751,2,0,L|172:384,2,35.9999989013672,2|0|10,0:3|0:0|1:2,0:0:0:0:
108,284,165162,2,0,L|103:248,2,35.9999989013672,2|0|2,0:3|0:0|1:2,0:0:0:0:
72,364,165572,1,2,0:3:0:0:
72,364,165778,2,0,L|0:357,1,71.9999978027344,10|2,1:2|0:3,0:0:0:0:
0,272,166189,6,0,B|4:228|4:228|32:178|32:178|36:135,1,143.999995605469,2|10,1:2|1:2,0:0:0:0:
48,52,166805,1,2,0:3:0:0:
48,52,167011,2,0,L|119:45,1,71.9999978027344,2|2,1:2|0:3,0:0:0:0:
192,96,167422,2,0,L|263:102,1,71.9999978027344,10|2,1:2|0:3,0:0:0:0:
336,56,167833,54,0,L|339:20,2,35.9999989013672,2|0|2,1:2|0:0|0:3,0:0:0:0:
404,108,168244,2,0,L|403:180,1,71.9999978027344,10|2,1:2|0:3,0:0:0:0:
440,264,168655,1,2,1:2:0:0:
440,264,168860,2,0,L|511:270,2,71.9999978027344,2|10|2,0:3|1:2|0:3,0:0:0:0:
376,324,169477,5,2,1:2:0:0:
376,324,169682,2,0,P|343:335|309:326,1,71.9999978027344,2|10,0:3|1:2,0:0:0:0:
276,248,170093,1,2,0:3:0:0:
276,248,170298,2,0,P|243:238|209:247,1,71.9999978027344,2|2,1:2|0:3,0:0:0:0:
164,324,170709,2,0,P|131:335|97:326,1,71.9999978027344,10|2,1:2|0:3,0:0:0:0:
20,284,171120,6,0,L|13:355,2,71.9999978027344,2|2|10,1:2|1:3|1:2,0:0:0:0:
84,224,171737,1,2,1:3:0:0:
84,224,171942,2,0,L|77:152,1,71.9999978027344,0|2,1:2|0:3,0:0:0:0:
40,72,172353,2,0,L|4:69,2,35.9999989013672,8|8|10,0:0|0:0|0:0,0:0:0:0:
112,20,172764,54,0,B|147:9|147:9|180:19,1,71.9999978027344,6|2,1:2|0:3,0:0:0:0:
244,80,173175,2,0,B|279:91|279:91|312:80,1,71.9999978027344,10|2,1:2|0:3,0:0:0:0:
396,56,173586,2,0,L|389:127,2,71.9999978027344,2|2|10,1:2|1:3|1:2,0:0:0:0:
476,20,174203,1,2,1:3:0:0:
476,20,174408,6,0,L|511:17,2,35.9999989013672,2|0|2,1:2|0:0|0:3,0:0:0:0:
476,108,174819,2,0,L|512:104,2,35.9999989013672,10|0|2,1:2|0:0|0:3,0:0:0:0:
488,200,175230,1,2,1:2:0:0:
488,200,175435,1,2,1:3:0:0:
484,288,175641,2,0,L|477:359,1,71.9999978027344,10|2,1:2|0:3,0:0:0:0:
400,320,176052,6,0,P|365:311|333:322,1,71.9999978027344,2|2,1:2|0:3,0:0:0:0:
260,372,176463,2,0,P|226:384|192:373,1,71.9999978027344,10|2,1:2|0:3,0:0:0:0:
132,312,176874,2,0,L|135:277,2,35.9999989013672,2|0|2,1:2|0:0|0:3,0:0:0:0:
52,344,177285,2,0,L|56:380,2,35.9999989013672,10|0|2,1:2|0:0|0:3,0:0:0:0:
4,272,177696,54,0,L|11:201,1,71.9999978027344,2|2,1:2|0:3,0:0:0:0:
36,124,178107,1,10,1:2:0:0:
36,124,178312,1,2,0:3:0:0:
36,124,178518,2,0,L|1:121,2,35.9999989013672,2|0|2,1:2|0:0|0:3,0:0:0:0:
100,64,178929,2,0,L|171:57,1,71.9999978027344,10|2,1:2|0:3,0:0:0:0:
252,84,179340,6,0,P|264:117|260:153,1,71.9999978027344,2|2,1:2|0:3,0:0:0:0:
224,232,179751,2,0,P|258:239|293:230,1,71.9999978027344,10|2,1:2|0:3,0:0:0:0:
356,168,180162,2,0,B|395:158|425:187|425:187|454:216|487:206,1,143.999995605469,2|10,1:2|1:2,0:0:0:0:
476,124,180778,1,2,0:3:0:0:
476,124,180983,6,0,L|512:127,2,35.9999989013672,2|0|2,1:2|0:0|1:3,0:0:0:0:
408,72,181394,2,0,L|401:0,1,71.9999978027344,10|2,1:2|0:3,0:0:0:0:
324,28,181805,1,2,1:2:0:0:
324,28,182011,1,2,1:3:0:0:
324,28,182216,2,0,L|252:34,1,71.9999978027344,10|2,1:2|0:3,0:0:0:0:
192,96,182627,53,2,1:2:0:0:
192,96,182833,2,0,P|159:105|125:96,2,71.9999978027344,2|10|2,0:3|1:2|0:3,0:0:0:0:
268,136,183449,2,0,P|279:169|270:203,1,71.9999978027344,2|2,1:2|0:3,0:0:0:0:
220,272,183860,2,0,L|149:265,1,71.9999978027344,10|2,1:2|0:3,0:0:0:0:
64,280,184271,6,0,P|60:315|72:349,2,71.9999978027344,2|2|0,1:2|0:3|0:0,0:0:0:0:
92,200,184888,1,2,1:3:0:0:
92,200,185093,2,0,L|93:159,2,35.9999989013672,8|8|8,0:0|0:0|0:0,0:0:0:0:
172,168,185504,2,0,L|175:132,2,35.9999989013672,8|8|8,0:0|0:0|0:0,0:0:0:0:
244,152,185915,70,0,L|363:162,1,120,6|10,1:2|1:2,0:0:0:0:
476,200,186737,38,0,P|484:227|477:257,1,60,2|2,1:2|0:3,0:0:0:0:
440,304,187148,2,0,P|411:313|382:306,1,60,10|2,1:2|0:3,0:0:0:0:
332,272,187559,1,2,1:2:0:0:
248,360,187970,2,0,L|189:354,1,60,10|2,1:2|0:3,0:0:0:0:
144,328,188381,1,2,1:2:0:0:
144,328,188586,1,2,0:3:0:0:
144,328,188792,2,0,L|139:269,1,60,10|2,1:2|0:3,0:0:0:0:
128,208,189203,6,0,P|99:201|69:209,1,60,2|2,1:2|0:3,0:0:0:0:
20,180,189614,2,0,P|13:150|21:121,1,60,10|2,1:2|0:3,0:0:0:0:
60,76,190025,2,0,P|88:68|117:74,1,60,2|2,1:2|0:3,0:0:0:0:
172,96,190435,1,10,1:2:0:0:
280,44,190846,6,0,L|340:49,1,60,2|2,1:2|0:3,0:0:0:0:
388,84,191257,2,0,L|448:78,1,60,10|2,1:2|0:3,0:0:0:0:
492,116,191668,6,0,B|488:161|488:161|502:183|502:183|498:231,1,120,2|8,1:2|0:2,0:0:0:0:
432,332,192490,38,0,L|372:326,1,60,2|2,1:2|0:3,0:0:0:0:
332,284,192901,2,0,L|272:289,1,60,10|2,1:2|0:3,0:0:0:0:
220,316,193312,1,2,1:2:0:0:
128,240,193723,1,10,1:2:0:0:
228,172,194134,6,0,L|288:166,2,60,2|2|10,1:2|0:3|1:2,0:0:0:0:
124,112,194956,2,0,P|115:85|122:55,1,60,2|2,1:2|0:3,0:0:0:0:
176,28,195367,2,0,P|204:21|233:30,1,60,10|2,1:2|0:3,0:0:0:0:
284,60,195778,5,2,1:2:0:0:
404,28,196189,1,10,1:2:0:0:
404,28,196394,1,2,0:3:0:0:
404,28,196600,2,0,P|410:57|401:86,1,60,2|2,1:2|0:3,0:0:0:0:
368,136,197011,2,0,P|359:164|366:193,1,60,10|2,1:2|0:3,0:0:0:0:
384,252,197422,54,0,L|324:246,1,60,2|2,0:0|0:3,0:0:0:0:
280,284,197833,1,10,0:2:0:0:
280,284,198038,1,2,0:3:0:0:
280,284,198244,2,0,L|220:278,1,60,2|2,0:0|0:3,0:0:0:0:
172,316,198655,1,10,0:0:0:0:
172,316,198860,1,2,0:3:0:0:
128,356,199066,5,6,1:2:0:0:
