osu file format v14

[General]
AudioFilename: audio.mp3
AudioLeadIn: 0
PreviewTime: 74412
Countdown: 0
SampleSet: Soft
StackLeniency: 0.7
Mode: 3
LetterboxInBreaks: 0
SpecialStyle: 1
WidescreenStoryboard: 1

[Editor]
DistanceSpacing: 0.8
BeatDivisor: 4
GridSize: 8
TimelineZoom: 0.8

[Metadata]
Title:SPiCa
TitleUnicode:SPiCa
Artist:tokuP
ArtistUnicode:とくP
Creator:LLENN-
Version:Hard
Source:
Tags:Vocaloid Amiichii dudehacker novelty japanese pop Headphone-Tokyo へっどほんトーキョー Hatsune Miku 初音ミク Vocalolegend EXIT TUNES PRESENTS SUPER PRODUCERS BEAT ft. MK Remix MIKUNOPOLIS in LOS ANGELES "Hajimemashite, Hatsune Miku desu" Vocalohistory Hatsune Miku 5th Birthday Best ~memories~ Hatsune Miku -Project DIVA- extend Arcade F 2nd Future Tone
BeatmapID:2252552
BeatmapSetID:945395

[Difficulty]
HPDrainRate:8
CircleSize:4
OverallDifficulty:7.5
ApproachRate:5
SliderMultiplier:1.4
SliderTickRate:1

[Events]
//Background and Video events
0,0,"spica.jpg",0,0
//Break Periods
//Storyboard Layer 0 (Background)
//Storyboard Layer 1 (Fail)
//Storyboard Layer 2 (Pass)
//Storyboard Layer 3 (Foreground)
//Storyboard Layer 4 (Overlay)
//Storyboard Sound Samples
Sample,16634,0,"C7S.wav",70
Sample,17375,0,"C7S.wav",70
Sample,19597,0,"C7S.wav",70
Sample,20338,0,"C7S.wav",70
Sample,22560,0,"C7S.wav",70
Sample,23300,0,"C7S.wav",70
Sample,25523,0,"C7S.wav",70
Sample,26263,0,"C7S.wav",70
Sample,64782,0,"HHOpen.wav",70
Sample,84226,0,"G5S_s.wav",70
Sample,96263,0,"HHOpen.wav",70
Sample,97004,0,"HHOpen.wav",70
Sample,97375,0,"HHOpen.wav",70
Sample,99226,0,"HHOpen.wav",70
Sample,99967,0,"HHOpen.wav",70
Sample,100338,0,"HHOpen.wav",70
Sample,102189,0,"HHOpen.wav",70
Sample,102930,0,"HHOpen.wav",70
Sample,103300,0,"HHOpen.wav",70
Sample,105152,0,"HHOpen.wav",70
Sample,105893,0,"HHOpen.wav",70
Sample,106263,0,"HHOpen.wav",70
Sample,119226,0,"C6S_s.wav",70
Sample,119967,0,"C6S_s.wav",70
Sample,120708,0,"C6S_s.wav",70
Sample,121449,0,"C6S_s.wav",70
Sample,122189,0,"C6S_s.wav",70
Sample,122930,0,"C6S_s.wav",70
Sample,123671,0,"C6S_s.wav",70
Sample,124412,0,"C6S_s.wav",70
Sample,125152,0,"C6S_s.wav",70
Sample,125893,0,"C6S_s.wav",70
Sample,126634,0,"C6S_s.wav",70
Sample,127375,0,"C6S_s.wav",70
Sample,128115,0,"C6S_s.wav",70
Sample,128856,0,"C6S_s.wav",70
Sample,129597,0,"C6S_s.wav",70
Sample,147560,0,"D7S_s.wav",70
Sample,147930,0,"C7S_s.wav",70
Sample,148856,0,"A6S_s.wav",70
Sample,152745,0,"C7S.wav",70
Sample,174597,0,"G#5S_Ab5S_s.wav",70
Sample,187745,0,"Ride.wav",70
Sample,189226,0,"Ride.wav",70
Sample,190708,0,"Ride.wav",70
Sample,192189,0,"Ride.wav",70
Sample,201078,0,"Ride.wav",70
Sample,202560,0,"Ride.wav",70

[TimingPoints]
3301,370.37037037037,4,2,1,65,1,0
74412,-100,4,2,1,65,0,1
95152,-100,4,2,1,65,0,0
164782,-100,4,2,1,65,0,1
187004,-100,4,2,1,65,0,0

[HitObjects]
64,192,3301,128,0,3671:0:0:0:70:G6S.wav
320,192,3301,1,0,0:0:0:70:C7S.wav
64,192,4041,128,0,4412:0:0:0:70:G6S.wav
320,192,4041,1,0,0:0:0:70:C7S.wav
64,192,4782,128,0,5152:0:0:0:70:G6S.wav
320,192,4782,1,0,0:0:0:70:C7S.wav
64,192,5523,128,0,5893:0:0:0:70:G6S.wav
320,192,5523,1,0,0:0:0:70:C7S.wav
64,192,6263,1,0,0:0:0:70:A#6S_Bb6S.wav
448,192,6263,128,0,6634:0:0:0:70:G6S.wav
64,192,7004,1,0,0:0:0:70:A#6S_Bb6S.wav
448,192,7004,128,0,7375:0:0:0:70:G6S.wav
64,192,7745,1,0,0:0:0:70:A#6S_Bb6S.wav
448,192,7745,128,0,8115:0:0:0:70:G6S.wav
64,192,8486,1,0,0:0:0:70:A#6S_Bb6S.wav
448,192,8486,128,0,8856:0:0:0:70:G6S.wav
192,192,9226,128,0,9597:0:0:0:70:F6S.wav
448,192,9226,1,0,0:0:0:70:C7S.wav
192,192,9967,128,0,10338:0:0:0:70:F6S.wav
448,192,9967,1,0,0:0:0:70:C7S.wav
192,192,10708,128,0,11078:0:0:0:70:F6S.wav
448,192,10708,1,0,0:0:0:70:C7S.wav
192,192,11449,128,0,11819:0:0:0:70:F6S.wav
448,192,11449,1,0,0:0:0:70:C7S.wav
64,192,12189,128,0,12560:0:0:0:70:G#6S_Ab6S.wav
192,192,12189,1,0,0:0:0:70:C7S.wav
64,192,12930,128,0,13300:0:0:0:70:G#6S_Ab6S.wav
192,192,12930,1,0,0:0:0:70:C7S.wav
64,192,13671,128,0,14782:0:0:0:70:G#6S_Ab6S.wav
192,192,13671,1,0,0:0:0:70:C7S.wav
320,192,15152,1,0,0:0:0:70:G6S.wav
448,192,15152,128,0,15523:0:0:0:70:C7S.wav
320,192,15893,1,0,0:0:0:70:G6S.wav
448,192,15893,128,0,16263:0:0:0:70:C7S.wav
64,192,16634,1,0,0:0:0:70:G6S.wav
192,192,16634,128,0,17004:0:0:0:70:E7S.wav
64,192,17375,1,0,0:0:0:70:G6S.wav
192,192,17375,128,0,17745:0:0:0:70:E7S.wav
192,192,18115,1,0,0:0:0:70:A#6S_Bb6S.wav
320,192,18115,128,0,18486:0:0:0:70:C7S.wav
192,192,18856,1,0,0:0:0:70:A#6S_Bb6S.wav
320,192,18856,128,0,19226:0:0:0:70:C7S.wav
64,192,19597,1,0,0:0:0:70:A#6S_Bb6S.wav
448,192,19597,128,0,19967:0:0:0:70:E7S.wav
64,192,20338,1,0,0:0:0:70:A#6S_Bb6S.wav
448,192,20338,128,0,20708:0:0:0:70:E7S.wav
192,192,21078,128,0,21449:0:0:0:70:F6S.wav
448,192,21078,1,0,0:0:0:70:C7S.wav
192,192,21819,128,0,22189:0:0:0:70:F6S.wav
448,192,21819,1,0,0:0:0:70:C7S.wav
64,192,22560,128,0,22930:0:0:0:70:F6S.wav
320,192,22560,1,0,0:0:0:70:E7S.wav
64,192,23300,128,0,23671:0:0:0:70:F6S.wav
320,192,23300,1,0,0:0:0:70:E7S.wav
64,192,24041,1,0,0:0:0:70:G#6S_Ab6S.wav
448,192,24041,128,0,24412:0:0:0:70:C7S.wav
64,192,24782,1,0,0:0:0:70:G#6S_Ab6S.wav
448,192,24782,128,0,25152:0:0:0:70:C7S.wav
192,192,25523,128,0,25893:0:0:0:70:G#6S_Ab6S.wav
320,192,25523,1,0,0:0:0:70:E7S.wav
320,192,26263,128,0,27004:0:0:0:70:G#6S_Ab6S.wav
448,192,26263,1,0,0:0:0:70:F7S.wav
192,192,26634,1,0,0:0:0:70:HHOpen.wav
64,192,27004,1,2,0:0:0:0:
192,192,27004,1,4,0:0:0:0:
448,192,27004,128,0,28115:0:0:0:0:
192,192,28115,1,0,0:0:0:70:HHOpen.wav
64,192,28486,1,4,0:0:0:0:
320,192,28486,128,2,28856:0:0:0:0:
192,192,28856,128,0,29226:0:0:0:0:
64,192,29226,128,0,29597:0:0:0:0:
192,192,29597,1,0,0:0:0:70:HHOpen.wav
320,192,29782,1,2,0:0:0:0:
448,192,29782,1,0,0:0:0:0:
64,192,29967,1,2,0:0:0:0:
192,192,29967,128,4,30338:0:0:0:0:
320,192,30338,128,0,30708:0:0:0:0:
448,192,30708,128,0,31078:0:0:0:0:
64,192,31078,128,0,31449:0:0:0:70:Ride.wav
320,192,31449,1,2,0:0:0:0:
448,192,31449,1,4,0:0:0:0:
192,192,31634,1,0,0:0:0:70:Tom1.wav
64,192,32004,1,0,0:0:0:70:Tom2.wav
320,192,32189,128,0,32560:0:0:0:0:
192,192,32375,1,2,0:0:0:0:
64,192,32560,1,8,0:0:0:0:
448,192,32560,128,0,32930:0:0:0:70:HHOpen.wav
64,192,32930,1,2,0:0:0:0:
192,192,32930,128,4,34041:0:0:0:0:
320,192,33671,1,0,0:0:0:0:
448,192,34041,1,0,0:0:0:0:
64,192,34226,1,0,0:0:0:70:Ride.wav
320,192,34412,128,2,35152:0:0:0:0:
448,192,34412,1,0,0:0:0:0:
192,192,34967,1,0,0:0:0:70:Ride.wav
448,192,35152,128,0,35893:0:0:0:0:
64,192,35338,1,0,0:0:0:70:Ride.wav
192,192,35708,1,0,0:0:0:0:
64,192,35893,128,2,36819:0:0:0:0:
320,192,35893,1,4,0:0:0:0:
192,192,36078,1,0,0:0:0:70:Tom1.wav
320,192,36171,1,0,0:0:0:0:
448,192,36263,1,0,0:0:0:0:
192,192,36449,1,0,0:0:0:0:
320,192,36541,1,8,0:0:0:0:
448,192,36634,1,8,0:0:0:0:
320,192,36819,1,8,0:0:0:0:
192,192,37004,128,8,37189:0:0:0:0:
448,192,37189,128,8,37375:0:0:0:0:
64,192,37375,128,2,37745:0:0:0:0:
192,192,37375,1,4,0:0:0:0:
320,192,37745,128,8,38115:0:0:0:0:
192,192,37930,1,2,0:0:0:0:
448,192,38115,128,0,38856:0:0:0:70:Tom1.wav
320,192,38486,1,0,0:0:0:70:Tom3.wav
192,192,38671,1,0,0:0:0:70:Tom4.wav
64,192,38856,1,2,0:0:0:0:
320,192,38856,1,0,0:0:0:0:
192,192,39041,1,0,0:0:0:0:
320,192,39226,1,2,0:0:0:0:
448,192,39226,1,0,0:0:0:0:
64,192,39412,1,0,0:0:0:0:
192,192,39597,1,2,0:0:0:0:
448,192,39597,1,0,0:0:0:0:
320,192,39782,1,0,0:0:0:0:
64,192,39967,1,2,0:0:0:0:
192,192,39967,1,0,0:0:0:0:
448,192,40152,1,0,0:0:0:0:
64,192,40338,1,2,0:0:0:0:
320,192,40338,1,0,0:0:0:0:
192,192,40523,128,0,40708:0:0:0:0:
320,192,40708,1,2,0:0:0:0:
448,192,40708,1,0,0:0:0:0:
64,192,40893,128,0,41078:0:0:0:0:
192,192,41078,1,2,0:0:0:0:
448,192,41078,1,0,0:0:0:0:
320,192,41263,128,0,41449:0:0:0:0:
64,192,41449,1,2,0:0:0:0:
192,192,41449,1,0,0:0:0:0:
448,192,41634,128,0,41819:0:0:0:70:HHOpen.wav
64,192,41819,1,2,0:0:0:0:
320,192,41819,1,0,0:0:0:0:
192,192,42004,1,0,0:0:0:0:
64,192,42189,1,2,0:0:0:0:
448,192,42189,1,0,0:0:0:0:
320,192,42375,1,0,0:0:0:0:
64,192,42560,1,2,0:0:0:0:
192,192,42560,1,0,0:0:0:0:
448,192,42745,1,0,0:0:0:0:
192,192,42930,1,2,0:0:0:0:
320,192,42930,1,0,0:0:0:0:
64,192,43115,1,0,0:0:0:0:
320,192,43300,1,2,0:0:0:0:
448,192,43300,1,0,0:0:0:0:
64,192,43486,128,0,43671:0:0:0:0:
192,192,43671,1,2,0:0:0:0:
448,192,43671,1,0,0:0:0:0:
320,192,43856,128,0,44041:0:0:0:0:
64,192,44041,1,2,0:0:0:0:
192,192,44041,1,0,0:0:0:0:
64,192,44226,128,0,44412:0:0:0:0:
192,192,44412,1,2,0:0:0:0:
320,192,44412,1,0,0:0:0:0:
448,192,44597,128,0,44782:0:0:0:70:HHOpen.wav
64,192,44782,1,2,0:0:0:0:
320,192,44782,128,0,45338:0:0:0:0:
448,192,44967,1,0,0:0:0:0:
64,192,45152,1,2,0:0:0:0:
192,192,45152,1,0,0:0:0:0:
448,192,45338,128,0,45523:0:0:0:0:
64,192,45523,128,2,46078:0:0:0:0:
192,192,45523,1,0,0:0:0:0:
320,192,45708,1,0,0:0:0:0:
192,192,45893,1,2,0:0:0:0:
448,192,45893,1,0,0:0:0:0:
320,192,46078,128,0,46263:0:0:0:0:
64,192,46263,1,2,0:0:0:0:
448,192,46263,1,0,0:0:0:0:
320,192,46449,128,0,46634:0:0:0:0:
192,192,46634,1,2,0:0:0:0:
448,192,46634,1,0,0:0:0:0:
320,192,46819,128,0,47004:0:0:0:0:
64,192,47004,1,2,0:0:0:0:
192,192,47004,1,0,0:0:0:0:
448,192,47189,128,0,47375:0:0:0:0:
192,192,47375,1,2,0:0:0:0:
320,192,47375,1,0,0:0:0:0:
64,192,47560,128,0,47745:0:0:0:70:HHOpen.wav
192,192,47745,128,2,48300:0:0:0:0:
448,192,47745,1,0,0:0:0:0:
64,192,47930,1,0,0:0:0:0:
320,192,48115,1,2,0:0:0:0:
448,192,48115,1,0,0:0:0:0:
64,192,48300,128,0,48486:0:0:0:0:
320,192,48486,1,2,0:0:0:0:
448,192,48486,128,0,49041:0:0:0:0:
192,192,48671,1,0,0:0:0:0:
64,192,48856,1,2,0:0:0:0:
320,192,48856,1,0,0:0:0:0:
192,192,49041,128,0,49226:0:0:0:0:
64,192,49226,1,2,0:0:0:0:
448,192,49226,1,0,0:0:0:0:
192,192,49412,128,0,49597:0:0:0:0:
64,192,49597,1,2,0:0:0:0:
320,192,49597,1,0,0:0:0:0:
192,192,49782,128,0,49967:0:0:0:0:
320,192,49967,1,2,0:0:0:0:
448,192,49967,1,0,0:0:0:0:
64,192,50152,1,8,0:0:0:0:
192,192,50152,1,0,0:0:0:0:
64,192,50338,1,8,0:0:0:0:
192,192,50338,1,4,0:0:0:0:
448,192,50338,128,0,50430:0:0:0:0:
320,192,50523,128,0,50615:0:0:0:0:
64,192,50708,1,4,0:0:0:0:
192,192,50708,1,2,0:0:0:0:
448,192,50708,1,0,0:0:0:0:
320,192,50893,1,0,0:0:0:0:
64,192,51078,1,2,0:0:0:0:
192,192,51078,1,0,0:0:0:0:
448,192,51263,1,0,0:0:0:0:
192,192,51449,1,2,0:0:0:0:
320,192,51449,1,0,0:0:0:0:
64,192,51634,1,0,0:0:0:0:
320,192,51819,1,2,0:0:0:0:
448,192,51819,1,0,0:0:0:0:
192,192,52004,1,0,0:0:0:0:
64,192,52189,1,2,0:0:0:0:
320,192,52189,1,0,0:0:0:0:
448,192,52375,128,0,52560:0:0:0:0:
192,192,52560,1,2,0:0:0:0:
320,192,52560,1,0,0:0:0:0:
64,192,52745,128,0,52930:0:0:0:0:
192,192,52930,1,2,0:0:0:0:
448,192,52930,1,0,0:0:0:0:
320,192,53115,128,0,53300:0:0:0:70:Tom3.wav
64,192,53300,1,8,0:0:0:0:
448,192,53300,1,0,0:0:0:0:
192,192,53486,128,0,53671:0:0:0:70:HHOpen.wav
320,192,53671,1,2,0:0:0:0:
448,192,53671,1,0,0:0:0:0:
64,192,53856,1,0,0:0:0:0:
192,192,54041,1,2,0:0:0:0:
320,192,54041,1,0,0:0:0:0:
448,192,54226,1,0,0:0:0:0:
64,192,54412,1,2,0:0:0:0:
192,192,54412,1,0,0:0:0:0:
320,192,54597,1,0,0:0:0:0:
192,192,54782,1,2,0:0:0:0:
448,192,54782,1,0,0:0:0:0:
64,192,54967,1,0,0:0:0:0:
320,192,55152,1,2,0:0:0:0:
448,192,55152,1,0,0:0:0:0:
64,192,55338,128,0,55523:0:0:0:0:
192,192,55523,1,2,0:0:0:0:
320,192,55523,1,0,0:0:0:0:
448,192,55708,128,0,55893:0:0:0:0:
64,192,55893,1,2,0:0:0:0:
320,192,55893,1,0,0:0:0:0:
192,192,56078,128,0,56263:0:0:0:0:
64,192,56263,1,2,0:0:0:0:
320,192,56263,1,0,0:0:0:0:
448,192,56449,128,2,56634:0:0:0:0:
64,192,56634,128,2,57189:0:0:0:0:
192,192,56634,1,4,0:0:0:0:
320,192,56819,1,0,0:0:0:0:
192,192,57004,1,2,0:0:0:0:
448,192,57004,1,0,0:0:0:0:
320,192,57189,128,0,57375:0:0:0:0:
64,192,57375,1,2,0:0:0:0:
448,192,57375,128,0,58115:0:0:0:0:
192,192,57560,1,0,0:0:0:0:
64,192,57745,1,2,0:0:0:0:
320,192,57745,1,0,0:0:0:0:
192,192,57930,1,0,0:0:0:0:
64,192,58115,128,2,58486:0:0:0:0:
320,192,58115,1,0,0:0:0:0:
320,192,58300,1,0,0:0:0:0:
192,192,58486,128,2,58856:0:0:0:0:
448,192,58486,1,0,0:0:0:0:
448,192,58671,1,0,0:0:0:0:
64,192,58856,1,2,0:0:0:0:
320,192,58856,128,0,59226:0:0:0:0:
64,192,59041,1,0,0:0:0:0:
192,192,59226,1,2,0:0:0:0:
448,192,59226,128,0,59597:0:0:0:0:
192,192,59412,1,0,0:0:0:0:
64,192,59597,128,2,60152:0:0:0:0:
320,192,59597,1,0,0:0:0:0:
448,192,59782,1,0,0:0:0:0:
192,192,59967,1,2,0:0:0:0:
320,192,59967,1,0,0:0:0:0:
448,192,60152,128,0,60338:0:0:0:0:
64,192,60338,1,2,0:0:0:0:
192,192,60338,128,0,60708:0:0:0:0:
320,192,60523,1,0,0:0:0:0:
64,192,60708,1,2,0:0:0:0:
448,192,60708,1,0,0:0:0:0:
320,192,60893,1,0,0:0:0:0:
192,192,61078,1,2,0:0:0:0:
448,192,61078,1,0,0:0:0:0:
64,192,61263,1,0,0:0:0:0:
192,192,61449,1,2,0:0:0:0:
320,192,61449,1,0,0:0:0:0:
448,192,61634,1,0,0:0:0:0:
64,192,61819,1,8,0:0:0:0:
192,192,61819,1,0,0:0:0:0:
64,192,62004,1,8,0:0:0:0:
320,192,62004,1,0,0:0:0:0:
64,192,62560,1,4,0:0:0:0:
192,192,62560,1,2,0:0:0:0:
448,192,62560,128,0,63300:0:0:0:0:
320,192,62930,1,0,0:0:0:70:HHOpen.wav
192,192,63115,128,2,63300:0:0:0:0:
64,192,63300,128,8,64041:0:0:0:0:
320,192,63300,1,0,0:0:0:70:HHOpen.wav
448,192,63671,1,0,0:0:0:70:HHOpen.wav
320,192,63856,128,0,64041:0:0:0:0:
192,192,64041,1,2,0:0:0:0:
448,192,64041,128,0,64412:0:0:0:70:HHOpen.wav
64,192,64226,1,8,0:0:0:0:
320,192,64412,128,0,64782:0:0:0:70:HHOpen.wav
64,192,64597,1,2,0:0:0:0:
192,192,64782,128,8,65152:0:0:0:0:
320,192,64967,1,2,0:0:0:0:
448,192,64967,1,0,0:0:0:0:
64,192,65152,128,0,65523:0:0:0:70:HHOpen.wav
320,192,65523,1,2,0:0:0:0:
448,192,65523,128,4,65893:0:0:0:0:
192,192,65893,128,0,66263:0:0:0:70:HHOpen.wav
320,192,66078,1,2,0:0:0:0:
64,192,66263,1,8,0:0:0:0:
448,192,66263,128,0,66634:0:0:0:70:HHOpen.wav
64,192,66634,128,0,67004:0:0:0:70:HHOpen.wav
320,192,67004,1,2,0:0:0:0:
448,192,67004,1,0,0:0:0:70:HHOpen.wav
64,192,67189,1,8,0:0:0:0:
192,192,67189,1,4,0:0:0:0:
448,192,67189,1,0,0:0:0:0:
192,192,67560,1,2,0:0:0:0:
320,192,67560,1,0,0:0:0:0:
64,192,67745,1,8,0:0:0:0:
448,192,67745,128,0,68115:0:0:0:70:HHOpen.wav
320,192,67930,1,8,0:0:0:0:
64,192,68115,128,0,68486:0:0:0:70:HHOpen.wav
192,192,68115,1,0,0:0:0:0:
320,192,68300,1,0,0:0:0:0:
192,192,68486,128,4,69226:0:0:0:0:
448,192,68486,1,2,0:0:0:0:
448,192,68856,1,0,0:0:0:70:HHOpen.wav
64,192,69041,1,2,0:0:0:0:
320,192,69226,1,8,0:0:0:0:
448,192,69226,128,0,69597:0:0:0:70:HHOpen.wav
64,192,69597,1,0,0:0:0:70:HHOpen.wav
320,192,69597,128,0,69967:0:0:0:0:
64,192,69967,128,2,70338:0:0:0:0:
192,192,69967,1,0,0:0:0:70:HHOpen.wav
448,192,70152,1,8,0:0:0:0:
192,192,70338,1,0,0:0:0:70:HHOpen.wav
320,192,70523,1,2,0:0:0:0:
64,192,70708,1,8,0:0:0:0:
448,192,70708,128,0,71078:0:0:0:70:HHOpen.wav
192,192,70893,1,2,0:0:0:0:
320,192,71078,128,0,71449:0:0:0:70:HHOpen.wav
64,192,71449,128,4,72189:0:0:0:0:
192,192,71449,1,2,0:0:0:0:
320,192,71819,1,0,0:0:0:70:HHOpen.wav
448,192,72004,1,2,0:0:0:0:
192,192,72189,1,8,0:0:0:0:
320,192,72189,128,0,72930:0:0:0:70:HHOpen.wav
448,192,72560,1,0,0:0:0:70:HHOpen.wav
64,192,72930,1,2,0:0:0:0:
192,192,72930,1,0,0:0:0:0:
192,192,73300,128,0,73486:0:0:0:0:
320,192,73486,128,0,73671:0:0:0:0:
448,192,73671,128,0,73856:0:0:0:0:
64,192,73856,128,0,74226:0:0:0:0:
192,192,74041,128,0,74226:0:0:0:0:
320,192,74226,128,0,74412:0:0:0:0:
64,192,74412,1,2,0:0:0:0:
448,192,74412,1,4,0:0:0:0:
320,192,74597,1,0,0:0:0:0:
192,192,74782,1,8,0:0:0:0:
448,192,74782,1,0,0:0:0:0:
64,192,74967,1,0,0:0:0:0:
192,192,75060,1,8,0:0:0:0:
320,192,75152,1,2,0:0:0:0:
448,192,75152,1,0,0:0:0:0:
320,192,75338,1,2,0:0:0:0:
448,192,75338,1,0,0:0:0:0:
64,192,75523,1,8,0:0:0:0:
192,192,75523,1,0,0:0:0:0:
320,192,75708,1,0,0:0:0:0:
192,192,75893,1,2,0:0:0:0:
448,192,75893,1,0,0:0:0:0:
64,192,76078,1,0,0:0:0:0:
192,192,76263,1,8,0:0:0:0:
320,192,76263,1,0,0:0:0:0:
448,192,76449,1,0,0:0:0:0:
192,192,76541,1,8,0:0:0:0:
64,192,76634,1,2,0:0:0:0:
320,192,76634,1,0,0:0:0:0:
64,192,76819,1,2,0:0:0:0:
320,192,76819,1,0,0:0:0:0:
192,192,77004,1,8,0:0:0:0:
448,192,77004,1,0,0:0:0:0:
320,192,77189,1,0,0:0:0:0:
64,192,77375,1,2,0:0:0:0:
448,192,77375,1,0,0:0:0:0:
320,192,77560,1,0,0:0:0:0:
192,192,77745,1,8,0:0:0:0:
448,192,77745,1,0,0:0:0:0:
64,192,77930,1,0,0:0:0:0:
192,192,78023,1,8,0:0:0:0:
64,192,78115,1,2,0:0:0:0:
320,192,78115,1,0,0:0:0:0:
64,192,78300,1,2,0:0:0:0:
320,192,78300,1,0,0:0:0:0:
192,192,78486,1,8,0:0:0:0:
448,192,78486,1,0,0:0:0:0:
320,192,78671,1,0,0:0:0:0:
64,192,78856,1,2,0:0:0:0:
448,192,78856,1,0,0:0:0:0:
192,192,79041,1,0,0:0:0:0:
64,192,79226,1,8,0:0:0:0:
320,192,79226,1,0,0:0:0:0:
192,192,79597,1,2,0:0:0:0:
448,192,79597,1,0,0:0:0:0:
192,192,79782,1,2,0:0:0:0:
448,192,79782,1,0,0:0:0:0:
64,192,79967,1,8,0:0:0:0:
320,192,79967,1,0,0:0:0:0:
192,192,80152,1,8,0:0:0:0:
64,192,80338,1,2,0:0:0:0:
320,192,80338,1,4,0:0:0:0:
64,192,80708,1,8,0:0:0:0:
448,192,80708,1,0,0:0:0:0:
192,192,80893,1,0,0:0:0:0:
64,192,80986,1,8,0:0:0:0:
320,192,81078,1,2,0:0:0:0:
448,192,81078,1,0,0:0:0:0:
320,192,81263,1,2,0:0:0:0:
448,192,81263,1,0,0:0:0:0:
64,192,81449,1,8,0:0:0:0:
192,192,81449,1,0,0:0:0:0:
320,192,81634,1,2,0:0:0:0:
448,192,81634,1,0,0:0:0:0:
192,192,81726,1,8,0:0:0:0:
64,192,81819,1,2,0:0:0:0:
448,192,81819,128,4,82189:0:0:0:0:
192,192,82004,1,0,0:0:0:0:
64,192,82189,1,8,0:0:0:0:
192,192,82375,1,4,0:0:0:0:
320,192,82375,128,2,82745:0:0:0:0:
64,192,82745,1,2,0:0:0:0:
448,192,82745,1,0,0:0:0:0:
64,192,82930,1,8,0:0:0:0:
320,192,82930,1,0,0:0:0:0:
192,192,83115,1,2,0:0:0:0:
448,192,83115,128,4,84412:0:0:0:0:
64,192,83486,1,2,0:0:0:0:
192,192,83671,1,8,0:0:0:0:
320,192,83671,1,0,0:0:0:70:D6S_s.wav
64,192,83856,1,2,0:0:0:0:
192,192,84041,1,0,0:0:0:70:C6S_s.wav
320,192,84226,1,2,0:0:0:0:
64,192,84412,1,8,0:0:0:0:
320,192,84412,128,0,84782:0:0:0:70:G5S_s.wav
64,192,84782,128,2,85152:0:0:0:0:
192,192,84782,1,4,0:0:0:0:
320,192,84967,1,2,0:0:0:0:
192,192,85152,1,8,0:0:0:0:
448,192,85152,1,0,0:0:0:0:
64,192,85338,1,2,0:0:0:0:
448,192,85338,128,4,85893:0:0:0:0:
192,192,85708,1,2,0:0:0:0:
64,192,85893,1,8,0:0:0:0:
320,192,85893,1,0,0:0:0:0:
192,192,86078,1,8,0:0:0:0:
320,192,86078,1,0,0:0:0:0:
64,192,86263,1,2,0:0:0:0:
448,192,86263,1,4,0:0:0:0:
320,192,86449,1,0,0:0:0:0:
64,192,86634,1,8,0:0:0:0:
448,192,86634,1,0,0:0:0:0:
192,192,86819,1,0,0:0:0:0:
64,192,86912,1,8,0:0:0:0:
320,192,87004,1,2,0:0:0:0:
448,192,87004,1,0,0:0:0:0:
320,192,87189,1,2,0:0:0:0:
448,192,87189,1,0,0:0:0:0:
64,192,87375,1,8,0:0:0:0:
192,192,87375,1,0,0:0:0:0:
320,192,87560,1,0,0:0:0:0:
64,192,87745,1,2,0:0:0:0:
448,192,87745,1,0,0:0:0:0:
192,192,87930,1,0,0:0:0:0:
64,192,88115,1,8,0:0:0:0:
320,192,88115,1,0,0:0:0:0:
448,192,88300,1,0,0:0:0:0:
64,192,88393,1,8,0:0:0:0:
192,192,88486,1,2,0:0:0:0:
320,192,88486,1,0,0:0:0:0:
192,192,88671,1,2,0:0:0:0:
320,192,88671,1,0,0:0:0:0:
64,192,88856,1,8,0:0:0:0:
448,192,88856,1,0,0:0:0:0:
320,192,89041,1,0,0:0:0:0:
64,192,89226,1,2,0:0:0:0:
192,192,89226,1,0,0:0:0:0:
448,192,89412,1,0,0:0:0:0:
192,192,89597,1,8,0:0:0:0:
320,192,89597,1,0,0:0:0:0:
64,192,89782,1,0,0:0:0:0:
320,192,89875,1,8,0:0:0:0:
192,192,89967,1,2,0:0:0:0:
448,192,89967,1,0,0:0:0:0:
192,192,90152,1,2,0:0:0:0:
448,192,90152,1,0,0:0:0:0:
64,192,90338,1,8,0:0:0:0:
320,192,90338,1,0,0:0:0:0:
448,192,90523,1,0,0:0:0:0:
192,192,90708,1,2,0:0:0:0:
320,192,90708,1,0,0:0:0:0:
64,192,90893,1,0,0:0:0:0:
192,192,91078,1,8,0:0:0:0:
448,192,91078,1,0,0:0:0:0:
320,192,91263,1,2,0:0:0:0:
64,192,91449,1,4,0:0:0:0:
320,192,91449,1,8,0:0:0:0:
448,192,91449,1,0,0:0:0:0:
192,192,91634,1,2,0:0:0:0:
64,192,91819,1,8,0:0:0:0:
192,192,91819,1,4,0:0:0:0:
320,192,91819,1,0,0:0:0:0:
448,192,92004,1,2,0:0:0:0:
64,192,92189,128,2,92560:0:0:0:0:
192,192,92189,1,4,0:0:0:0:
192,192,92560,1,0,0:0:0:70:HHOpen.wav
320,192,92560,128,0,92930:0:0:0:0:
448,192,92745,1,0,0:0:0:0:
64,192,92930,1,8,0:0:0:0:
192,192,92930,1,0,0:0:0:0:
320,192,93115,1,2,0:0:0:0:
64,192,93300,1,0,0:0:0:70:HHOpen.wav
448,192,93300,128,0,93486:0:0:0:0:
192,192,93486,128,0,93671:0:0:0:0:
320,192,93671,128,2,93856:0:0:0:0:
448,192,93671,1,4,0:0:0:0:
64,192,93856,128,0,94041:0:0:0:0:
192,192,94041,1,2,0:0:0:0:
448,192,94041,128,0,94226:0:0:0:0:
192,192,94226,128,8,94782:0:0:0:0:
320,192,94226,1,0,0:0:0:0:
64,192,94782,1,2,0:0:0:70:soft-hitclap1.wav
448,192,94782,1,0,0:0:0:0:
64,192,95152,1,2,0:0:0:0:
320,192,95152,1,4,0:0:0:0:
192,192,95523,1,8,0:0:0:0:
448,192,95523,1,0,0:0:0:70:HHOpen.wav
64,192,95708,1,2,0:0:0:0:
320,192,95708,1,0,0:0:0:0:
448,192,95893,1,0,0:0:0:70:HHOpen.wav
64,192,96078,1,2,0:0:0:0:
320,192,96078,1,0,0:0:0:0:
192,192,96263,1,8,0:0:0:0:
320,192,96449,1,2,0:0:0:0:
448,192,96449,1,0,0:0:0:0:
192,192,96634,1,0,0:0:0:70:HHOpen.wav
64,192,96819,1,2,0:0:0:0:
448,192,96819,1,0,0:0:0:0:
320,192,97004,1,8,0:0:0:0:
64,192,97189,1,2,0:0:0:0:
192,192,97189,1,0,0:0:0:0:
448,192,97375,1,2,0:0:0:0:
64,192,97560,1,8,0:0:0:0:
192,192,97560,1,0,0:0:0:0:
64,192,97745,1,8,0:0:0:0:
320,192,97745,1,0,0:0:0:70:HHOpen.wav
192,192,98115,1,2,0:0:0:0:
448,192,98115,1,4,0:0:0:0:
64,192,98486,1,8,0:0:0:0:
320,192,98486,1,0,0:0:0:70:HHOpen.wav
192,192,98671,1,2,0:0:0:0:
448,192,98671,1,0,0:0:0:0:
320,192,98856,1,0,0:0:0:70:HHOpen.wav
64,192,99041,1,2,0:0:0:0:
192,192,99041,1,0,0:0:0:0:
320,192,99226,1,8,0:0:0:0:
192,192,99412,1,2,0:0:0:0:
448,192,99412,1,0,0:0:0:0:
64,192,99597,1,0,0:0:0:70:HHOpen.wav
192,192,99782,1,2,0:0:0:0:
320,192,99782,1,0,0:0:0:0:
448,192,99967,1,8,0:0:0:0:
64,192,100152,1,2,0:0:0:0:
320,192,100152,1,0,0:0:0:0:
192,192,100338,1,2,0:0:0:0:
64,192,100523,1,8,0:0:0:0:
320,192,100523,1,0,0:0:0:0:
64,192,100708,1,8,0:0:0:0:
448,192,100708,1,0,0:0:0:70:HHOpen.wav
192,192,101078,1,4,0:0:0:0:
320,192,101078,1,2,0:0:0:0:
192,192,101449,1,8,0:0:0:0:
448,192,101449,1,0,0:0:0:70:HHOpen.wav
64,192,101634,1,2,0:0:0:0:
320,192,101634,1,0,0:0:0:0:
192,192,101819,1,0,0:0:0:70:HHOpen.wav
320,192,102004,1,2,0:0:0:0:
448,192,102004,1,0,0:0:0:0:
64,192,102189,1,8,0:0:0:0:
192,192,102375,1,2,0:0:0:0:
320,192,102375,1,0,0:0:0:0:
448,192,102560,1,0,0:0:0:70:HHOpen.wav
64,192,102745,1,2,0:0:0:0:
192,192,102745,1,0,0:0:0:0:
320,192,102930,1,8,0:0:0:0:
64,192,103115,1,2,0:0:0:0:
448,192,103115,1,0,0:0:0:0:
192,192,103300,1,2,0:0:0:0:
64,192,103486,1,8,0:0:0:0:
320,192,103486,1,0,0:0:0:0:
192,192,103671,1,8,0:0:0:0:
448,192,103671,1,0,0:0:0:70:HHOpen.wav
64,192,104041,1,2,0:0:0:0:
320,192,104041,1,4,0:0:0:0:
192,192,104412,1,8,0:0:0:0:
320,192,104412,1,0,0:0:0:70:HHOpen.wav
64,192,104597,1,2,0:0:0:0:
448,192,104597,1,0,0:0:0:0:
192,192,104782,1,0,0:0:0:70:HHOpen.wav
64,192,104967,1,2,0:0:0:0:
320,192,104967,1,0,0:0:0:0:
448,192,105152,1,8,0:0:0:0:
192,192,105338,128,2,105708:0:0:0:0:
320,192,105338,1,0,0:0:0:0:
64,192,105523,1,0,0:0:0:70:HHOpen.wav
320,192,105708,128,2,105893:0:0:0:0:
448,192,105708,1,0,0:0:0:0:
64,192,105893,1,8,0:0:0:0:
192,192,106078,1,2,0:0:0:0:
448,192,106078,128,0,107004:0:0:0:0:
320,192,106263,1,2,0:0:0:0:
64,192,106449,1,8,0:0:0:0:
192,192,106449,1,0,0:0:0:0:
64,192,106634,128,8,107004:0:0:0:0:
320,192,106634,1,0,0:0:0:70:HHOpen.wav
192,192,107004,1,2,0:0:0:0:
320,192,107004,1,4,0:0:0:0:
64,192,107189,1,0,0:0:0:0:
192,192,107375,1,8,0:0:0:0:
320,192,107375,128,0,107560:0:0:0:0:
448,192,107560,1,2,0:0:0:0:
192,192,107745,1,0,0:0:0:0:
64,192,107930,1,2,0:0:0:0:
320,192,107930,1,0,0:0:0:0:
192,192,108115,128,8,108300:0:0:0:0:
448,192,108115,1,0,0:0:0:0:
64,192,108300,1,2,0:0:0:0:
320,192,108486,1,0,0:0:0:0:
192,192,108671,1,2,0:0:0:0:
448,192,108671,1,0,0:0:0:0:
64,192,108856,128,8,109041:0:0:0:0:
320,192,108856,1,0,0:0:0:0:
448,192,109041,1,2,0:0:0:0:
64,192,109226,1,2,0:0:0:0:
320,192,109226,1,0,0:0:0:0:
192,192,109412,1,0,0:0:0:0:
192,192,109597,1,8,0:0:0:0:
320,192,109597,128,0,109967:0:0:0:0:
64,192,109967,1,2,0:0:0:0:
448,192,109967,1,4,0:0:0:0:
320,192,110152,1,0,0:0:0:0:
192,192,110338,1,8,0:0:0:0:
448,192,110338,128,0,110523:0:0:0:0:
64,192,110523,1,2,0:0:0:0:
320,192,110708,1,0,0:0:0:0:
64,192,110893,1,2,0:0:0:0:
448,192,110893,1,0,0:0:0:0:
192,192,111078,128,8,111263:0:0:0:0:
320,192,111078,1,0,0:0:0:0:
64,192,111263,1,2,0:0:0:0:
448,192,111449,1,0,0:0:0:0:
192,192,111634,1,2,0:0:0:0:
320,192,111634,1,0,0:0:0:0:
64,192,111819,128,8,112004:0:0:0:0:
448,192,111819,1,0,0:0:0:0:
320,192,112004,1,2,0:0:0:0:
64,192,112189,1,2,0:0:0:0:
320,192,112189,1,0,0:0:0:0:
192,192,112375,1,8,0:0:0:0:
448,192,112375,1,0,0:0:0:0:
192,192,112560,128,8,112930:0:0:0:0:
448,192,112560,1,0,0:0:0:0:
64,192,112930,1,2,0:0:0:0:
320,192,112930,1,4,0:0:0:0:
192,192,113115,1,0,0:0:0:0:
64,192,113300,1,8,0:0:0:0:
320,192,113300,1,0,0:0:0:0:
192,192,113486,1,2,0:0:0:0:
448,192,113486,128,0,113671:0:0:0:0:
320,192,113671,1,0,0:0:0:0:
64,192,113856,1,2,0:0:0:0:
320,192,114041,128,8,114226:0:0:0:0:
448,192,114041,1,0,0:0:0:0:
192,192,114226,1,2,0:0:0:0:
448,192,114412,1,0,0:0:0:0:
64,192,114597,1,2,0:0:0:0:
320,192,114597,1,0,0:0:0:0:
192,192,114782,128,8,114967:0:0:0:0:
448,192,114782,1,0,0:0:0:0:
320,192,114967,1,2,0:0:0:0:
64,192,115152,1,2,0:0:0:0:
320,192,115152,1,0,0:0:0:0:
448,192,115338,1,0,0:0:0:0:
64,192,115523,128,8,115893:0:0:0:0:
192,192,115523,1,0,0:0:0:0:
192,192,115893,1,2,0:0:0:0:
448,192,115893,1,4,0:0:0:0:
320,192,116078,1,0,0:0:0:0:
64,192,116263,1,8,0:0:0:0:
192,192,116263,1,0,0:0:0:0:
448,192,116449,128,2,116634:0:0:0:0:
320,192,116634,1,0,0:0:0:0:
64,192,116819,1,2,0:0:0:0:
192,192,117004,1,8,0:0:0:0:
320,192,117004,1,0,0:0:0:0:
64,192,117189,1,2,0:0:0:0:
448,192,117189,1,4,0:0:0:0:
320,192,118856,128,2,119041:0:0:0:0:
448,192,118856,1,0,0:0:0:70:G6S_s.wav
192,192,119041,128,0,119226:0:0:0:70:B5S_s.wav
64,192,119226,128,8,119412:0:0:0:0:
448,192,119412,128,0,119597:0:0:0:70:G6S.wav
320,192,119597,1,2,0:0:0:0:
192,192,119782,128,0,119967:0:0:0:70:B5S_s.wav
64,192,119967,128,8,120152:0:0:0:0:
448,192,120152,128,0,120338:0:0:0:70:G6S.wav
320,192,120338,1,2,0:0:0:0:
192,192,120523,128,0,120708:0:0:0:70:B5S_s.wav
64,192,120708,128,8,120893:0:0:0:0:
448,192,120893,128,0,121078:0:0:0:70:G6S.wav
320,192,121078,1,2,0:0:0:0:
192,192,121263,128,0,121449:0:0:0:70:B5S_s.wav
320,192,121449,128,8,121634:0:0:0:0:
64,192,121634,128,0,121819:0:0:0:70:B6S_s.wav
192,192,121819,128,2,122004:0:0:0:0:
448,192,121819,1,0,0:0:0:70:G6S_s.wav
320,192,122004,128,0,122189:0:0:0:70:B5S_s.wav
64,192,122189,128,8,122375:0:0:0:0:
448,192,122375,128,0,122560:0:0:0:70:G6S.wav
192,192,122560,1,2,0:0:0:0:
320,192,122745,128,0,122930:0:0:0:70:B5S_s.wav
64,192,122930,128,8,123115:0:0:0:0:
448,192,123115,128,0,123300:0:0:0:70:G6S.wav
192,192,123300,1,2,0:0:0:0:
320,192,123486,128,0,123671:0:0:0:70:B5S_s.wav
64,192,123671,128,8,123856:0:0:0:0:
448,192,123856,128,0,124041:0:0:0:70:G6S.wav
320,192,124041,1,2,0:0:0:0:
192,192,124226,128,0,124412:0:0:0:70:B5S_s.wav
64,192,124412,128,8,124597:0:0:0:0:
320,192,124597,128,0,124782:0:0:0:70:B6S_s.wav
192,192,124782,1,2,0:0:0:0:
448,192,124782,128,0,124967:0:0:0:70:G6S_s.wav
64,192,124967,128,0,125152:0:0:0:70:B5S_s.wav
192,192,125152,128,8,125338:0:0:0:0:
320,192,125338,128,0,125523:0:0:0:70:G6S.wav
448,192,125523,1,2,0:0:0:0:
192,192,125708,128,0,125893:0:0:0:70:B5S_s.wav
320,192,125893,128,8,126078:0:0:0:0:
64,192,126078,128,0,126263:0:0:0:70:G6S.wav
448,192,126263,1,2,0:0:0:0:
320,192,126449,128,0,126634:0:0:0:70:B5S_s.wav
448,192,126634,128,8,126819:0:0:0:0:
192,192,126819,128,0,127004:0:0:0:70:G6S.wav
64,192,127004,1,2,0:0:0:0:
320,192,127189,128,0,127375:0:0:0:70:B5S_s.wav
192,192,127375,128,8,127560:0:0:0:0:
64,192,127560,128,0,127745:0:0:0:70:B6S_s.wav
192,192,127745,1,2,0:0:0:0:
448,192,127745,128,0,127930:0:0:0:70:G6S_s.wav
320,192,127930,128,0,128115:0:0:0:70:B5S_s.wav
192,192,128115,128,8,128300:0:0:0:0:
64,192,128300,128,0,128486:0:0:0:70:G6S.wav
448,192,128486,1,2,0:0:0:0:
320,192,128671,128,0,128856:0:0:0:70:B5S_s.wav
192,192,128856,128,8,129041:0:0:0:0:
64,192,129041,128,0,129226:0:0:0:70:G6S.wav
320,192,129226,1,2,0:0:0:0:
448,192,129412,128,0,129597:0:0:0:70:B5S_s.wav
320,192,129597,128,8,129782:0:0:0:0:
192,192,129782,128,0,129967:0:0:0:70:G6S.wav
64,192,129967,1,2,0:0:0:0:
320,192,130152,1,0,0:0:0:70:B5S_s.wav
448,192,130152,1,0,0:0:0:0:
64,192,130338,1,8,0:0:0:0:
192,192,130338,1,0,0:0:0:70:C6S_s.wav
64,192,132189,1,2,0:0:0:0:
192,192,132189,1,4,0:0:0:0:
448,192,132189,1,0,0:0:0:0:
448,192,132745,1,0,0:0:0:0:
320,192,132930,128,0,133671:0:0:0:0:
64,192,133671,1,2,0:0:0:0:
192,192,133671,128,4,134967:0:0:0:0:
320,192,134041,128,0,134412:0:0:0:0:
448,192,134041,1,0,0:0:0:0:
448,192,134412,128,0,134782:0:0:0:0:
64,192,134782,128,0,134967:0:0:0:0:
64,192,135152,1,2,0:0:0:0:
320,192,135152,128,4,135523:0:0:0:0:
448,192,135152,128,0,136449:0:0:0:0:
192,192,135523,128,0,135893:0:0:0:0:
64,192,135893,128,0,136263:0:0:0:70:Ride.wav
320,192,136263,128,0,136449:0:0:0:0:
64,192,136634,1,2,0:0:0:0:
448,192,136634,1,4,0:0:0:0:
320,192,136757,1,8,0:0:0:0:
192,192,136881,1,8,0:0:0:0:
64,192,137004,1,8,0:0:0:0:
448,192,137128,1,0,0:0:0:70:Tom1.wav
192,192,137189,1,0,0:0:0:70:Tom2.wav
320,192,137282,1,0,0:0:0:0:
64,192,137375,1,8,0:0:0:0:
192,192,137375,1,4,0:0:0:0:
448,192,137375,128,0,138115:0:0:0:0:
320,192,137745,1,0,0:0:0:70:HHOpen.wav
64,192,138115,128,4,139412:0:0:0:0:
192,192,138115,1,2,0:0:0:0:
448,192,138486,1,0,0:0:0:70:HHOpen.wav
320,192,138671,1,2,0:0:0:0:
192,192,138856,1,8,0:0:0:0:
448,192,138856,1,0,0:0:0:70:HHOpen.wav
320,192,139226,1,0,0:0:0:70:HHOpen.wav
448,192,139412,1,2,0:0:0:0:
192,192,139504,1,8,0:0:0:0:
64,192,139597,1,2,0:0:0:0:
320,192,139597,128,0,140338:0:0:0:70:HHOpen.wav
448,192,139597,1,0,0:0:0:0:
192,192,139782,1,8,0:0:0:0:
64,192,139967,1,0,0:0:0:70:HHOpen.wav
448,192,140152,1,2,0:0:0:0:
64,192,140338,1,8,0:0:0:0:
192,192,140338,1,0,0:0:0:70:HHOpen.wav
64,192,140523,1,8,0:0:0:0:
192,192,140523,1,0,0:0:0:0:
448,192,140708,128,0,140893:0:0:0:0:
192,192,140893,128,0,141078:0:0:0:0:
64,192,141078,128,2,141819:0:0:0:0:
320,192,141078,1,4,0:0:0:0:
192,192,141449,1,0,0:0:0:70:HHOpen.wav
448,192,141634,1,2,0:0:0:0:
192,192,141819,1,8,0:0:0:0:
320,192,141819,128,0,142560:0:0:0:70:HHOpen.wav
448,192,142189,128,0,142560:0:0:0:70:HHOpen.wav
64,192,142560,1,2,0:0:0:0:
192,192,142560,1,0,0:0:0:0:
64,192,144041,1,0,0:0:0:70:F6S_s.wav
448,192,144041,1,0,0:0:0:70:C7S_s.wav
320,192,144226,1,0,0:0:0:70:C7S_s.wav
192,192,144412,1,0,0:0:0:70:F6S_s.wav
64,192,144597,1,0,0:0:0:70:G6S_s.wav
448,192,144782,1,0,0:0:0:70:C7S_s.wav
320,192,144967,1,0,0:0:0:70:F6S_s.wav
192,192,145152,1,0,0:0:0:70:G6S_s.wav
64,192,145338,1,0,0:0:0:70:C7S_s.wav
192,192,145523,1,0,0:0:0:70:B6S_s.wav
320,192,145523,1,0,0:0:0:0:
448,192,145708,1,0,0:0:0:70:G6S_s.wav
64,192,145893,1,0,0:0:0:70:G6S_s.wav
192,192,146078,1,0,0:0:0:70:B6S_s.wav
320,192,146263,1,0,0:0:0:70:D7S.wav
448,192,146449,1,0,0:0:0:70:G6S_s.wav
64,192,146634,1,0,0:0:0:70:B6S_s.wav
192,192,146819,1,0,0:0:0:70:D7S_s.wav
64,192,147004,1,0,0:0:0:70:E6S_s.wav
320,192,147004,1,0,0:0:0:0:
448,192,147189,1,0,0:0:0:70:G6S_s.wav
320,192,147375,1,0,0:0:0:70:E6S_s.wav
64,192,147560,1,0,0:0:0:70:G6S_s.wav
192,192,147745,1,0,0:0:0:70:E7S_s.wav
448,192,147930,1,0,0:0:0:70:D6S_s.wav
320,192,148115,1,0,0:0:0:70:G6S_s.wav
192,192,148300,1,0,0:0:0:70:E7S_s.wav
320,192,148486,1,0,0:0:0:70:A6S_s.wav
448,192,148486,1,0,0:0:0:70:G6S_s.wav
64,192,148671,1,0,0:0:0:70:E6S_s.wav
192,192,148856,1,0,0:0:0:70:C7S_s.wav
448,192,149041,1,0,0:0:0:70:C7S_s.wav
320,192,149134,1,0,0:0:0:70:E7S_s.wav
64,192,149226,1,0,0:0:0:70:C7S_s.wav
64,192,149412,1,0,0:0:0:70:B6S_s.wav
320,192,149597,1,0,0:0:0:70:A6S_s.wav
320,192,149782,1,0,0:0:0:70:G6S_s.wav
192,192,149967,128,0,150523:0:0:0:70:F6S_s.wav
448,192,149967,1,0,0:0:0:0:
320,192,150152,1,0,0:0:0:70:C6S_s.wav
64,192,150338,1,0,0:0:0:0:
448,192,150523,128,0,151078:0:0:0:70:G6S_s.wav
320,192,150708,128,0,150893:0:0:0:70:C7S_s.wav
192,192,150893,1,0,0:0:0:70:G6S_s.wav
64,192,151078,1,0,0:0:0:70:F6S_s.wav
192,192,151263,1,0,0:0:0:70:G6S_s.wav
64,192,151449,1,0,0:0:0:70:B6S_s.wav
320,192,151449,1,0,0:0:0:0:
448,192,151634,1,0,0:0:0:70:C7S_s.wav
320,192,151819,1,0,0:0:0:70:B6S_s.wav
64,192,152004,128,0,152375:0:0:0:70:E7S.wav
192,192,152375,128,0,152560:0:0:0:70:C7S.wav
320,192,152560,128,0,152745:0:0:0:70:E6S_s.wav
448,192,152745,128,0,154041:0:0:0:70:E7S.wav
320,192,153115,1,0,0:0:0:70:E6S_s.wav
192,192,153300,1,0,0:0:0:70:A6S_s.wav
64,192,153486,1,0,0:0:0:70:C7S_s.wav
192,192,153671,128,0,154041:0:0:0:70:E8S.wav
64,192,154041,128,0,154412:0:0:0:70:A6S_s.wav
320,192,154412,1,0,0:0:0:70:D7S_s.wav
192,192,154597,1,0,0:0:0:70:C7S_s.wav
448,192,154782,1,0,0:0:0:70:D7S_s.wav
64,192,154967,128,0,155338:0:0:0:70:F7S.wav
320,192,154967,1,0,0:0:0:0:
192,192,155338,1,0,0:0:0:70:E7S_s.wav
448,192,155523,1,0,0:0:0:70:D7S_s.wav
192,192,155708,1,0,0:0:0:70:C7S_s.wav
64,192,155893,1,2,0:0:0:0:
448,192,155893,128,0,157375:0:0:0:0:
64,192,156263,1,2,0:0:0:0:
64,192,156634,1,2,0:0:0:0:
64,192,157004,1,2,0:0:0:0:
192,192,157375,1,2,0:0:0:0:
320,192,157375,128,0,158856:0:0:0:0:
192,192,157745,1,2,0:0:0:0:
192,192,158115,1,2,0:0:0:0:
192,192,158486,1,2,0:0:0:0:
64,192,158856,128,2,160338:0:0:0:0:
448,192,158856,1,0,0:0:0:0:
448,192,159226,1,2,0:0:0:0:
448,192,159597,1,2,0:0:0:0:
448,192,159967,1,2,0:0:0:0:
192,192,160338,128,2,161819:0:0:0:0:
320,192,160338,1,0,0:0:0:0:
320,192,160708,1,2,0:0:0:0:
320,192,161078,1,2,0:0:0:0:
320,192,161449,1,2,0:0:0:0:
64,192,161819,1,2,0:0:0:0:
448,192,161819,128,0,163300:0:0:0:0:
64,192,162189,1,2,0:0:0:0:
64,192,162560,1,2,0:0:0:0:
64,192,162930,1,2,0:0:0:0:
192,192,163300,1,8,0:0:0:0:
320,192,163300,1,0,0:0:0:0:
192,192,163486,1,8,0:0:0:0:
448,192,163486,1,0,0:0:0:0:
64,192,163671,1,8,0:0:0:0:
448,192,163671,1,0,0:0:0:0:
64,192,163856,1,8,0:0:0:0:
320,192,163856,1,0,0:0:0:0:
448,192,164041,1,6,0:0:0:0:
320,192,164134,1,8,0:0:0:0:
64,192,164226,1,8,0:0:0:0:
192,192,164319,1,8,0:0:0:0:
448,192,164412,1,8,0:0:0:0:
320,192,164504,1,8,0:0:0:0:
192,192,164597,1,0,0:0:0:70:Tom2.wav
64,192,164689,1,0,0:0:0:70:Tom3.wav
192,192,164782,1,2,0:0:0:0:
320,192,164782,1,4,0:0:0:0:
448,192,164782,1,0,0:0:0:0:
64,192,164967,1,0,0:0:0:0:
192,192,165152,1,8,0:0:0:0:
320,192,165152,1,0,0:0:0:0:
448,192,165430,1,8,0:0:0:0:
64,192,165523,1,2,0:0:0:0:
192,192,165523,1,0,0:0:0:0:
64,192,165708,1,2,0:0:0:0:
192,192,165708,1,0,0:0:0:0:
320,192,165893,1,8,0:0:0:0:
448,192,165893,1,0,0:0:0:0:
192,192,166078,1,0,0:0:0:0:
64,192,166263,1,2,0:0:0:0:
320,192,166263,1,0,0:0:0:0:
448,192,166449,1,0,0:0:0:0:
192,192,166634,1,8,0:0:0:0:
320,192,166634,1,0,0:0:0:0:
64,192,166819,1,0,0:0:0:70:C#6S_Db6S_s.wav
320,192,166912,1,0,0:0:0:70:D#6S_Eb6S_s.wav
192,192,167004,1,2,0:0:0:0:
448,192,167004,1,0,0:0:0:70:F6S_s.wav
192,192,167189,1,2,0:0:0:0:
448,192,167189,1,0,0:0:0:0:
64,192,167375,1,8,0:0:0:0:
320,192,167375,1,0,0:0:0:0:
192,192,167560,1,0,0:0:0:0:
320,192,167745,1,2,0:0:0:0:
448,192,167745,1,0,0:0:0:0:
192,192,167930,1,0,0:0:0:0:
64,192,168115,1,8,0:0:0:0:
448,192,168115,1,0,0:0:0:0:
192,192,168300,1,0,0:0:0:0:
320,192,168393,1,8,0:0:0:0:
192,192,168486,1,2,0:0:0:0:
448,192,168486,1,0,0:0:0:0:
192,192,168671,1,2,0:0:0:0:
448,192,168671,1,0,0:0:0:0:
64,192,168856,1,8,0:0:0:0:
320,192,168856,1,0,0:0:0:0:
192,192,169041,1,0,0:0:0:0:
64,192,169226,1,2,0:0:0:0:
448,192,169226,1,0,0:0:0:0:
320,192,169412,1,0,0:0:0:0:
192,192,169597,1,8,0:0:0:0:
448,192,169597,1,0,0:0:0:0:
64,192,169967,1,2,0:0:0:0:
320,192,169967,1,0,0:0:0:0:
64,192,170152,1,2,0:0:0:0:
320,192,170152,1,0,0:0:0:0:
192,192,170338,1,8,0:0:0:0:
448,192,170338,1,0,0:0:0:0:
320,192,170523,1,8,0:0:0:0:
64,192,170708,1,2,0:0:0:0:
192,192,170708,1,4,0:0:0:0:
64,192,171078,1,8,0:0:0:0:
448,192,171078,1,0,0:0:0:0:
320,192,171263,1,0,0:0:0:0:
448,192,171356,1,0,0:0:0:0:
64,192,171449,1,2,0:0:0:0:
192,192,171449,1,0,0:0:0:0:
64,192,171634,1,2,0:0:0:0:
192,192,171634,1,0,0:0:0:0:
320,192,171819,1,8,0:0:0:0:
448,192,171819,1,0,0:0:0:0:
64,192,172004,1,2,0:0:0:0:
448,192,172004,1,0,0:0:0:0:
320,192,172097,1,8,0:0:0:0:
64,192,172189,128,2,172560:0:0:0:0:
192,192,172189,1,4,0:0:0:0:
320,192,172375,1,0,0:0:0:0:
448,192,172560,1,8,0:0:0:0:
64,192,172745,1,4,0:0:0:0:
192,192,172745,128,2,173115:0:0:0:0:
320,192,173115,1,2,0:0:0:0:
448,192,173115,1,0,0:0:0:0:
64,192,173300,1,8,0:0:0:0:
448,192,173300,1,0,0:0:0:0:
64,192,173486,128,2,174782:0:0:0:0:
320,192,173486,1,4,0:0:0:0:
448,192,173856,1,2,0:0:0:0:
192,192,174041,1,8,0:0:0:0:
320,192,174041,1,0,0:0:0:70:D#6S_Eb6S_s.wav
448,192,174226,1,2,0:0:0:0:
320,192,174412,1,0,0:0:0:70:C#6S_Db6S_s.wav
192,192,174597,1,2,0:0:0:0:
192,192,174782,128,8,175152:0:0:0:0:
448,192,174782,1,0,0:0:0:70:G#5S_Ab5S_s.wav
64,192,175152,1,2,0:0:0:0:
448,192,175152,128,4,175523:0:0:0:0:
192,192,175338,1,2,0:0:0:0:
64,192,175523,1,8,0:0:0:0:
320,192,175523,1,0,0:0:0:0:
64,192,175708,128,2,176263:0:0:0:0:
448,192,175708,1,4,0:0:0:0:
320,192,176078,1,2,0:0:0:0:
192,192,176263,1,8,0:0:0:0:
448,192,176263,1,0,0:0:0:0:
320,192,176449,1,8,0:0:0:0:
448,192,176449,1,0,0:0:0:0:
64,192,176634,1,2,0:0:0:0:
320,192,176634,1,4,0:0:0:0:
192,192,176819,1,0,0:0:0:0:
64,192,177004,1,8,0:0:0:0:
320,192,177004,1,0,0:0:0:0:
448,192,177189,1,2,0:0:0:0:
64,192,177375,1,8,0:0:0:0:
192,192,177375,1,0,0:0:0:0:
320,192,177560,1,2,0:0:0:0:
192,192,177745,1,8,0:0:0:0:
448,192,177745,1,0,0:0:0:0:
64,192,177930,1,2,0:0:0:0:
320,192,178115,1,2,0:0:0:0:
448,192,178115,1,0,0:0:0:0:
192,192,178300,1,0,0:0:0:0:
64,192,178486,1,8,0:0:0:0:
320,192,178486,1,0,0:0:0:0:
448,192,178671,1,2,0:0:0:0:
64,192,178856,1,8,0:0:0:0:
192,192,178856,1,0,0:0:0:0:
320,192,179041,1,2,0:0:0:0:
192,192,179226,1,8,0:0:0:0:
448,192,179226,1,0,0:0:0:0:
64,192,179412,1,0,0:0:0:0:
192,192,179597,1,2,0:0:0:0:
320,192,179597,1,4,0:0:0:0:
448,192,179782,1,0,0:0:0:0:
64,192,179967,1,8,0:0:0:0:
192,192,179967,1,0,0:0:0:0:
448,192,180152,1,2,0:0:0:0:
192,192,180338,1,8,0:0:0:0:
320,192,180338,1,0,0:0:0:0:
192,192,180523,1,2,0:0:0:0:
64,192,180708,1,8,0:0:0:0:
448,192,180708,1,0,0:0:0:0:
320,192,180893,1,2,0:0:0:0:
64,192,181078,1,8,0:0:0:0:
192,192,181078,1,4,0:0:0:0:
448,192,181078,1,0,0:0:0:0:
320,192,181263,1,2,0:0:0:0:
64,192,181449,1,8,0:0:0:0:
448,192,181449,1,0,0:0:0:0:
192,192,181634,1,2,0:0:0:0:
64,192,181819,1,4,0:0:0:0:
320,192,181819,1,8,0:0:0:0:
448,192,181819,1,0,0:0:0:0:
320,192,182004,1,0,0:0:0:0:
64,192,182189,1,8,0:0:0:0:
192,192,182189,1,4,0:0:0:0:
448,192,182189,1,0,0:0:0:0:
320,192,182375,1,2,0:0:0:0:
64,192,182560,1,2,0:0:0:0:
192,192,182560,1,4,0:0:0:0:
320,192,182745,1,2,0:0:0:0:
192,192,182930,1,0,0:0:0:70:HHOpen.wav
448,192,182930,1,0,0:0:0:0:
320,192,183115,1,8,0:0:0:0:
192,192,183208,1,8,0:0:0:0:
64,192,183300,1,8,0:0:0:0:
448,192,183300,1,0,0:0:0:0:
192,192,183671,1,0,0:0:0:70:HHOpen.wav
320,192,183671,1,0,0:0:0:0:
64,192,184041,1,8,0:0:0:0:
320,192,184041,1,0,0:0:0:0:
64,192,184226,1,8,0:0:0:0:
320,192,184226,1,0,0:0:0:0:
192,192,184412,1,8,0:0:0:0:
448,192,184412,1,0,0:0:0:0:
192,192,184597,1,8,0:0:0:0:
448,192,184597,1,0,0:0:0:0:
64,192,186634,1,2,0:0:0:70:soft-hitclap1.wav
448,192,186634,1,0,0:0:0:0:
64,192,187004,128,2,187745:0:0:0:0:
192,192,187004,1,4,0:0:0:0:
320,192,187004,1,0,0:0:0:0:
448,192,187375,1,8,0:0:0:0:
192,192,187560,128,0,187745:0:0:0:0:
448,192,187745,128,2,188486:0:0:0:0:
320,192,187930,1,2,0:0:0:0:
192,192,188115,1,8,0:0:0:0:
320,192,188300,1,0,0:0:0:0:
64,192,188486,128,2,189041:0:0:0:0:
192,192,188486,1,0,0:0:0:70:Ride.wav
448,192,188856,1,8,0:0:0:0:
192,192,189041,128,0,189412:0:0:0:0:
320,192,189226,1,2,0:0:0:0:
320,192,189412,128,2,189782:0:0:0:0:
64,192,189597,1,8,0:0:0:0:
448,192,189782,128,0,189967:0:0:0:0:
64,192,189967,128,2,190523:0:0:0:0:
192,192,189967,1,4,0:0:0:0:
320,192,190338,1,8,0:0:0:0:
192,192,190523,128,0,190893:0:0:0:0:
448,192,190708,1,2,0:0:0:0:
448,192,190893,128,2,191263:0:0:0:0:
64,192,191078,1,8,0:0:0:0:
320,192,191263,128,0,191449:0:0:0:0:
64,192,191449,128,2,192004:0:0:0:0:
192,192,191449,1,0,0:0:0:70:Ride.wav
448,192,191819,1,8,0:0:0:0:
320,192,192004,128,0,192189:0:0:0:0:
192,192,192189,1,2,0:0:0:0:
64,192,192375,128,2,192560:0:0:0:0:
448,192,192375,1,0,0:0:0:0:
320,192,192560,128,8,192930:0:0:0:0:
448,192,192745,1,8,0:0:0:0:
64,192,192930,1,2,0:0:0:0:
192,192,192930,1,4,0:0:0:0:
320,192,193115,1,0,0:0:0:0:
192,192,193208,1,0,0:0:0:0:
64,192,193300,1,8,0:0:0:0:
448,192,193393,1,0,0:0:0:0:
320,192,193486,1,0,0:0:0:0:
192,192,193578,1,8,0:0:0:0:
64,192,193671,1,2,0:0:0:0:
320,192,193671,1,0,0:0:0:70:Ride.wav
64,192,193856,1,2,0:0:0:0:
320,192,193856,1,0,0:0:0:0:
192,192,194041,1,8,0:0:0:0:
448,192,194041,1,0,0:0:0:0:
320,192,194226,1,2,0:0:0:0:
448,192,194319,1,8,0:0:0:0:
64,192,194412,1,2,0:0:0:0:
192,192,194412,1,4,0:0:0:0:
320,192,194782,1,8,0:0:0:0:
448,192,194782,1,0,0:0:0:0:
64,192,194967,1,2,0:0:0:0:
192,192,194967,128,4,195523:0:0:0:0:
448,192,195338,1,2,0:0:0:0:
64,192,195523,1,8,0:0:0:0:
320,192,195523,1,0,0:0:0:0:
64,192,195708,1,2,0:0:0:0:
448,192,195708,128,4,196263:0:0:0:0:
192,192,196078,1,2,0:0:0:0:
64,192,196263,1,8,0:0:0:0:
320,192,196263,1,0,0:0:0:70:D#6S_Eb6S_s.wav
192,192,196449,1,2,0:0:0:0:
320,192,196634,1,0,0:0:0:70:Ride.wav
448,192,196634,1,0,0:0:0:70:C#6S_Db6S_s.wav
64,192,196819,128,2,197004:0:0:0:0:
320,192,196819,1,0,0:0:0:70:G#5S_Ab5S_s.wav
192,192,197004,1,8,0:0:0:0:
448,192,197004,1,0,0:0:0:70:G#5S_Ab5S_s.wav
320,192,197189,1,0,0:0:0:0:
64,192,197375,1,2,0:0:0:0:
448,192,197375,1,4,0:0:0:0:
192,192,197560,1,2,0:0:0:0:
320,192,197560,1,0,0:0:0:0:
64,192,197745,1,8,0:0:0:0:
448,192,197745,1,0,0:0:0:0:
192,192,197930,1,2,0:0:0:0:
448,192,197930,128,4,198486:0:0:0:0:
192,192,198300,1,2,0:0:0:0:
64,192,198486,1,8,0:0:0:0:
320,192,198486,1,0,0:0:0:0:
64,192,198671,1,8,0:0:0:0:
448,192,198671,1,0,0:0:0:0:
192,192,198856,128,2,199226:0:0:0:0:
320,192,198856,1,4,0:0:0:0:
64,192,199226,1,8,0:0:0:0:
448,192,199226,1,0,0:0:0:0:
320,192,199412,1,0,0:0:0:0:
192,192,199504,1,8,0:0:0:0:
320,192,199597,1,2,0:0:0:0:
448,192,199597,1,0,0:0:0:70:Ride.wav
64,192,199782,1,2,0:0:0:0:
192,192,199782,1,0,0:0:0:0:
64,192,199967,1,8,0:0:0:0:
448,192,199967,1,0,0:0:0:0:
192,192,200152,1,0,0:0:0:0:
320,192,200245,1,8,0:0:0:0:
64,192,200338,1,2,0:0:0:0:
448,192,200338,128,0,200615:0:0:0:70:Ride.wav
64,192,200615,128,0,200893:0:0:0:0:
320,192,200708,1,8,0:0:0:0:
192,192,200893,128,0,201078:0:0:0:0:
320,192,201078,128,2,201356:0:0:0:0:
448,192,201356,128,0,201634:0:0:0:0:
64,192,201449,1,8,0:0:0:0:
192,192,201449,1,4,0:0:0:0:
320,192,201634,128,0,201819:0:0:0:0:
192,192,201819,128,2,202189:0:0:0:0:
448,192,201819,1,4,0:0:0:0:
64,192,202189,1,8,0:0:0:0:
320,192,202189,1,0,0:0:0:0:
448,192,202375,128,0,202745:0:0:0:0:
64,192,202467,1,8,0:0:0:0:
192,192,202560,1,2,0:0:0:0:
192,192,202745,1,2,0:0:0:0:
320,192,202745,128,0,203115:0:0:0:0:
64,192,202930,1,8,0:0:0:0:
64,192,203115,128,0,203300:0:0:0:0:
192,192,203300,128,2,203856:0:0:0:0:
448,192,203300,1,0,0:0:0:0:
320,192,203486,1,2,0:0:0:0:
64,192,203671,1,8,0:0:0:0:
448,192,203671,1,0,0:0:0:0:
320,192,203856,1,0,0:0:0:0:
64,192,204041,1,2,0:0:0:0:
448,192,204041,1,0,0:0:0:0:
192,192,204226,1,2,0:0:0:0:
64,192,204412,1,8,0:0:0:0:
192,192,204412,1,4,0:0:0:0:
448,192,204412,1,0,0:0:0:0:
320,192,204597,1,2,0:0:0:0:
64,192,204782,128,2,206263:0:0:0:0:
192,192,204782,1,4,0:0:0:0:
448,192,205152,1,0,0:0:0:70:HHOpen.wav
192,192,205338,1,2,0:0:0:0:
320,192,205523,1,8,0:0:0:0:
448,192,205523,1,0,0:0:0:70:HHOpen.wav
192,192,205708,1,2,0:0:0:0:
320,192,205893,1,0,0:0:0:70:HHOpen.wav
448,192,205893,1,0,0:0:0:0:
320,192,206078,1,2,0:0:0:0:
192,192,206263,1,2,0:0:0:0:
448,192,206263,1,0,0:0:0:0:
192,192,206449,1,8,0:0:0:0:
320,192,206449,1,0,0:0:0:0:
64,192,206634,1,8,0:0:0:0:
448,192,206634,1,2,0:0:0:0:
192,192,206819,1,8,0:0:0:0:
320,192,206819,1,0,0:0:0:0:
192,192,207375,1,8,0:0:0:0:
320,192,207375,1,0,0:0:0:0:
64,192,207560,128,2,213671:0:0:0:0:
448,192,207560,128,4,213671:0:0:0:0:
