osu file format v14

[General]
AudioFilename: audio.mp3
AudioLeadIn: 0
PreviewTime: 209431
Countdown: 0
SampleSet: Soft
StackLeniency: 0.7
Mode: 0
LetterboxInBreaks: 0
WidescreenStoryboard: 0

[Editor]
Bookmarks: 33888,38002,55831,66802,121659,165545,187488,209431,231374,242345,262916
DistanceSpacing: 2
BeatDivisor: 4
GridSize: 16
TimelineZoom: 4.099998

[Metadata]
Title:ARiA
TitleUnicode:ARiA
Artist:tokuP
ArtistUnicode:とくP
Creator:_lai
Version:Miracle
Source:
Tags:vocaloid novelty japanese 初音ミク Hatsune Miku birthia garnidelia 2015 headphone tokyo exit tunes supernova 2 2010
BeatmapID:2244599
BeatmapSetID:1072413

[Difficulty]
HPDrainRate:6
CircleSize:4
OverallDifficulty:8
ApproachRate:9
SliderMultiplier:1
SliderTickRate:1

[Events]
//Background and Video events
0,0,"bg.jpg",0,0
//Break Periods
//Storyboard Layer 0 (Background)
//Storyboard Layer 1 (Fail)
//Storyboard Layer 2 (Pass)
//Storyboard Layer 3 (Foreground)
//Storyboard Layer 4 (Overlay)
//Storyboard Sound Samples

[TimingPoints]
974,342.857142857143,4,2,2,30,1,0
974,-100,4,2,2,30,0,0
12631,-100,4,2,2,40,0,0
33888,-76.9230769230769,4,2,1,50,0,0
55831,-66.6666666666667,4,2,1,60,0,0
65945,-50,4,2,1,60,0,0
66459,-100,4,2,1,60,0,0
66802,-58.8235294117647,4,2,1,70,0,1
76231,-58.8235294117647,4,2,3,70,0,1
76316,-58.8235294117647,4,2,1,70,0,1
76745,-58.8235294117647,4,2,3,70,0,1
76831,-58.8235294117647,4,2,1,70,0,1
84459,-50,4,2,3,70,0,1
84716,-50,4,2,3,5,0,1
84802,-50,4,2,3,70,0,1
85059,-50,4,2,3,5,0,1
85145,-50,4,2,3,70,0,1
85488,-58.8235294117647,4,2,1,70,0,1
88745,-100,4,2,1,60,0,0
90116,-100,4,2,2,40,0,0
94231,-76.9230769230769,4,2,1,50,0,0
99374,-133.333333333333,4,2,1,60,0,0
99716,-76.9230769230769,4,2,1,50,0,0
105545,-50,4,2,1,50,0,0
106002,-66.6666666666667,4,2,1,40,0,0
106459,-76.9230769230769,4,2,1,30,0,0
106916,-76.9230769230769,4,2,1,50,0,0
121316,-50,4,2,1,50,0,0
121659,-66.6666666666667,4,2,1,60,0,0
131088,-100,4,2,1,60,0,0
131431,-66.6666666666667,4,2,1,60,0,0
132288,-100,4,2,1,60,0,0
132631,-58.8235294117647,4,2,1,70,0,1
142059,-58.8235294117647,4,2,3,70,0,1
142231,-58.8235294117647,4,2,1,70,0,1
142574,-58.8235294117647,4,3,3,70,0,1
142745,-58.8235294117647,4,2,1,70,0,1
150288,-50,4,2,3,70,0,1
150545,-50,4,2,3,5,0,1
150631,-50,4,2,3,70,0,1
150888,-50,4,2,3,5,0,1
150974,-50,4,2,3,70,0,1
151316,-58.8235294117647,4,2,1,70,0,1
154574,-58.8235294117647,4,2,1,70,0,0
156974,-100,4,2,1,70,0,0
157316,-58.8235294117647,4,2,1,70,0,0
159716,-100,4,2,1,70,0,0
160059,-58.8235294117647,4,2,1,70,0,0
165545,-76.9230769230769,4,2,1,50,0,0
187488,-100,4,2,2,40,0,0
198459,-100,4,2,1,40,0,0
208059,-100,4,2,1,50,0,0
208745,-58.8235294117647,4,2,1,60,0,0
209088,-100,4,2,1,60,0,0
209431,-58.8235294117647,4,2,1,70,0,1
218859,-58.8235294117647,4,2,3,70,0,1
218945,-58.8235294117647,4,2,1,70,0,1
219374,-58.8235294117647,4,2,3,70,0,1
219545,-58.8235294117647,4,2,1,70,0,1
227088,-50,4,2,3,70,0,1
227345,-50,4,2,3,5,0,1
227431,-50,4,2,3,70,0,1
227688,-50,4,2,3,5,0,1
227774,-50,4,2,3,70,0,1
228031,-50,4,2,3,5,0,1
228116,-58.8235294117647,4,2,1,70,0,1
230859,-58.8235294117647,4,2,1,80,0,1
231202,-58.8235294117647,4,2,1,90,0,1
231374,-100,4,2,2,50,0,0
231459,-100,4,2,2,5,0,0
232402,-100,4,2,2,50,0,0
234116,-133.333333333333,4,2,2,40,0,0
234202,-133.333333333333,4,2,2,5,0,0
235145,-133.333333333333,4,2,2,40,0,0
236859,-526.315789473684,4,2,2,30,0,0
236945,-526.315789473684,4,2,2,5,0,0
239602,-526.315789473684,4,2,2,30,0,0
242345,-76.9230769230769,4,2,1,60,0,0
253316,-76.9230769230769,4,2,1,50,0,0
256059,-76.9230769230769,4,2,1,40,0,0
257431,-76.9230769230769,4,2,1,30,0,0
258802,-76.9230769230769,4,2,1,20,0,0
260174,-76.9230769230769,4,2,1,10,0,0
261545,-76.9230769230769,4,2,1,5,0,0

[Colours]
Combo1 : 255,222,121
Combo2 : 128,181,253
Combo3 : 240,230,237
Combo4 : 189,123,255
Combo5 : 252,209,41

[HitObjects]
46,142,973,6,0,P|115:133|157:142,1,100,6|0,0:0|0:0,0:0:0:0:
148,238,1488,1,0,0:0:0:0:
148,238,1659,2,0,P|79:247|37:238,1,100
241,182,2345,5,0,0:0:0:0:
381,193,2516,1,0,0:0:0:0:
305,258,2688,1,0,0:0:0:0:
317,117,3031,2,0,P|326:52|342:13,1,100
338,20,3545,1,0,0:0:0:0:
240,37,3716,6,0,P|190:41|140:41,1,100,6|0,0:0|0:0,0:0:0:0:
55,96,4231,2,0,P|39:43|52:-4,2,100
135,155,5088,38,0,P|142:214|144:269,1,100
315,358,5774,1,0,0:0:0:0:
252,280,5945,2,0,P|309:284|363:259,1,100
337,172,6459,6,0,P|333:229|358:283,1,100,6|0,0:0|0:0,0:0:0:0:
448,260,6974,1,0,0:0:0:0:
448,260,7145,2,0,P|452:203|427:149,1,100
296,35,7831,5,0,0:0:0:0:
106,43,8002,1,0,0:0:0:0:
201,39,8174,1,0,0:0:0:0:
106,141,8516,2,0,L|106:248,1,100
106,241,9031,1,0,0:0:0:0:
141,336,9202,38,0,P|189:344|246:334,1,100,6|0,0:0|0:0,0:0:0:0:
302,264,9716,2,0,P|351:256|400:264,1,100
480,317,10231,2,0,L|490:376,1,50
393,364,10574,6,0,L|401:254,1,100
337,84,11259,1,0,0:0:0:0:
387,164,11431,2,0,P|331:177|277:157,1,100
224,233,11945,6,0,L|119:241,1,100,6|0,0:0|0:0,0:0:0:0:
124,240,12459,1,0,0:0:0:0:
51,301,12631,2,0,P|31:257|36:208,2,100
163,148,13659,1,0,0:0:0:0:
77,105,13831,2,0,P|75:59|157:5,1,150
262,160,14688,37,6,0:0:0:0:
276,173,15374,2,0,P|264:223|285:282,1,100
467,276,16059,2,0,P|479:226|458:167,1,100
276,173,16745,1,0,0:0:0:0:
376,14,17088,1,0,0:0:0:0:
466,180,17431,1,6,0:0:0:0:
375,121,18116,5,0,0:0:0:0:
375,121,18459,1,0,0:0:0:0:
375,121,18802,2,0,P|318:114|262:140,1,100
215,57,19316,2,0,L|56:70,1,150
43,258,20174,5,6,0:0:0:0:
40,277,20859,2,0,P|96:273|143:285,1,100
322,362,21545,2,0,P|266:366|219:354,1,100
40,277,22231,1,0,0:0:0:0:
103,87,22574,1,0,0:0:0:0:
233,237,22916,1,6,0:0:0:0:
45,199,23602,53,0,0:0:0:0:
45,199,23945,1,0,0:0:0:0:
45,199,24288,2,0,P|89:189|153:207,1,100,0|0,0:0|0:0,0:0:0:0:
197,118,24802,2,0,L|359:122,1,150,0|0,0:0|0:0,0:0:0:0:
470,279,25659,5,6,0:0:0:0:
489,284,26345,2,0,P|492:330|488:392,1,100,0|0,0:0|0:0,0:0:0:0:
288,383,27031,2,0,P|285:337|289:275,1,100,0|0,0:0|0:0,0:0:0:0:
371,227,27545,2,0,P|288:244|212:207,1,150,0|0,0:0|0:0,0:0:0:0:
113,58,28402,53,6,0:0:0:0:
181,0,29088,1,0,0:0:0:0:
181,0,29431,1,0,0:0:0:0:
181,0,29774,2,0,P|244:8|296:7,1,100,0|0,0:0|0:0,0:0:0:0:
334,92,30288,2,0,P|295:142|270:188,1,100,0|0,0:0|0:0,0:0:0:0:
177,180,30802,2,0,P|152:121|125:76,1,100,0|6,0:0|0:0,0:0:0:0:
134,89,31831,5,0,0:0:0:0:
334,92,32174,1,0,0:0:0:0:
228,261,32516,37,0,0:0:0:0:
366,203,32859,1,0,0:0:0:0:
446,329,33202,5,0,0:0:0:0:
483,238,33545,1,0,0:0:0:0:
228,183,33888,6,0,P|298:177|361:201,1,129.999994049073,6|0,0:0|0:0,0:0:0:0:
426,304,34402,1,0,0:0:0:0:
353,196,34574,2,0,P|348:149|353:110,1,64.9999970245363,2|0,0:0|0:0,0:0:0:0:
477,118,34916,2,0,P|481:164|477:204,1,64.9999970245363,2|0,0:0|0:0,0:0:0:0:
353,196,35259,54,0,P|419:181|484:184,1,129.999994049073,2|2,0:0|0:0,0:0:0:0:
426,302,35774,1,2,0:0:0:0:
426,302,35945,2,0,L|431:374,1,64.9999970245363
499,256,36288,2,0,P|458:222|412:216,1,97.4999955368044,2|0,0:0|0:0,0:0:0:0:
382,211,36631,2,0,L|240:220,1,129.999994049073,2|0,0:0|0:0,0:0:0:0:
142,290,37145,53,0,0:0:0:0:
142,290,37316,2,0,L|77:293,1,64.9999970245363,2|0,0:0|0:0,0:0:0:0:
68,163,37659,2,0,L|132:159,1,64.9999970245363,2|0,0:0|0:0,0:0:0:0:
252,219,38002,6,0,L|382:211,1,129.999994049073,2|2,0:0|0:0,0:0:0:0:
472,116,38516,1,0,0:0:0:0:
345,82,38688,2,0,P|341:31|346:8,1,64.9999970245363,2|0,0:0|0:0,0:0:0:0:
345,82,39031,2,0,P|242:74|225:77,1,97.4999955368044,2|0,0:0|0:0,0:0:0:0:
228,47,39374,2,0,L|87:43,1,129.999994049073,2|0,0:0|0:0,0:0:0:0:
5,134,39888,5,0,0:0:0:0:
5,134,40059,2,0,L|7:210,1,64.9999970245363,2|0,0:0|0:0,0:0:0:0:
119,133,40402,2,0,L|117:209,1,64.9999970245363,2|0,0:0|0:0,0:0:0:0:
36,300,40745,38,0,B|74:275|74:275|176:279,1,129.999994049073,2|2,0:0|0:0,0:0:0:0:
265,352,41259,2,0,L|401:361,1,129.999994049073,2|0,0:0|0:0,0:0:0:0:
495,276,41774,2,0,L|505:210,1,64.9999970245363,2|0,0:0|0:0,0:0:0:0:
383,166,42116,1,2,0:0:0:0:
372,158,42459,2,0,L|362:92,1,64.9999970245363,2|0,0:0|0:0,0:0:0:0:
482,42,42802,1,2,0:0:0:0:
482,42,42974,2,0,P|430:65|334:49,1,129.999994049073,2|0,0:0|0:0,0:0:0:0:
214,16,43488,6,0,P|261:16|292:24,1,64.9999970245363,2|0,0:0|0:0,0:0:0:0:
248,166,43831,2,0,P|281:132|308:116,1,64.9999970245363,2|0,0:0|0:0,0:0:0:0:
367,207,44174,6,0,P|399:201|431:203,1,64.9999970245363,2|0,0:0|0:0,0:0:0:0:
349,311,44517,2,0,P|375:329|397:353,1,64.9999970245363,2|0,0:0|0:0,0:0:0:0:
218,381,44859,38,0,L|78:384,1,129.999994049073,2|0,0:0|0:0,0:0:0:0:
21,270,45374,1,0,0:0:0:0:
21,270,45545,2,0,P|11:191|11:139,1,129.999994049073,2|2,0:0|0:0,0:0:0:0:
79,30,46059,1,0,0:0:0:0:
209,36,46231,6,0,P|165:50|145:129,1,129.999994049073,2|2,0:0|0:0,0:0:0:0:
249,199,46745,2,0,P|293:185|313:106,1,129.999994049073,2|0,0:0|0:0,0:0:0:0:
411,23,47259,2,0,L|336:16,1,64.9999970245363,2|0,0:0|0:0,0:0:0:0:
414,127,47602,5,2,0:0:0:0:
421,137,47945,2,0,L|426:220,1,64.9999970245363
493,313,48288,2,0,P|411:309|350:323,1,129.999994049073,2|2,0:0|0:0,0:0:0:0:
246,373,48802,1,0,0:0:0:0:
116,354,48974,38,0,P|176:330|183:272,1,129.999994049073,2|2,0:0|0:0,0:0:0:0:
55,300,49488,2,0,P|63:238|121:217,1,129.999994049073,2|0,0:0|0:0,0:0:0:0:
5,158,50002,2,0,L|1:77,1,64.9999970245363,2|0,0:0|0:0,0:0:0:0:
118,34,50345,5,2,0:0:0:0:
130,29,50688,2,0,L|214:23,1,64.9999970245363
294,108,51031,2,0,P|362:97|408:147,1,129.999994049073,2|2,0:0|0:0,0:0:0:0:
506,54,51545,1,0,0:0:0:0:
506,54,51716,6,0,L|496:189,1,129.999994049073,2|2,0:0|0:0,0:0:0:0:
376,236,52231,2,0,P|308:247|262:197,1,129.999994049073,2|0,0:0|0:0,0:0:0:0:
178,305,52745,2,0,L|166:376,1,64.9999970245363,2|0,0:0|0:0,0:0:0:0:
92,261,53088,37,2,0:0:0:0:
83,250,53431,2,0,L|71:179,1,64.9999970245363
8,71,53774,2,0,P|57:83|100:67,1,97.4999955368044,2|0,0:0|0:0,0:0:0:0:
124,46,54116,2,0,L|134:121,1,64.9999970245363,2|0,0:0|0:0,0:0:0:0:
238,187,54459,6,0,L|323:197,1,64.9999970245363,2|0,0:0|0:0,0:0:0:0:
431,214,54802,2,0,L|516:224,1,64.9999970245363,2|0,0:0|0:0,0:0:0:0:
381,284,55145,1,2,0:0:0:0:
374,154,55316,1,0,0:0:0:0:
374,154,55488,2,0,P|373:114|387:50,1,97.4999955368044,2|0,0:0|0:0,0:0:0:0:
439,6,55831,6,0,P|380:20|310:-4,1,112.500004291535,4|0,0:3|0:0,0:0:0:0:
263,48,56174,2,0,P|219:43|174:45,1,75.0000028610231,4|0,0:3|0:0,0:0:0:0:
56,114,56516,1,4,0:3:0:0:
202,147,56688,1,0,0:0:0:0:
101,265,56859,1,4,0:3:0:0:
250,288,57031,1,0,0:0:0:0:
183,234,57202,38,0,P|174:291|177:378,1,112.500004291535,4|0,0:3|0:0,0:0:0:0:
173,345,57545,1,4,0:3:0:0:
322,339,57716,2,0,P|327:295|325:250,1,75.0000028610231,0|4,0:0|0:3,0:0:0:0:
183,234,58059,1,0,0:0:0:0:
36,201,58231,1,4,0:3:0:0:
145,98,58402,1,0,1:0:0:0:
56,27,58574,6,0,B|137:-1|137:-1|226:16,1,150.000005722046,4|4,0:1|0:3,0:0:0:0:
356,7,59088,1,0,0:0:0:0:
356,7,59174,1,0,0:0:0:0:
356,7,59259,2,0,L|364:89,1,75.0000028610231,4|0,0:3|0:0,0:0:0:0:
381,231,59602,1,4,0:3:0:0:
305,370,59774,1,0,0:0:0:0:
416,321,59945,1,4,0:3:0:0:
288,245,60116,5,0,0:0:0:0:
176,346,60288,1,4,0:3:0:0:
305,370,60459,1,0,0:0:0:0:
30,219,60631,37,4,0:3:0:0:
167,137,60802,1,8,0:3:0:0:
288,245,60974,1,4,0:3:0:0:
149,271,61145,1,0,0:0:0:0:
229,335,61316,6,0,P|159:318|98:358,1,150.000005722046,4|4,0:1|0:3,0:0:0:0:
18,230,61831,2,0,L|21:267,1,37.5000014305115
18,230,62002,2,0,P|73:225|98:196,1,75.0000028610231,4|0,0:3|0:0,0:0:0:0:
183,98,62345,1,4,0:3:0:0:
33,87,62516,2,0,L|107:92,1,75.0000028610231,0|4,0:0|0:3,0:0:0:0:
258,101,62859,1,0,0:0:0:0:
398,46,63031,2,0,B|377:61|377:61|371:191,1,150.000005722046,4|4,0:3|0:3,0:0:0:0:
461,312,63545,5,0,0:0:0:0:
461,312,63716,1,4,0:3:0:0:
311,298,63888,1,0,1:0:0:0:
181,228,64059,38,4,P|217:268|188:362,1,150.000005722046,4|4,0:3|0:3,0:0:0:0:
46,374,64574,2,0,P|9:333|38:239,1,150.000005722046
91,107,65088,2,0,L|95:149,1,37.5000014305115,4|0,0:3|0:0,0:0:0:0:
159,69,65259,2,0,L|4:68,1,150.000005722046,0|4,1:0|0:3,0:0:0:0:
114,294,65774,5,0,1:0:0:0:
114,294,65859,1,0,1:0:0:0:
114,294,65945,2,0,L|120:344,1,50,4|4,0:3|0:3,0:0:0:0:
98,185,66116,5,4,0:3:0:0:
372,156,66288,1,4,0:3:0:0:
212,185,66459,54,0,B|215:130|215:130|201:117,1,75,12|0,0:1|0:0,0:0:0:0:
235,268,66802,54,0,P|307:268|345:326,1,127.50000243187,4|0,0:1|0:0,0:0:0:0:
352,347,67145,1,0,1:0:0:0:
470,225,67316,1,0,0:0:0:0:
354,99,67488,1,4,0:3:0:0:
354,99,67659,2,0,P|372:157|441:143,1,127.50000243187,4|0,0:3|0:0,0:0:0:0:
450,117,68002,6,0,P|458:63|471:35,1,85.0000016212464,0|0,1:0|0:0,0:0:0:0:
497,204,68345,1,4,0:3:0:0:
480,373,68516,2,0,L|488:272,1,85.0000016212464,0|0,1:0|0:0,0:0:0:0:
345,383,68859,1,4,0:3:0:0:
268,236,69031,5,4,0:3:0:0:
189,268,69202,1,0,1:0:0:0:
113,227,69374,1,4,0:3:0:0:
40,73,69545,38,0,P|122:86|163:51,1,127.50000243187,4|0,0:3|0:0,0:0:0:0:
175,25,69888,1,0,1:0:0:0:
223,187,70059,1,0,0:0:0:0:
223,187,70231,2,0,P|219:135|240:87,1,85.0000016212464,4|4,0:3|0:3,0:0:0:0:
390,50,70574,1,0,0:0:0:0:
229,104,70745,1,0,1:0:0:0:
336,235,70916,6,0,P|311:286|316:355,1,127.50000243187
316,355,71259,1,0,1:0:0:0:
145,362,71431,2,0,P|140:282|124:262,1,85.0000016212464,0|4,0:0|0:3,0:0:0:0:
138,280,71774,1,4,0:3:0:0:
20,157,71945,5,0,1:0:0:0:
4,196,72030,1,0,1:0:0:0:
31,229,72116,1,0,1:0:0:0:
72,229,72202,1,0,1:0:0:0:
96,196,72288,38,0,P|86:120|109:75,1,127.50000243187,4|0,0:1|0:0,0:0:0:0:
82,43,72631,2,0,L|178:51,1,85.0000016212464,0|0,1:0|0:0,0:0:0:0:
331,135,72974,1,4,0:3:0:0:
495,95,73145,2,0,P|444:66|374:75,1,127.50000243187,4|0,0:3|0:0,0:0:0:0:
341,51,73488,2,0,L|329:147,1,85.0000016212464,0|0,1:0|0:0,0:0:0:0:
231,274,73831,5,4,0:3:0:0:
380,353,74002,1,0,1:0:0:0:
380,353,74174,2,0,P|299:331|249:369,1,127.50000243187
264,349,74516,1,4,0:3:0:0:
94,365,74688,1,0,1:0:0:0:
38,204,74859,2,0,L|99:232,1,42.5000008106232
13,280,75031,6,0,L|171:268,1,127.50000243187,4|0,0:3|0:0,0:0:0:0:
182,268,75374,1,0,1:0:0:0:
323,175,75545,1,0,0:0:0:0:
195,63,75716,1,4,0:3:0:0:
195,63,75888,2,0,L|341:71,1,127.50000243187,4|0,0:3|0:0,0:0:0:0:
407,76,76231,38,0,L|481:82,1,42.5000008106232,4|0,1:2|0:0,0:0:0:0:
486,2,76402,2,0,L|472:112,1,85.0000016212464,0|4,0:0|0:3,0:0:0:0:
439,253,76745,2,0,B|444:210|444:210|332:232,1,127.50000243187,4|0,1:2|0:0,0:0:0:0:
313,296,77088,2,0,P|299:281|280:271,1,42.5000008106232,0|0,1:0|1:0,0:0:0:0:
226,205,77259,5,4,0:3:0:0:
201,240,77344,1,4,0:3:0:0:
195,281,77430,1,4,0:3:0:0:
210,321,77516,1,0,1:0:0:0:
242,348,77601,1,0,1:0:0:0:
283,357,77687,1,0,1:0:0:0:
324,345,77774,5,4,0:1:0:0:
280,271,77945,1,0,0:0:0:0:
111,289,78116,1,0,1:0:0:0:
33,136,78288,1,0,0:0:0:0:
202,118,78459,1,4,0:3:0:0:
127,159,78631,2,0,P|107:102|120:26,1,127.50000243187,4|0,0:3|0:0,0:0:0:0:
83,8,78974,38,0,L|169:5,1,85.0000016212464,0|0,1:0|0:0,0:0:0:0:
313,91,79316,1,4,0:3:0:0:
313,91,79488,2,0,L|317:194,1,85.0000016212464,0|0,1:0|0:0,0:0:0:0:
309,5,79831,1,4,0:3:0:0:
316,175,80002,5,4,0:3:0:0:
383,227,80174,1,0,1:0:0:0:
465,207,80345,1,4,0:3:0:0:
366,345,80516,6,0,P|271:334|225:361,1,127.50000243187,4|0,0:3|0:0,0:0:0:0:
263,307,80859,2,0,L|146:310,1,85.0000016212464,0|0,1:0|0:0,0:0:0:0:
16,363,81202,1,4,0:3:0:0:
16,363,81374,2,0,P|10:281|14:227,1,127.50000243187,4|0,0:3|0:0,0:0:0:0:
49,256,81716,2,0,L|52:149,1,85.0000016212464,0|0,1:0|0:0,0:0:0:0:
201,89,82059,37,4,0:3:0:0:
43,24,82231,1,0,1:0:0:0:
43,24,82402,2,0,P|108:24|121:91,1,127.50000243187
111,114,82745,1,4,0:3:0:0:
277,83,82916,2,0,L|269:165,1,42.5000008106232,0|0,1:0|1:0,0:0:0:0:
357,110,83088,2,0,L|439:118,1,42.5000008106232,0|0,1:0|1:0,0:0:0:0:
463,57,83259,6,0,B|442:64|442:64|416:122|479:188,1,127.50000243187,4|0,0:1|0:0,0:0:0:0:
498,148,83602,2,0,L|480:241,1,85.0000016212464,0|0,1:0|0:0,0:0:0:0:
315,194,83945,1,4,0:3:0:0:
315,194,84116,2,0,L|368:272,1,85.0000016212464,4|0,0:3|1:0,0:0:0:0:
220,359,84459,6,0,B|302:374|302:374|270:287,1,150,4|0,0:2|0:0,0:0:0:0:
362,264,84802,38,0,P|276:265|178:220,1,150,4|0,0:2|0:0,0:0:0:0:
129,194,85145,6,0,B|158:174|158:174|127:202|128:235,1,100,4|0,0:2|0:0,0:0:0:0:
220,359,85488,5,4,0:3:0:0:
63,294,85659,1,0,1:0:0:0:
35,125,85831,1,4,0:3:0:0:
35,125,86002,38,0,P|112:129|142:53,1,170.000003242493,4|0,0:3|1:0,0:0:0:0:
200,212,86516,1,0,0:0:0:0:
310,74,86688,1,4,0:3:0:0:
310,74,86859,2,0,P|306:151|382:181,1,170.000003242493,4|0,0:3|1:0,0:0:0:0:
382,180,87545,5,4,0:3:0:0:
382,180,87716,2,0,P|383:262|372:297,1,85.0000016212464,0|0,1:0|0:0,0:0:0:0:
213,290,88059,2,0,L|154:296,1,42.5000008106232,0|0,1:0|1:0,0:0:0:0:
224,364,88231,1,4,0:3:0:0:
262,346,88316,1,4,0:3:0:0:
285,311,88402,1,4,0:3:0:0:
285,270,88488,1,4,0:3:0:0:
262,234,88574,1,4,0:3:0:0:
70,308,88745,5,6,0:0:0:0:
70,308,90116,37,2,0:0:0:0:
133,230,90459,1,2,0:0:0:0:
133,230,90631,2,0,P|91:184|50:170,1,100,2|2,0:0|0:0,0:0:0:0:
206,185,91488,5,4,0:0:0:0:
206,185,92859,5,2,0:0:0:0:
305,174,93202,1,2,0:0:0:0:
305,174,93374,2,0,P|307:111|288:72,1,100,2|2,0:0|0:0,0:0:0:0:
389,194,94231,38,0,P|395:228|394:304,1,97.4999955368044,4|0,0:1|0:0,0:0:0:0:
414,317,94574,2,0,L|339:319,1,64.9999970245363,0|0,1:0|0:0,0:0:0:0:
222,346,94916,1,4,0:3:0:0:
222,346,95088,2,0,L|131:344,1,64.9999970245363,4|0,0:3|0:0,0:0:0:0:
25,291,95431,6,0,P|84:282|104:234,1,97.4999955368044,0|0,1:0|0:0,0:0:0:0:
103,220,95774,1,4,0:3:0:0:
209,145,95945,6,0,P|150:136|130:88,1,97.4999955368044,0|0,1:0|0:0,0:0:0:0:
131,74,96288,1,0,0:0:0:0:
251,25,96459,1,4,0:3:0:0:
251,25,96631,2,0,L|325:32,1,64.9999970245363,0|4,1:0|0:3,0:0:0:0:
418,111,96974,38,0,P|423:153|421:219,1,97.4999955368044,4|0,0:3|0:0,0:0:0:0:
441,233,97316,2,0,P|385:232|327:244,1,97.4999955368044,0|0,1:0|0:0,0:0:0:0:
318,258,97659,1,4,0:3:0:0:
318,258,97831,2,0,L|320:332,1,64.9999970245363,4|0,0:3|0:0,0:0:0:0:
194,359,98174,5,0,1:0:0:0:
66,327,98345,2,0,P|96:313|128:310,1,64.9999970245363,0|4,0:0|0:3,0:0:0:0:
60,199,98688,2,0,P|103:218|129:247,1,64.9999970245363,0|0,1:0|0:0,0:0:0:0:
122,99,99031,1,4,0:3:0:0:
122,99,99116,1,0,1:0:0:0:
122,99,99202,1,4,0:3:0:0:
224,164,99374,6,0,P|192:156|164:161,1,56.2500021457673,4|0,0:3|0:0,0:0:0:0:
168,165,99716,38,0,B|205:155|233:168|233:168|264:183|295:167,1,129.999994049073,4|0,0:1|1:0,0:0:0:0:
392,80,100402,1,4,0:3:0:0:
392,80,100574,2,0,P|402:125|392:179,1,97.4999955368044,4|0,0:3|0:0,0:0:0:0:
409,202,100916,2,0,L|313:209,1,64.9999970245363,0|0,1:0|0:0,0:0:0:0:
268,312,101259,1,4,0:3:0:0:
157,241,101431,2,0,L|253:248,1,64.9999970245363,0|0,1:0|0:0,0:0:0:0:
266,376,101774,2,0,P|269:329|261:283,1,64.9999970245363,0|4,0:0|0:3,0:0:0:0:
155,176,102116,2,0,P|153:208|157:241,1,64.9999970245363,0|0,1:0|0:0,0:0:0:0:
228,131,102459,6,0,P|154:140|108:90,2,129.999994049073,4|0|4,0:3|1:0|0:3,0:0:0:0:
317,36,103316,2,0,L|399:36,1,64.9999970245363,4|0,0:3|0:0,0:0:0:0:
454,144,103659,5,0,1:0:0:0:
378,250,103831,2,0,P|362:196|363:168,1,64.9999970245363,0|4,0:0|0:3,0:0:0:0:
316,309,104174,2,0,P|286:296|253:292,1,64.9999970245363,0|0,1:0|0:0,0:0:0:0:
279,166,104516,2,0,P|258:191|233:211,1,64.9999970245363,0|4,0:0|0:3,0:0:0:0:
122,280,104859,1,0,1:0:0:0:
24,193,105031,1,0,0:0:0:0:
24,193,105116,1,0,0:0:0:0:
24,193,105202,2,0,L|26:138,2,32.4999985122681,4|0|4,0:3|1:0|0:3,0:0:0:0:
192,14,105545,54,0,P|169:50|80:54,1,133.333333333333,0|0,1:0|1:0,0:0:0:0:
256,160,106002,6,0,P|214:169|148:109,1,100.000003814697,0|0,1:0|1:0,0:0:0:0:
205,312,106459,38,0,P|176:294|173:224,1,86.6666626993817,0|0,1:0|1:0,0:0:0:0:
328,304,106916,5,6,1:2:0:0:
328,304,107088,2,0,P|372:298|448:312,1,97.4999955368044
454,317,107431,1,4,0:3:0:0:
370,217,107602,1,0,1:0:0:0:
499,204,107774,1,0,0:0:0:0:
425,140,107945,6,0,P|419:93|425:40,1,97.4999955368044,4|0,0:3|0:0,0:0:0:0:
440,15,108288,2,0,L|349:16,1,64.9999970245363,0|0,1:0|0:0,0:0:0:0:
272,96,108631,1,4,0:3:0:0:
272,96,108802,2,0,P|217:88|186:98,1,64.9999970245363,4|0,0:3|0:0,0:0:0:0:
112,177,109145,1,0,1:0:0:0:
47,289,109316,38,0,P|43:244|52:218,1,64.9999970245363,0|4,0:0|0:3,0:0:0:0:
178,226,109659,2,0,P|182:271|173:297,1,64.9999970245363,0|0,1:0|0:0,0:0:0:0:
47,289,110002,1,4,0:3:0:0:
112,350,110174,1,0,1:0:0:0:
112,350,110259,1,0,1:0:0:0:
112,350,110345,1,0,1:0:0:0:
178,226,110516,1,0,1:0:0:0:
292,163,110688,6,0,P|245:157|186:96,1,129.999994049073,4|0,0:1|1:0,0:0:0:0:
297,30,111374,1,4,0:3:0:0:
297,30,111545,2,0,L|369:34,1,64.9999970245363,4|0,0:3|0:0,0:0:0:0:
472,103,111888,2,0,P|462:136|460:177,1,64.9999970245363,0|0,1:0|0:0,0:0:0:0:
395,280,112231,5,4,0:3:0:0:
284,348,112402,2,0,P|294:315|296:274,1,64.9999970245363,0|0,1:0|0:0,0:0:0:0:
215,182,112745,1,0,0:0:0:0:
132,233,112916,1,4,0:3:0:0:
158,327,113088,1,0,1:0:0:0:
43,265,113259,1,4,0:3:0:0:
107,151,113431,38,0,P|44:138|2:89,1,129.999994049073,4|0,0:3|1:0,0:0:0:0:
120,33,114116,1,4,0:3:0:0:
120,33,114287,2,0,L|184:29,1,64.9999970245363,4|0,0:3|0:0,0:0:0:0:
286,110,114631,6,0,P|303:41|299:29,1,64.9999970245363,2|0,1:3|0:0,0:0:0:0:
423,102,114974,2,0,P|406:33|410:21,1,64.9999970245363,2|0,0:3|0:0,0:0:0:0:
361,163,115316,2,0,L|366:266,1,97.4999955368044
368,292,115659,1,4,0:3:0:0:
271,204,115831,2,0,P|215:216|190:263,1,97.4999955368044,0|0,1:0|0:0,0:0:0:0:
178,275,116174,6,0,L|184:136,1,129.999994049073,4|0,0:3|1:0,0:0:0:0:
120,33,116859,1,4,0:3:0:0:
120,33,117030,2,0,L|192:37,1,64.9999970245363,4|0,0:3|0:0,0:0:0:0:
300,99,117374,1,0,1:0:0:0:
416,42,117545,38,0,P|441:96|442:150,1,97.4999955368044
440,165,117888,1,0,1:0:0:0:
399,288,118059,2,0,L|249:290,1,129.999994049073,0|4,0:0|0:3,0:0:0:0:
140,262,118574,2,0,L|147:191,1,64.9999970245363,0|4,1:0|0:3,0:0:0:0:
195,317,118916,5,4,0:3:0:0:
55,246,119259,2,0,L|62:175,1,64.9999970245363,0|0,1:0|0:0,0:0:0:0:
75,51,119602,1,4,0:3:0:0:
75,51,119774,2,0,L|158:60,1,64.9999970245363,4|0,0:3|0:0,0:0:0:0:
265,26,120116,2,0,P|274:67|266:100,1,64.9999970245363,0|0,1:0|0:0,0:0:0:0:
183,186,120459,1,4,0:3:0:0:
183,186,120631,2,0,P|246:169|315:177,1,129.999994049073,0|0,1:0|0:0,0:0:0:0:
381,282,121145,1,4,0:3:0:0:
381,282,121316,6,0,L|200:301,1,150,0|0,1:0|0:0,0:0:0:0:
194,304,121659,38,0,P|145:330|131:364,1,75.0000028610231,4|0,0:1|0:0,0:0:0:0:
4,272,122002,1,4,0:3:0:0:
112,162,122174,1,0,0:0:0:0:
112,162,122345,2,0,L|94:79,1,75.0000028610231,4|0,0:3|0:0,0:0:0:0:
227,14,122688,1,4,0:3:0:0:
96,88,122859,1,0,0:0:0:0:
198,88,123031,6,0,P|256:49|314:61,1,112.500004291535,4|0,0:3|0:0,0:0:0:0:
295,52,123374,1,4,0:3:0:0:
284,201,123545,2,0,L|276:291,1,75.0000028610231,0|4,0:0|0:3,0:0:0:0:
426,258,123888,1,0,0:0:0:0:
284,201,124059,1,4,0:3:0:0:
366,75,124231,1,0,1:0:0:0:
446,20,124402,6,0,L|440:146,1,112.500004291535,4|0,0:1|0:0,0:0:0:0:
468,158,124745,2,0,L|375:157,1,75.0000028610231,4|0,0:3|0:0,0:0:0:0:
281,258,125088,2,0,L|294:321,2,37.5000014305115,4|0|0,0:3|0:0|0:0,0:0:0:0:
137,211,125431,2,0,L|124:148,2,37.5000014305115,4|0|0,0:3|0:0|0:0,0:0:0:0:
62,341,125774,37,4,0:3:0:0:
131,367,125945,1,0,0:0:0:0:
204,350,126116,1,4,0:3:0:0:
256,296,126288,1,2,0:3:0:0:
359,187,126459,5,4,0:3:0:0:
283,159,126631,1,12,0:3:0:0:
203,177,126801,1,4,0:3:0:0:
146,237,126973,1,0,1:0:0:0:
166,87,127145,6,0,P|132:43|78:39,1,112.500004291535,4|0,0:1|0:0,0:0:0:0:
42,26,127488,2,0,L|54:113,1,75.0000028610231,4|0,0:3|0:0,0:0:0:0:
57,250,127831,2,0,P|121:227|208:234,1,150.000005722046,4|4,0:3|0:3,0:0:0:0:
323,320,128345,2,0,P|379:328|403:326,1,75.0000028610231,0|4,0:0|0:3,0:0:0:0:
476,199,128688,1,0,0:0:0:0:
479,49,128859,2,0,L|476:218,1,150.000005722046,4|4,0:3|0:3,0:0:0:0:
326,219,129374,37,8,0:3:0:0:
265,124,129545,1,4,0:3:0:0:
316,24,129716,1,4,0:3:0:0:
378,114,129888,6,0,P|308:93|201:115,1,150.000005722046,4|4,0:1|0:3,0:0:0:0:
121,83,130402,2,0,P|108:29|105:-3,2,75.0000028610231,0|4|0,0:0|0:3|0:0,0:0:0:0:
153,191,130916,1,4,0:3:0:0:
94,272,131088,6,0,L|6:266,1,75,0|0,1:0|0:0,0:0:0:0:
19,266,131431,1,0,1:0:0:0:
131,365,131602,1,0,1:0:0:0:
256,282,131774,1,0,1:0:0:0:
327,358,131945,37,4,0:3:0:0:
190,209,132116,1,0,1:0:0:0:
340,76,132288,6,0,B|401:70|401:70|413:78,1,75,12|0,0:1|0:0,0:0:0:0:
256,89,132631,6,0,L|172:102,1,85.0000016212464,4|0,0:1|0:0,0:0:0:0:
30,196,132974,2,0,P|36:287|73:310,1,127.50000243187,0|0,1:0|0:0,0:0:0:0:
100,312,133316,1,4,0:3:0:0:
196,171,133488,2,0,P|218:207|212:255,1,85.0000016212464,4|0,0:3|0:0,0:0:0:0:
102,119,133831,38,0,P|141:143|240:71,1,170.000003242493,0|4,1:0|0:3,0:0:0:0:
393,155,134345,2,0,P|403:81|398:59,1,85.0000016212464,0|0,1:0|0:0,0:0:0:0:
291,201,134688,1,4,0:3:0:0:
391,337,134859,5,4,0:3:0:0:
474,354,135031,1,0,1:0:0:0:
391,337,135202,1,4,0:3:0:0:
265,221,135374,6,0,P|317:196|395:206,1,127.50000243187,4|0,0:3|0:0,0:0:0:0:
412,169,135716,2,0,L|403:260,1,85.0000016212464,0|0,1:0|0:0,0:0:0:0:
243,311,136059,1,4,0:3:0:0:
243,311,136231,2,0,L|143:306,1,85.0000016212464,4|0,0:3|0:0,0:0:0:0:
26,198,136574,2,0,L|42:90,1,85.0000016212464,0|0,1:0|0:0,0:0:0:0:
206,162,136916,37,4,0:3:0:0:
206,162,137088,2,0,L|339:176,1,127.50000243187,0|0,1:0|0:0,0:0:0:0:
368,151,137431,2,0,L|356:235,1,85.0000016212464,4|4,0:3|0:3,0:0:0:0:
491,339,137774,1,0,1:0:0:0:
450,326,137859,1,0,1:0:0:0:
409,312,137945,1,0,1:0:0:0:
239,321,138116,6,0,P|216:282|295:280,1,127.50000243187,4|0,0:1|0:0,0:0:0:0:
274,250,138459,1,0,1:0:0:0:
114,361,138631,1,0,0:0:0:0:
13,224,138802,1,4,0:3:0:0:
13,224,138974,2,0,P|8:151|35:87,1,127.50000243187,4|0,0:3|0:0,0:0:0:0:
0,64,139316,6,0,L|107:69,1,85.0000016212464,0|0,1:0|0:0,0:0:0:0:
210,183,139659,1,4,0:3:0:0:
341,74,139831,1,0,1:0:0:0:
341,74,140002,2,0,P|401:49|465:82,1,127.50000243187
485,101,140345,1,4,0:3:0:0:
342,193,140516,2,0,P|334:250|348:300,1,85.0000016212464,0|4,1:0|0:3,0:0:0:0:
402,130,140859,38,0,P|343:154|274:121,1,127.50000243187,4|0,0:3|0:0,0:0:0:0:
251,108,141202,2,0,L|258:192,1,85.0000016212464,0|0,1:0|0:0,0:0:0:0:
274,361,141545,1,4,0:3:0:0:
274,361,141716,2,0,P|332:386|393:372,1,127.50000243187,4|0,0:3|0:0,0:0:0:0:
407,334,142059,5,4,1:2:0:0:
407,334,142231,2,0,P|339:304|304:306,1,85.0000016212464,0|4,0:0|0:3,0:0:0:0:
276,141,142574,2,0,P|234:149|198:171,1,85.0000016212464,4|0,1:2|0:0,0:0:0:0:
39,113,142916,6,0,B|23:131|13:151,1,42.5000008106232,4|0,0:3|1:0,0:0:0:0:
68,215,143088,1,4,0:3:0:0:
107,228,143173,1,4,0:3:0:0:
126,265,143259,1,4,0:3:0:0:
113,304,143345,1,0,1:0:0:0:
77,324,143430,1,0,1:0:0:0:
37,313,143516,1,0,1:0:0:0:
17,276,143602,37,4,0:3:0:0:
165,357,143774,1,0,0:0:0:0:
323,297,143945,1,4,1:0:0:0:
183,199,144116,1,0,0:0:0:0:
223,284,144288,1,4,0:3:0:0:
223,284,144459,2,0,P|218:229|276:158,1,127.50000243187,4|0,0:3|0:0,0:0:0:0:
236,131,144802,2,0,L|354:123,1,85.0000016212464,0|0,1:0|0:0,0:0:0:0:
438,248,145145,5,4,0:3:0:0:
438,248,145316,2,0,L|443:343,1,85.0000016212464,0|0,1:0|0:0,0:0:0:0:
434,162,145659,1,4,0:3:0:0:
331,25,145831,5,4,0:3:0:0:
409,56,146002,1,0,1:0:0:0:
331,25,146174,1,4,0:3:0:0:
166,64,146345,38,0,L|300:52,1,127.50000243187,4|0,0:3|0:0,0:0:0:0:
331,25,146688,2,0,L|326:124,1,85.0000016212464,0|0,1:0|0:0,0:0:0:0:
467,205,147031,1,4,0:3:0:0:
467,205,147202,2,0,L|470:346,1,127.50000243187,4|0,0:3|0:0,0:0:0:0:
501,361,147545,2,0,P|462:351|416:362,1,85.0000016212464,0|0,1:0|0:0,0:0:0:0:
351,203,147888,5,4,0:3:0:0:
183,227,148059,1,0,1:0:0:0:
183,227,148231,2,0,P|237:214|238:142,1,127.50000243187
220,114,148574,1,4,0:3:0:0:
54,75,148745,2,0,L|101:67,1,42.5000008106232,0|0,1:0|1:0,0:0:0:0:
69,148,148916,2,0,L|116:140,1,42.5000008106232,0|0,1:0|1:0,0:0:0:0:
82,222,149088,6,0,L|102:361,1,127.50000243187,4|0,0:1|0:0,0:0:0:0:
69,378,149431,2,0,L|169:373,1,85.0000016212464,0|0,1:0|0:0,0:0:0:0:
302,290,149774,1,4,0:3:0:0:
463,238,149945,2,0,L|364:223,1,85.0000016212464,4|0,0:3|1:0,0:0:0:0:
182,182,150288,38,0,P|247:200|255:305,1,150,4|0,0:0|0:0,0:0:0:0:
197,341,150631,6,0,P|132:323|124:218,1,150,4|0,0:0|0:0,0:0:0:0:
20,199,150974,6,0,P|55:164|106:152,1,100,4|0,0:0|0:0,0:0:0:0:
286,230,151316,37,4,0:3:0:0:
194,86,151488,1,0,1:0:0:0:
360,54,151659,1,4,0:3:0:0:
267,0,151831,6,0,P|272:66|298:135,1,127.50000243187,4|0,0:3|0:0,0:0:0:0:
327,147,152174,2,0,P|396:143|424:163,1,85.0000016212464,0|0,1:0|0:0,0:0:0:0:
413,318,152516,1,4,0:3:0:0:
413,318,152688,2,0,P|344:322|316:302,1,85.0000016212464,4|0,0:3|0:0,0:0:0:0:
163,288,153031,6,0,L|43:286,1,85.0000016212464,0|0,1:0|0:0,0:0:0:0:
78,286,153374,1,4,0:3:0:0:
213,183,153545,2,0,L|125:92,1,85.0000016212464,4|0,0:3|0:0,0:0:0:0:
323,135,153888,2,0,L|324:67,1,42.5000008106232,4|0,0:3|1:0,0:0:0:0:
266,28,154059,37,0,1:0:0:0:
304,8,154144,1,0,1:0:0:0:
346,9,154230,1,0,1:0:0:0:
382,30,154316,1,4,0:3:0:0:
419,51,154402,1,4,0:3:0:0:
461,52,154488,1,4,0:3:0:0:
489,20,154574,38,0,L|495:104,1,85.0000016212464,0|0,1:0|1:0,0:0:0:0:
330,146,154916,1,4,0:3:0:0:
478,229,155088,6,0,L|422:292,1,85.0000016212464,0|0,1:0|1:0,0:0:0:0:
276,205,155430,1,4,0:3:0:0:
323,368,155602,54,0,L|239:374,1,85.0000016212464,0|0,1:0|1:0,0:0:0:0:
197,208,155944,1,4,0:3:0:0:
113,356,156116,6,0,L|49:300,1,85.0000016212464,0|0,1:0|1:0,0:0:0:0:
137,154,156458,1,4,0:3:0:0:
0,49,156631,54,0,P|76:33|157:55,1,127.50000243187,0|0,1:0|0:0,0:0:0:0:
101,70,156974,6,0,P|64:64|24:76,1,75,0|0,1:0|0:0,0:0:0:0:
38,157,157316,54,0,P|34:214|53:265,1,85.0000016212464,0|0,1:0|1:0,0:0:0:0:
202,187,157659,1,4,0:3:0:0:
178,18,157831,6,0,P|134:55|112:104,1,85.0000016212464,0|0,1:0|1:0,0:0:0:0:
273,155,158174,1,4,0:3:0:0:
375,19,158345,54,0,P|318:14|267:34,1,85.0000016212464,0|0,1:0|1:0,0:0:0:0:
345,183,158688,1,4,0:3:0:0:
512,159,158859,6,0,P|474:115|425:93,1,85.0000016212464,0|0,1:0|1:0,0:0:0:0:
375,253,159202,1,4,0:3:0:0:
479,370,159374,54,0,P|408:343|363:360,1,127.50000243187,0|0,1:0|0:0,0:0:0:0:
342,345,159716,6,0,P|309:327|272:330,1,75,0|0,1:0|0:0,0:0:0:0:
195,366,160058,53,0,1:0:0:0:
174,283,160230,1,0,1:0:0:0:
153,200,160402,1,6,0:3:0:0:
42,330,160573,5,0,1:0:0:0:
59,161,160744,1,0,1:0:0:0:
197,62,160916,1,6,0:3:0:0:
317,366,161087,53,0,1:0:0:0:
338,283,161259,1,0,1:0:0:0:
359,200,161431,1,6,0:3:0:0:
470,330,161602,5,0,1:0:0:0:
453,161,161774,1,0,1:0:0:0:
315,62,161945,1,4,0:3:0:0:
440,38,162116,53,2,0:0:0:0:
365,142,162288,1,2,0:0:0:0:
239,119,162459,1,2,1:2:0:0:
239,119,162545,1,4,0:3:0:0:
239,119,162631,1,4,0:3:0:0:
368,320,162802,5,4,0:3:0:0:
256,192,162974,1,4,0:3:0:0:
144,320,163145,1,2,1:3:0:0:
352,128,163316,53,4,0:3:0:0:
256,336,163488,1,4,0:3:0:0:
160,128,163659,1,2,1:3:0:0:
416,240,163831,5,0,1:0:0:0:
256,48,164002,2,0,L|256:176,1,127.50000243187,0|0,1:0|0:0,0:0:0:0:
256,224,164345,53,0,1:0:0:0:
100,292,164516,2,0,L|34:280,3,42.5000008106232,0|2|2|2,1:0|0:0|0:0|0:0,0:0:0:0:
16,209,164859,1,0,1:0:0:0:
28,168,164945,1,0,1:0:0:0:
42,128,165031,1,0,1:0:0:0:
84,128,165116,1,0,1:0:0:0:
126,128,165202,2,0,B|157:127|157:127|186:230,1,127.50000243187,0|0,1:0|0:0,0:0:0:0:
205,244,165545,22,0,P|289:240|314:251,1,97.4999955368044,4|0,0:1|0:0,0:0:0:0:
323,221,165888,2,0,L|327:290,1,64.9999970245363,0|0,1:0|0:0,0:0:0:0:
434,359,166231,2,0,L|437:294,1,64.9999970245363,4|4,0:3|0:3,0:0:0:0:
510,185,166574,2,0,L|388:166,1,97.4999955368044,0|0,1:0|0:0,0:0:0:0:
381,164,166916,5,4,0:3:0:0:
381,164,167088,1,4,0:3:0:0:
297,64,167259,2,0,L|232:74,1,64.9999970245363,0|0,1:0|0:0,0:0:0:0:
236,204,167602,2,0,L|183:165,1,64.9999970245363,4|4,0:3|0:3,0:0:0:0:
97,263,167945,2,0,L|86:198,1,64.9999970245363,0|0,1:0|0:0,0:0:0:0:
184,280,168202,1,0,0:0:0:0:
184,280,168288,6,0,P|239:279|287:285,1,97.4999955368044,4|0,0:1|0:0,0:0:0:0:
306,263,168631,2,0,L|312:336,1,64.9999970245363,0|0,1:0|0:0,0:0:0:0:
443,358,168974,37,4,0:3:0:0:
443,358,169145,1,4,0:3:0:0:
509,246,169316,2,0,L|503:319,1,64.9999970245363,0|0,1:0|0:0,0:0:0:0:
413,216,169659,5,4,0:3:0:0:
413,216,169830,1,4,0:3:0:0:
347,104,170002,2,0,L|353:177,1,64.9999970245363,0|0,1:0|0:0,0:0:0:0:
449,80,170345,5,4,0:3:0:0:
449,80,170516,1,4,0:3:0:0:
335,15,170688,2,0,L|259:12,1,64.9999970245363,0|0,1:0|0:0,0:0:0:0:
195,8,170945,1,0,0:0:0:0:
195,8,171031,38,0,P|202:61|181:132,1,97.4999955368044,4|0,0:1|0:0,0:0:0:0:
161,98,171374,2,0,L|164:174,1,64.9999970245363,0|0,1:0|0:0,0:0:0:0:
163,291,171716,1,4,0:3:0:0:
163,291,171888,1,4,0:3:0:0:
271,219,172059,2,0,P|307:210|373:227,1,97.4999955368044,0|0,1:0|0:0,1:0:0:0:
384,248,172402,6,0,L|387:175,1,64.9999970245363,4|4,0:3|0:3,0:0:0:0:
488,100,172745,2,0,L|377:86,1,97.4999955368044,0|0,1:0|0:0,0:0:0:0:
368,64,173088,2,0,L|296:65,1,64.9999970245363,0|4,0:0|0:3,0:0:0:0:
204,150,173431,1,0,1:0:0:0:
91,86,173602,1,4,0:3:0:0:
204,150,173774,6,0,L|194:272,1,97.4999955368044,4|0,0:1|0:0,0:0:0:0:
194,279,174116,2,0,L|188:354,1,64.9999970245363,0|0,1:0|0:0,0:0:0:0:
106,242,174459,1,4,0:3:0:0:
19,339,174631,2,0,P|5:292|14:231,1,97.4999955368044,4|0,0:3|0:0,0:0:0:0:
9,244,174974,1,0,1:0:0:0:
87,140,175145,37,4,0:3:0:0:
87,140,175316,1,4,0:3:0:0:
33,20,175488,2,0,L|117:27,1,64.9999970245363,0|0,1:0|0:0,0:0:0:0:
227,35,175831,1,4,0:3:0:0:
239,164,176002,1,0,1:0:0:0:
329,201,176174,1,4,0:3:0:0:
320,104,176345,1,4,0:3:0:0:
435,44,176516,6,0,P|448:83|437:156,1,97.4999955368044,4|0,0:1|0:0,0:0:0:0:
420,161,176859,2,0,L|424:253,1,64.9999970245363,0|0,1:0|0:0,0:0:0:0:
292,226,177202,2,0,L|359:288,1,64.9999970245363,4|4,0:3|0:3,0:0:0:0:
246,361,177545,2,0,L|338:357,1,64.9999970245363,0|0,1:0|1:0,0:0:0:0:
210,274,177888,6,0,L|118:278,1,64.9999970245363,0|4,0:0|0:3,0:0:0:0:
161,147,178231,2,0,L|98:214,1,64.9999970245363,0|0,1:0|0:0,0:0:0:0:
34,93,178574,2,0,L|38:185,1,64.9999970245363,0|4,0:0|0:3,0:0:0:0:
161,147,178916,1,0,1:0:0:0:
244,32,179088,2,0,L|290:46,1,32.4999985122681,4|0,0:3|0:0,0:0:0:0:
237,110,179259,38,0,P|305:94|353:106,1,97.4999955368044,4|0,0:1|0:0,0:0:0:0:
363,91,179602,2,0,L|372:177,1,64.9999970245363,0|0,1:0|0:0,0:0:0:0:
390,284,179945,1,4,0:3:0:0:
390,284,180116,2,0,L|399:370,1,64.9999970245363,4|0,0:3|0:0,0:0:0:0:
453,231,180459,1,0,1:0:0:0:
322,228,180631,5,0,0:0:0:0:
450,211,180802,1,4,0:3:0:0:
377,155,180974,1,0,1:0:0:0:
377,155,181059,1,4,0:3:0:0:
377,155,181145,1,4,0:3:0:0:
254,272,181316,5,8,1:3:0:0:
227,304,181401,1,8,1:3:0:0:
187,315,181487,1,8,1:3:0:0:
149,298,181573,1,8,0:3:0:0:
116,271,181658,1,8,0:3:0:0:
77,255,181744,1,4,0:3:0:0:
37,265,181830,1,4,0:3:0:0:
191,236,182002,37,4,0:1:0:0:
256,192,182088,12,0,183888,0:0:0:0:
402,34,184745,6,0,L|475:48,1,64.9999970245363,2|2,0:0|0:0,0:0:0:0:
224,144,185259,2,0,L|265:205,1,64.9999970245363,2|2,0:0|0:0,0:0:0:0:
45,49,185774,2,0,L|31:122,1,64.9999970245363,2|2,0:0|0:0,0:0:0:0:
442,286,187488,37,4,0:0:0:0:
442,286,187659,2,0,L|381:291,1,50,2|2,0:0|0:0,0:0:0:0:
292,298,188002,2,0,L|242:302,2,50,2|2|2,0:0|0:0|0:0,0:0:0:0:
436,158,188688,54,0,P|419:119|418:98,1,50,2|2,0:0|0:0,0:0:0:0:
459,20,189031,1,2,0:0:0:0:
459,20,189202,2,0,L|400:22,1,50,2|2,0:0|0:0,0:0:0:0:
211,53,189716,2,0,L|197:-11,2,50,2|2|2,0:0|0:0|0:0,0:0:0:0:
240,149,190231,5,0,0:0:0:0:
240,149,190402,2,0,P|250:172|250:197,1,50,2|2,0:0|0:0,0:0:0:0:
152,218,190745,2,0,P|141:194|142:170,1,50,2|2,0:0|0:0,0:0:0:0:
232,348,191259,2,0,L|222:283,1,50,2|2,0:0|0:0,0:0:0:0:
250,196,191602,54,0,P|299:212|350:191,1,100,2|2,0:0|0:0,0:0:0:0:
340,97,192116,2,0,P|290:80|240:102,1,100,2|2,0:0|0:0,0:0:0:0:
81,326,192974,5,6,0:0:0:0:
81,326,193488,2,0,L|69:376,2,50,2|2|2,0:0|0:0|0:0,0:0:0:0:
81,125,194174,2,0,L|69:76,2,50,2|2|2,0:0|0:0|0:0,0:0:0:0:
95,224,194688,2,0,L|160:226,1,50,2|2,0:0|0:0,0:0:0:0:
417,224,195545,53,2,0:0:0:0:
341,159,195716,2,0,P|421:185|490:146,1,150,6|2,0:0|0:0,0:0:0:0:
476,58,196402,2,0,P|396:32|327:71,1,150,2|2,0:0|0:0,0:0:0:0:
254,111,197088,2,0,L|99:119,1,150,2|2,0:0|0:0,0:0:0:0:
41,40,197774,2,0,P|79:93|77:207,1,175,2|0,0:0|0:0,0:0:0:0:
67,221,198459,5,4,0:0:0:0:
57,320,198631,1,2,0:0:0:0:
57,320,198802,2,0,L|117:314,1,50,2|2,0:0|0:0,0:0:0:0:
187,255,199145,2,0,L|233:293,1,50,2|2,0:0|0:0,0:0:0:0:
318,248,199488,2,0,L|322:293,2,25,0|0|2,0:0|0:0|0:0,0:0:0:0:
416,266,199831,53,2,0:0:0:0:
370,177,200002,1,2,0:0:0:0:
386,77,200174,1,2,0:0:0:0:
475,31,200345,2,0,L|490:89,1,50,2|0,0:0|0:0,0:0:0:0:
386,77,200688,2,0,L|325:81,1,50,2|0,0:0|0:0,0:0:0:0:
311,83,200945,2,0,L|269:86,1,25,0|2,0:0|0:0,0:0:0:0:
196,39,201202,5,4,0:0:0:0:
196,39,201374,1,2,0:0:0:0:
107,84,201545,1,2,0:0:0:0:
10,59,201716,1,2,0:0:0:0:
107,84,201888,2,0,L|118:156,1,50,2|0,0:0|0:0,0:0:0:0:
59,217,202231,2,0,L|37:247,2,25,2|0|2,0:0|0:0|0:0,0:0:0:0:
158,228,202574,54,0,P|165:284|160:336,1,100,2|2,0:0|0:0,0:0:0:0:
62,330,203088,2,0,P|118:322|170:328,1,100,2|2,0:0|0:0,0:0:0:0:
248,277,203602,2,0,L|242:243,2,25
317,349,203945,6,0,P|349:351|382:346,2,50,2|0|0,0:0|0:0|0:0,0:0:0:0:
338,251,204459,1,2,0:0:0:0:
434,278,204631,1,2,0:0:0:0:
475,368,204802,1,2,0:0:0:0:
434,278,204974,2,0,L|429:232,2,25,0|0|2,0:0|0:0|0:0,0:0:0:0:
425,178,205316,53,2,0:0:0:0:
408,79,205488,1,2,0:0:0:0:
499,117,205659,1,2,0:0:0:0:
411,68,205831,1,2,0:0:0:0:
312,84,206002,1,0,0:0:0:0:
216,52,206174,1,2,0:0:0:0:
306,92,206345,1,2,0:0:0:0:
220,40,206516,1,2,0:0:0:0:
126,78,206688,6,0,P|119:127|117:177,1,100,6|0,0:0|0:0,0:0:0:0:
182,253,207202,1,2,0:0:0:0:
182,253,207374,2,0,P|179:302|172:352,1,100,2|0,0:0|0:0,0:0:0:0:
172,352,207888,1,2,0:0:0:0:
263,312,208059,53,2,0:0:0:0:
319,228,208231,1,2,0:0:0:0:
365,316,208402,1,2,0:0:0:0:
465,322,208574,1,2,0:0:0:0:
365,316,208745,5,2,0:0:0:0:
431,207,208916,1,2,0:0:0:0:
353,68,209088,6,0,B|338:56|338:56|346:-17,1,75,12|0,1:0|0:0,0:0:0:0:
397,141,209431,22,0,P|313:144|273:95,1,127.50000243187,4|0,0:1|0:0,0:0:0:0:
260,82,209774,2,0,L|247:175,1,85.0000016212464,0|0,1:0|0:0,0:0:0:0:
134,292,210116,1,4,0:3:0:0:
134,292,210288,2,0,P|76:294|37:229,1,127.50000243187,4|0,0:3|0:0,0:0:0:0:
3,268,210631,54,0,L|16:172,1,85.0000016212464,0|0,1:0|0:0,0:0:0:0:
158,91,210974,1,4,0:3:0:0:
4,20,211145,2,0,L|15:104,1,85.0000016212464,0|0,1:0|0:0,0:0:0:0:
159,195,211488,1,4,0:3:0:0:
159,195,211574,1,4,0:3:0:0:
159,195,211659,53,4,0:3:0:0:
226,143,211831,1,0,1:0:0:0:
158,91,212002,1,4,0:3:0:0:
318,33,212174,6,0,P|369:22|442:38,1,127.50000243187,4|0,0:1|0:0,0:0:0:0:
462,74,212516,1,0,1:0:0:0:
325,176,212688,1,0,0:0:0:0:
325,176,212774,1,0,0:0:0:0:
325,176,212859,2,0,P|314:222|328:279,1,85.0000016212464,4|4,0:3|0:3,0:0:0:0:
487,287,213202,1,0,0:0:0:0:
319,258,213374,1,0,1:0:0:0:
168,336,213545,6,0,B|154:353|154:353|144:296|177:277|214:257,1,127.50000243187
197,266,213888,1,0,1:0:0:0:
66,157,214059,2,0,P|122:128|171:134,1,85.0000016212464,0|4,0:0|0:3,0:0:0:0:
142,127,214402,1,4,0:3:0:0:
256,0,214574,1,0,1:0:0:0:
285,3,214659,1,0,1:0:0:0:
312,16,214745,1,0,1:0:0:0:
422,144,214916,38,0,P|369:121|288:145,1,127.50000243187,4|0,0:1|0:0,0:0:0:0:
266,111,215259,2,0,L|276:203,1,85.0000016212464,0|0,1:0|0:0,0:0:0:0:
299,364,215602,1,4,0:3:0:0:
450,285,215774,2,0,B|415:263|415:263|313:277,1,127.50000243187,4|0,0:3|0:0,0:0:0:0:
288,283,216116,1,0,1:0:0:0:
132,353,216288,5,0,0:0:0:0:
37,212,216459,1,4,0:3:0:0:
206,194,216631,1,0,1:0:0:0:
128,257,216802,2,0,L|120:150,1,85.0000016212464,0|4,0:0|0:3,0:0:0:0:
105,2,217145,1,4,0:3:0:0:
105,2,217316,2,0,L|113:109,1,85.0000016212464,0|0,1:0|0:0,0:0:0:0:
189,123,217574,5,0,0:0:0:0:
189,123,217659,2,0,P|264:94|336:118,1,127.50000243187,4|0,0:3|0:0,0:0:0:0:
338,72,218002,2,0,L|422:69,1,85.0000016212464,0|0,1:0|0:0,0:0:0:0:
506,217,218345,1,4,0:3:0:0:
394,344,218516,2,0,P|340:353|294:278,1,127.50000243187,4|0,0:3|0:0,0:0:0:0:
214,273,218859,38,0,L|201:221,1,42.5000008106232,4|0,1:2|0:0,0:0:0:0:
182,148,219031,2,0,B|193:191|193:191|100:206,1,127.50000243187
69,213,219374,1,4,1:2:0:0:
4,56,219545,1,4,0:3:0:0:
170,89,219716,2,0,L|184:169,1,42.5000008106232,4|0,0:3|1:0,0:0:0:0:
155,214,219888,5,0,1:0:0:0:
197,214,219973,1,0,1:0:0:0:
234,194,220059,1,0,1:0:0:0:
257,159,220145,1,4,0:3:0:0:
278,122,220231,1,4,0:3:0:0:
316,103,220316,1,4,0:3:0:0:
358,106,220402,5,4,0:1:0:0:
294,25,220574,1,0,0:0:0:0:
463,21,220745,2,0,B|504:49|504:49|494:147,1,127.50000243187,0|0,1:0|0:0,0:0:0:0:
454,118,221088,2,0,L|458:206,1,85.0000016212464,4|4,0:3|0:3,0:0:0:0:
457,202,221431,1,0,1:0:0:0:
500,371,221602,38,0,P|450:347|357:359,1,127.50000243187
345,375,221945,1,4,0:3:0:0:
242,239,222116,2,0,L|155:249,1,85.0000016212464,0|0,1:0|0:0,0:0:0:0:
7,329,222459,1,4,0:3:0:0:
157,248,222631,5,4,0:3:0:0:
101,184,222802,1,0,1:0:0:0:
173,138,222974,1,4,0:3:0:0:
31,44,223145,6,0,P|84:18|175:47,1,127.50000243187,4|0,0:3|0:0,0:0:0:0:
116,1,223488,2,0,L|209:-1,1,85.0000016212464,0|0,1:0|0:0,0:0:0:0:
353,75,223831,1,4,0:3:0:0:
353,75,224002,2,0,L|347:169,1,85.0000016212464,4|0,0:3|0:0,0:0:0:0:
336,330,224345,1,0,1:0:0:0:
494,269,224516,38,0,B|461:246|461:246|371:254,1,127.50000243187
374,253,224859,1,0,1:0:0:0:
210,301,225031,1,0,1:0:0:0:
210,301,225116,1,4,0:3:0:0:
210,301,225202,2,0,L|84:306,1,85.0000016212464,0|0,1:0|1:0,0:0:0:0:
92,136,225545,5,0,1:0:0:0:
108,175,225630,1,0,1:0:0:0:
81,208,225716,1,0,1:0:0:0:
40,208,225802,1,0,1:0:0:0:
16,175,225888,6,0,P|15:99|58:56,1,127.50000243187,4|0,0:3|0:0,0:0:0:0:
16,31,226231,2,0,L|126:30,1,85.0000016212464,0|0,1:0|0:0,0:0:0:0:
238,131,226574,1,4,0:3:0:0:
238,131,226745,2,0,P|280:141|349:123,1,85.0000016212464,4|0,0:3|1:0,0:0:0:0:
506,64,227088,38,0,B|461:89|409:65|409:65|431:89|434:123,1,150,4|0,0:0|0:0,0:0:0:0:
474,197,227431,6,0,P|447:147|344:159,1,150,4|0,0:0|0:0,0:0:0:0:
267,178,227774,6,0,B|341:173|341:173|320:279,1,150,4|0,0:0|0:0,0:0:0:0:
228,264,228116,21,0,1:0:0:0:
228,264,228202,1,0,1:0:0:0:
228,264,228288,1,0,1:0:0:0:
64,218,228459,1,4,0:3:0:0:
64,218,228631,54,0,P|128:167|101:81,1,170.000003242493,4|0,0:1|1:0,0:0:0:0:
247,191,229145,1,0,0:0:0:0:
378,83,229316,1,4,0:3:0:0:
378,83,229402,1,4,0:3:0:0:
378,83,229488,2,0,P|361:161|424:211,1,170.000003242493,4|0,0:3|1:0,0:0:0:0:
262,274,230002,6,0,L|242:169,1,85.0000016212464,0|4,0:0|0:3,0:0:0:0:
213,22,230345,1,0,1:0:0:0:
339,9,230516,1,4,0:3:0:0:
408,116,230688,1,4,0:3:0:0:
484,62,230859,53,0,1:0:0:0:
319,100,231030,1,0,1:0:0:0:
216,286,231202,1,0,1:0:0:0:
281,317,231374,38,0,P|144:293|217:215,1,300,6|0,0:0|0:0,0:0:0:0:
207,215,232745,5,2,0:0:0:0:
306,221,233088,1,2,0:0:0:0:
306,221,233259,1,2,0:0:0:0:
281,317,233602,1,2,0:0:0:0:
230,242,234116,38,0,P|331:259|277:317,1,225.000008583069,6|0,0:0|0:0,0:0:0:0:
282,317,235488,5,2,0:0:0:0:
206,317,235831,1,2,0:0:0:0:
206,317,236002,1,2,0:0:0:0:
230,242,236345,1,2,0:0:0:0:
266,293,236859,6,0,P|203:298|230:241,1,151.999998144531,6|0,0:0|0:0,0:0:0:0:
445,109,242345,54,0,P|384:98|325:113,1,97.4999955368044,4|0,0:1|0:0,0:0:0:0:
366,75,242688,2,0,L|289:75,1,64.9999970245363,0|0,1:0|0:0,0:0:0:0:
200,158,243031,1,4,0:3:0:0:
108,78,243202,2,0,P|158:88|171:145,1,97.4999955368044,4|0,0:3|0:0,0:0:0:0:
200,158,243545,2,0,L|193:236,1,64.9999970245363,0|0,1:0|0:0,0:0:0:0:
180,352,243888,5,4,0:3:0:0:
297,298,244059,2,0,P|346:301|380:314,1,64.9999970245363,0|0,1:0|0:0,0:0:0:0:
467,380,244402,1,0,0:0:0:0:
449,250,244574,1,4,0:3:0:0:
327,204,244745,1,0,1:0:0:0:
453,233,244916,1,4,0:3:0:0:
380,124,245088,38,0,P|433:102|448:37,1,97.4999955368044,4|0,0:3|0:0,0:0:0:0:
461,37,245431,2,0,L|372:21,1,64.9999970245363,0|0,1:0|0:0,1:0:0:0:
278,80,245774,1,4,0:3:0:0:
278,80,245945,2,0,P|212:75|171:93,1,97.4999955368044,4|0,0:3|0:0,0:0:0:0:
161,109,246288,1,0,1:0:0:0:
94,360,246631,6,0,P|92:326|79:296,1,64.9999970245363,4|0,0:3|1:0,0:0:0:0:
179,213,246974,2,0,P|261:217|312:185,1,129.999994049073,0|4,0:0|0:3,0:0:0:0:
350,316,247488,2,0,P|384:269|390:249,1,64.9999970245363,0|0,1:0|0:0,0:0:0:0:
356,136,247831,53,4,0:1:0:0:
364,145,248174,2,0,L|358:53,1,64.9999970245363,0|0,1:0|0:0,0:0:0:0:
255,2,248516,1,4,0:3:0:0:
255,2,248688,2,0,L|163:8,1,64.9999970245363,4|0,0:3|0:0,0:0:0:0:
84,82,249031,6,0,P|100:115|101:198,1,97.4999955368044,0|0,1:0|0:0,0:0:0:0:
98,206,249374,1,4,0:3:0:0:
29,316,249545,2,0,L|25:383,1,64.9999970245363,0|0,1:0|0:0,0:0:0:0:
140,320,249888,5,0,0:0:0:0:
263,269,250059,1,4,0:3:0:0:
381,323,250231,1,0,1:0:0:0:
271,256,250402,1,4,0:3:0:0:
399,236,250574,38,0,P|374:178|384:130,1,97.4999955368044,4|0,0:3|0:0,0:0:0:0:
352,165,250916,2,0,L|360:77,1,64.9999970245363,0|0,1:0|0:0,0:0:0:0:
477,49,251259,1,4,0:3:0:0:
477,49,251431,2,0,L|389:41,1,64.9999970245363,4|0,0:3|0:0,0:0:0:0:
282,32,251774,6,0,P|237:39|189:86,1,97.4999955368044,0|0,1:0|0:0,0:0:0:0:
176,96,252116,2,0,L|174:11,1,64.9999970245363,4|0,0:3|1:0,0:0:0:0:
271,118,252459,2,0,P|281:170|271:263,1,129.999994049073,0|4,0:0|0:3,0:0:0:0:
175,331,252974,2,0,P|211:339|261:342,1,64.9999970245363,0|4,1:0|0:3,0:0:0:0:
362,302,253316,6,0,P|411:304|446:342,1,97.4999955368044,4|0,0:1|0:0,0:0:0:0:
457,366,253659,2,0,L|466:284,1,64.9999970245363,0|0,1:0|0:0,0:0:0:0:
480,172,254002,1,4,0:3:0:0:
480,172,254174,2,0,L|416:160,1,64.9999970245363,4|0,0:3|0:0,0:0:0:0:
291,125,254516,38,0,P|323:82|321:34,1,97.4999955368044,0|0,1:0|0:0,0:0:0:0:
300,15,254859,1,0,0:0:0:0:
189,84,255031,2,0,L|107:93,1,64.9999970245363,0|0,1:0|0:0,0:0:0:0:
23,173,255374,1,0,0:0:0:0:
40,90,255545,1,4,0:3:0:0:
104,202,255716,1,0,1:0:0:0:
185,225,255888,1,0,0:0:0:0:
185,225,255974,1,0,0:0:0:0:
185,225,256059,37,6,0:0:0:0:
256,192,256145,12,0,262916,0:0:0:0:
