osu file format v14

[General]
AudioFilename: audio.mp3
AudioLeadIn: 0
PreviewTime: 86239
Countdown: 0
SampleSet: Normal
StackLeniency: 0.7
Mode: 1
LetterboxInBreaks: 0
WidescreenStoryboard: 0

[Editor]
Bookmarks: 19456,36298,53140,61561,69982,128936,145778,162620,181567
DistanceSpacing: 1
BeatDivisor: 4
GridSize: 32
TimelineZoom: 1.7

[Metadata]
Title:Kotodama Refrain
TitleUnicode:言霊リフレイン
Artist:tokiwa feat. Nakamura Sanso
ArtistUnicode:常盤 feat. 中村さんそ
Creator:Faputa
Version:Inner Oni
Source:
Tags:Featured Artist FA Mappers' Guild MG MPG Kawaii Electronic Japanese Jpop j-pop pop
BeatmapID:3480621
BeatmapSetID:1703527

[Difficulty]
HPDrainRate:6
CircleSize:2
OverallDifficulty:6
ApproachRate:10
SliderMultiplier:1.4
SliderTickRate:1

[Events]
//Background and Video events
0,0,"cover.jpg",0,100
//Break Periods
//Storyboard Layer 0 (Background)
//Storyboard Layer 1 (Fail)
//Storyboard Layer 2 (Pass)
//Storyboard Layer 3 (Foreground)
//Storyboard Layer 4 (Overlay)
//Storyboard Sound Samples

[TimingPoints]
-5800,526.315789473684,4,1,0,70,1,0
252,-85.7191839533688,4,1,0,70,0,0
8936,-85.7191839533688,4,1,0,70,0,0
9199,-84.2225834435245,4,1,0,70,0,0
9463,-82.7774140170306,4,1,0,70,0,0
9594,-82.0732355895813,4,1,0,70,0,0
9857,-80.700284791305,4,1,0,70,0,0
9989,-80.0308598995773,4,1,0,70,0,0
10252,-78.7247844515402,4,1,0,70,0,0
10384,-78.0876643354896,4,1,0,70,0,0
10515,-77.4607138624468,4,1,0,70,0,0
10581,-77.1509690161708,4,1,0,70,0,0
10647,-76.8437505283008,4,1,0,70,0,0
10713,-76.5389690507025,4,1,0,70,0,0
10778,-76.23653758042,4,1,0,70,0,0
10910,-75.6388456907037,4,1,0,70,0,0
10976,-75.050508992552,4,1,0,75,0,0
15186,-75.0018750468762,4,1,0,80,0,0
15384,-74.7107200918045,4,1,0,80,0,0
15515,-74.4218169044692,4,1,0,80,0,0
15581,-74.2782015761834,4,1,0,80,0,0
15647,-74.1351394630244,4,1,0,80,0,0
15778,-73.8507166842801,4,1,0,80,0,0
15910,-73.568413842927,4,1,0,80,0,0
16042,-73.2882610527859,4,1,0,80,0,0
16173,-73.010233844478,4,1,0,80,0,0
16305,-72.7343081185307,4,1,0,80,0,0
16436,-72.460460138414,4,1,0,80,0,0
16568,-72.1887186358065,4,1,0,80,0,0
16699,-71.9189559669,4,1,0,80,0,0
16765,-71.784829281319,4,1,0,80,0,0
16831,-71.6512019489127,4,1,0,80,0,0
16897,-71.5180711862273,4,1,0,80,0,0
16963,-71.3854342304579,4,1,0,80,0,0
17094,-71.1216307905454,4,1,0,80,0,0
17226,-70.859769932499,4,1,0,80,0,0
17357,-70.599830278008,4,1,0,80,0,0
17621,-70.0856797434864,4,1,0,80,0,0
17686,-69.9582978586465,4,1,0,80,0,0
17752,-69.8313781711302,4,1,0,80,0,0
17884,-69.57891536212,4,1,0,80,0,0
18147,-69.0794268341797,4,1,0,80,0,0
18278,-68.8324096023965,4,1,0,80,0,0
18410,-68.5871056241427,4,1,0,80,0,0
18542,-68.3435438587858,4,1,0,80,0,0
18673,-68.1017058115272,4,1,0,80,0,0
18739,-67.9814274740141,4,1,0,80,0,0
18805,-67.8615732484249,4,1,0,80,0,0
18936,-67.6231281918116,4,1,0,80,0,0
19331,-66.6859166679448,4,1,0,85,0,0
34200,-66.6666666666667,4,1,0,85,0,0
34463,-67.1422576584138,4,1,0,85,0,0
34528,-67.262206240722,4,1,0,85,0,0
34594,-67.3826295666893,4,1,0,85,0,0
34726,-67.6246830092984,4,1,0,85,0,0
34857,-67.8684817413424,4,1,0,85,0,0
34989,-68.1140911025969,4,1,0,85,0,0
35055,-68.237540336916,4,1,0,85,0,0
35121,-68.3614845926886,4,1,0,85,0,0
35252,-68.6106346483705,4,1,0,85,0,0
35384,-68.861607450275,4,1,0,85,0,0
35515,-69.1144708423326,4,1,0,85,0,0
35647,-69.3691981336911,4,1,0,85,0,0
35778,-69.6257615317668,4,1,0,85,0,0
35844,-69.7547562280534,4,1,0,85,0,0
35910,-69.8842786230281,4,1,0,85,0,0
35976,-70.0142338937506,4,1,0,85,0,0
36042,-70.1446733888645,4,1,0,85,0,0
36305,-70.6713780918728,4,1,0,85,0,0
36568,-75.0018750468762,4,1,0,70,0,0
44594,-70.6713780918728,4,1,0,75,0,0
44989,-71.1851183239037,4,1,0,75,0,0
45121,-71.444850648112,4,1,0,75,0,0
45252,-71.7064338597781,4,1,0,75,0,0
45515,-72.2354413079816,4,1,0,75,0,0
45778,-72.7722592147873,4,1,0,75,0,0
45910,-73.0436713502269,4,1,0,75,0,0
46042,-73.3171155873654,4,1,0,75,0,0
46173,-73.5926689926856,4,1,0,75,0,0
46305,-73.8702469113003,4,1,0,75,0,0
46568,-74.4317877324505,4,1,0,75,0,0
46831,-75.0018750468762,4,1,0,75,0,0
51042,-75.0018750468762,4,1,0,75,0,0
51305,-74.4317877324505,4,1,0,75,0,0
51436,-74.1499267027975,4,1,0,75,0,0
51568,-73.8702469113003,4,1,0,75,0,0
51831,-73.3171155873654,4,1,0,75,0,0
51963,-73.0436713502269,4,1,0,75,0,0
52094,-72.7722592147873,4,1,0,75,0,0
52226,-72.5028566125505,4,1,0,75,0,0
52292,-72.3689019249404,4,1,0,75,0,0
52357,-72.2354413079816,4,1,0,75,0,0
52489,-71.9699395956297,4,1,0,75,0,0
52621,-71.7064338597781,4,1,0,75,0,0
52884,-71.1851183239037,4,1,0,75,0,0
53015,-70.6713780918728,4,1,0,80,0,0
61568,-66.6666666666667,4,1,0,80,0,0
61831,-67.1422576584138,4,1,0,80,0,0
61963,-67.3826295666893,4,1,0,80,0,0
62094,-67.6246830092984,4,1,0,80,0,0
62357,-68.1140911025969,4,1,0,80,0,0
62489,-68.3614845926886,4,1,0,80,0,0
62621,-68.6106346483705,4,1,0,80,0,0
62752,-68.861607450275,4,1,0,80,0,0
62884,-69.1144708423326,4,1,0,80,0,0
62950,-69.2415762429382,4,1,0,80,0,0
63015,-69.3691981336911,4,1,0,80,0,0
63147,-69.6257615317668,4,1,0,80,0,0
63410,-70.1446733888645,4,1,0,80,0,0
63542,-70.407065489836,4,1,0,80,0,0
63673,-70.6713780918728,4,1,0,80,0,0
70252,-75.0018750468762,4,1,0,70,0,0
77357,-75.0018750468762,4,1,0,70,0,0
77489,-74.437605282688,4,1,0,70,0,0
77621,-73.8817625824336,4,1,0,70,0,0
77752,-73.3341057859143,4,1,0,70,0,0
77884,-72.7945613727307,4,1,0,70,0,0
78015,-72.2628982047005,4,1,0,70,0,0
78147,-71.7389448492514,4,1,0,70,0,0
78213,-71.4797815863794,4,1,0,70,0,0
78278,-71.2224840835554,4,1,0,70,0,0
78344,-70.9670826283937,4,1,0,70,0,0
78410,-70.6713780918728,4,1,0,75,0,0
78673,-70.4198076835052,4,1,0,75,0,0
78805,-70.2947176331487,4,1,0,75,0,0
78936,-70.1700712015712,4,1,0,75,0,0
79199,-69.9220508976593,4,1,0,75,0,0
79463,-69.6758262507856,4,1,0,75,0,0
79594,-69.5533147023188,4,1,0,75,0,0
79726,-69.4312814306732,4,1,0,75,0,0
79857,-69.309675630718,4,1,0,75,0,0
79989,-69.188447189842,4,1,0,75,0,0
80252,-68.9473531800588,4,1,0,75,0,0
80384,-68.8273877941511,4,1,0,75,0,0
80515,-68.7078863599043,4,1,0,75,0,0
80647,-68.5887991747396,4,1,0,75,0,0
80778,-68.4701240884059,4,1,0,75,0,0
80844,-68.4109170141371,4,1,0,75,0,0
80910,-68.351812245774,4,1,0,75,0,0
81042,-68.2339551266218,4,1,0,75,0,0
81305,-67.9994097651232,4,1,0,75,0,0
81371,-67.9410597718267,4,1,0,75,0,0
81436,-67.8827637516903,4,1,0,75,0,0
81568,-67.7665172414961,4,1,0,75,0,0
81699,-67.6506224195516,4,1,0,75,0,0
81831,-67.5351689392251,4,1,0,75,0,0
81897,-67.4776126150746,4,1,0,75,0,0
81963,-67.4201088565078,4,1,0,75,0,0
82094,-67.3054401641176,4,1,0,75,0,0
82226,-67.1911157219148,4,1,0,75,0,0
82357,-67.0772239956695,4,1,0,75,0,0
82423,-67.0204003396594,4,1,0,75,0,0
82489,-66.9637177184658,4,1,0,75,0,0
82555,-66.8505502468791,4,1,0,80,0,0
82752,-66.7378091712432,4,1,0,80,0,0
82884,-66.6254477230087,4,1,0,80,0,0
82949,-66.5693866030441,4,1,0,80,0,0
83015,-66.5134197475683,4,1,0,80,0,0
83147,-66.4018119726451,4,1,0,80,0,0
83278,-66.2905781201318,4,1,0,80,0,0
83410,-66.1797163140281,4,1,0,80,0,0
83476,-66.1244024833681,4,1,0,80,0,0
83542,-66.0691810394664,4,1,0,80,0,0
83673,-65.9590578935843,4,1,0,80,0,0
83805,-65.8493012401399,4,1,0,80,0,0
83936,-65.739866035301,4,1,0,80,0,0
84002,-65.685327868314,4,1,0,80,0,0
84068,-65.6308370425695,4,1,0,80,0,0
84199,-65.5221690983036,4,1,0,80,0,0
84331,-65.4138176223516,4,1,0,80,0,0
84463,-65.3058665566045,4,1,0,80,0,0
84594,-65.1982712026408,4,1,0,80,0,0
84726,-65.0910298051825,4,1,0,80,0,0
84901,-64.948560739894,4,1,0,80,0,0
85077,-64.8067139755679,4,1,0,80,0,0
85252,-64.6654854437992,4,1,0,80,0,0
85428,-64.5249127461867,4,1,0,80,0,0
85603,585.365853658537,4,1,0,80,1,8
85603,-58.1395348837209,4,1,0,80,0,0
85798,507.399577167019,4,1,0,80,1,8
85798,-67.1140939597315,4,1,0,80,0,0
86051,-66.4451827242525,4,1,0,80,0,0
86305,526.315789473684,4,1,0,80,1,8
86305,-63.6942675159236,4,1,0,80,0,0
86699,-63.6942675159236,4,1,0,85,0,0
86831,526.315789473684,4,1,0,85,1,1
86831,-62.5,4,1,0,85,0,1
109988,-62.5,4,1,0,85,0,1
110252,-63.4117419522573,4,1,0,85,0,1
110317,-63.643838894532,4,1,0,85,0,1
110383,-63.8776819044748,4,1,0,85,0,1
110515,-64.3504784458072,4,1,0,85,0,1
110646,-64.830368100347,4,1,0,85,0,1
110778,-65.3174690264562,4,1,0,85,0,1
110909,-65.8119016875488,4,1,0,85,0,1
111041,-66.3139208171997,4,1,0,85,0,1
111173,-66.823613059205,4,1,0,85,0,1
111304,-67.3412463787245,4,1,0,85,0,1
111436,-67.8669156930027,4,1,0,85,0,1
111567,-68.4009031655254,4,1,0,85,0,1
111633,-68.6710368914544,4,1,0,85,0,1
111699,-68.9433602718023,4,1,0,85,0,1
111765,-69.2178042035973,4,1,0,85,0,1
111831,-69.4944418345421,4,1,0,85,0,1
112094,-70.6713780918728,4,1,0,85,0,0
112357,-75.0018750468762,4,1,0,70,0,0
118409,-75.0018750468762,4,1,0,70,0,0
118673,-74.4346686912896,4,1,0,70,0,0
118804,-74.1543255330398,4,1,0,70,0,0
118936,-73.8760315864361,4,1,0,70,0,0
119067,-73.5998186500468,4,1,0,70,0,0
119199,-73.3256634689345,4,1,0,70,0,0
119462,-72.7834880467678,4,1,0,70,0,0
119594,-72.5153696325936,4,1,0,70,0,0
119725,-72.2492193471849,4,1,0,70,0,0
119857,-71.9850155991529,4,1,0,70,0,0
119988,-71.7227371117827,4,1,0,70,0,0
120252,-71.2039230513444,4,1,0,70,0,0
120383,-70.6925109060871,4,1,0,80,0,0
129199,-75.0018750468762,4,1,0,70,0,0
136304,-75.0018750468762,4,1,0,70,0,0
136436,-74.437605282688,4,1,0,70,0,0
136568,-73.8817625824336,4,1,0,70,0,0
136699,-73.3341057859143,4,1,0,70,0,0
136831,-72.7945613727307,4,1,0,70,0,0
136962,-72.2628982047005,4,1,0,70,0,0
137094,-71.7389448492514,4,1,0,70,0,0
137160,-71.4797815863794,4,1,0,70,0,0
137225,-71.2224840835554,4,1,0,70,0,0
137291,-70.9670826283937,4,1,0,70,0,0
137357,-70.6713780918728,4,1,0,75,0,0
137620,-70.4198076835052,4,1,0,75,0,0
137752,-70.2947176331487,4,1,0,75,0,0
137883,-70.1700712015712,4,1,0,75,0,0
138146,-69.9220508976593,4,1,0,75,0,0
138410,-69.6758262507856,4,1,0,75,0,0
138541,-69.5533147023188,4,1,0,75,0,0
138673,-69.4312814306732,4,1,0,75,0,0
138804,-69.309675630718,4,1,0,75,0,0
138936,-69.188447189842,4,1,0,75,0,0
139199,-68.9473531800588,4,1,0,75,0,0
139331,-68.8273877941511,4,1,0,75,0,0
139462,-68.7078863599043,4,1,0,75,0,0
139594,-68.5887991747396,4,1,0,75,0,0
139725,-68.4701240884059,4,1,0,75,0,0
139791,-68.4109170141371,4,1,0,75,0,0
139857,-68.351812245774,4,1,0,75,0,0
139989,-68.2339551266218,4,1,0,75,0,0
140252,-67.9994097651232,4,1,0,75,0,0
140318,-67.9410597718267,4,1,0,75,0,0
140383,-67.8827637516903,4,1,0,75,0,0
140515,-67.7665172414961,4,1,0,75,0,0
140646,-67.6506224195516,4,1,0,75,0,0
140778,-67.5351689392251,4,1,0,75,0,0
140844,-67.4776126150746,4,1,0,75,0,0
140910,-67.4201088565078,4,1,0,75,0,0
141041,-67.3054401641176,4,1,0,75,0,0
141173,-67.1911157219148,4,1,0,75,0,0
141304,-67.0772239956695,4,1,0,75,0,0
141370,-67.0204003396594,4,1,0,75,0,0
141436,-66.9637177184658,4,1,0,75,0,0
141502,-66.8505502468791,4,1,0,80,0,0
141699,-66.7378091712432,4,1,0,80,0,0
141831,-66.6254477230087,4,1,0,80,0,0
141896,-66.5693866030441,4,1,0,80,0,0
141962,-66.5134197475683,4,1,0,80,0,0
142094,-66.4018119726451,4,1,0,80,0,0
142225,-66.2905781201318,4,1,0,80,0,0
142357,-66.1797163140281,4,1,0,80,0,0
142423,-66.1244024833681,4,1,0,80,0,0
142489,-66.0691810394664,4,1,0,80,0,0
142620,-65.9590578935843,4,1,0,80,0,0
142752,-65.8493012401399,4,1,0,80,0,0
142883,-65.739866035301,4,1,0,80,0,0
142949,-65.685327868314,4,1,0,80,0,0
143015,-65.6308370425695,4,1,0,80,0,0
143146,-65.5221690983036,4,1,0,80,0,0
143278,-65.4138176223516,4,1,0,80,0,0
143410,-65.3058665566045,4,1,0,80,0,0
143541,-65.1982712026408,4,1,0,80,0,0
143673,-65.0910298051825,4,1,0,80,0,0
143848,-64.948560739894,4,1,0,80,0,0
144024,-64.8067139755679,4,1,0,80,0,0
144199,-64.6654854437992,4,1,0,80,0,0
144375,-64.5249127461867,4,1,0,80,0,0
144550,585.365853658537,4,1,0,80,1,8
144550,-58.1395348837209,4,1,0,80,0,0
144745,507.399577167019,4,1,0,80,1,8
144745,-67.1140939597315,4,1,0,80,0,0
144998,-66.4451827242525,4,1,0,80,0,0
145252,526.315789473684,4,1,0,80,1,8
145252,-63.6942675159236,4,1,0,80,0,0
145778,526.315789473684,4,1,0,80,1,0
145778,-75.0018750468762,4,1,0,80,0,0
145975,-85.7191839533688,4,1,0,70,0,0
160514,-85.7191839533688,4,1,0,70,0,0
160778,-84.2225834435245,4,1,0,70,0,0
160909,-83.4937805482869,4,1,0,70,0,0
161041,-82.7774140170306,4,1,0,70,0,0
161304,-81.3809368410687,4,1,0,70,0,0
161567,-80.0308598995773,4,1,0,70,0,0
161699,-79.3724496639767,4,1,0,70,0,0
161830,-78.7247844515402,4,1,0,70,0,0
161962,-78.0876643354896,4,1,0,70,0,0
162093,-77.4607138624468,4,1,0,70,0,0
162356,-76.23653758042,4,1,0,70,0,0
162488,-75.050508992552,4,1,0,75,0,0
175120,-75.0018750468762,4,1,0,80,0,0
175383,-74.420321510673,4,1,0,80,0,0
175514,-73.8477171455199,4,1,0,80,0,0
175646,-73.2839106639815,4,1,0,80,0,0
175778,-72.7285950653648,4,1,0,80,0,0
175909,-72.1816320844467,4,1,0,80,0,0
176041,-71.6428346777111,4,1,0,80,0,0
176172,-71.1120719142161,4,1,0,80,0,0
176304,-70.5890657537147,4,1,0,80,0,0
176435,-70.073696506616,4,1,0,80,0,0
176567,-69.5657981144886,4,1,0,80,0,0
176699,-69.0652569987278,4,1,0,80,0,0
176830,-68.5718204104023,4,1,0,80,0,0
176962,-68.0853845190176,4,1,0,80,0,0
177093,-67.6058013890288,4,1,0,80,0,0
177225,-67.1329722922084,4,1,0,80,0,0
177356,-66.6666666666667,4,1,0,80,0,0
177883,-67.6196529759409,4,1,0,80,0,0
178278,-68.3524663278663,4,1,0,80,0,0
178409,-68.600279889142,4,1,0,80,0,0
178541,-68.8498968972794,4,1,0,80,0,0
178672,-69.1013371108731,4,1,0,80,0,0
178935,-69.6097676425956,4,1,0,80,0,0
179199,-70.1257354436505,4,1,0,80,0,0
179330,-70.6494093709377,4,1,0,70,0,0
180909,-62.5,4,1,0,80,0,0
181172,-60.6060606060606,4,1,0,85,0,0
181435,-60.6060606060606,4,1,0,90,0,0
181567,-58.8235294117647,4,1,0,90,0,1
221567,-58.8235294117647,4,1,0,90,0,0
221633,-58.8235294117647,4,1,0,40,0,0
222488,-58.8235294117647,4,1,0,30,0,0
223541,-66.6666666666667,4,1,0,20,0,0
224593,-66.6666666666667,4,1,0,10,0,0
225646,-75.0018750468762,4,1,0,5,0,0
227620,-75.0018750468762,4,1,0,5,0,0
229725,-85.7191839533688,4,1,0,5,0,0

[HitObjects]
256,192,2094,5,0,0:0:0:0:
256,192,2621,1,12,0:0:0:0:
256,192,2884,1,8,0:0:0:0:
256,192,3147,1,0,0:0:0:0:
256,192,3278,1,8,0:0:0:0:
256,192,3673,1,0,0:0:0:0:
256,192,3936,1,0,0:0:0:0:
256,192,4068,1,0,0:0:0:0:
256,192,4331,1,8,0:0:0:0:
256,192,4726,1,8,0:0:0:0:
256,192,4989,1,8,0:0:0:0:
256,192,5252,1,0,0:0:0:0:
256,192,5384,1,8,0:0:0:0:
256,192,5778,1,0,0:0:0:0:
256,192,6042,1,8,0:0:0:0:
256,192,6173,1,0,0:0:0:0:
256,192,6436,1,8,0:0:0:0:
256,192,6831,1,0,0:0:0:0:
256,192,7094,1,8,0:0:0:0:
256,192,7357,1,8,0:0:0:0:
256,192,7489,1,0,0:0:0:0:
256,192,7884,1,8,0:0:0:0:
256,192,8147,1,0,0:0:0:0:
256,192,8278,1,8,0:0:0:0:
256,192,8542,1,0,0:0:0:0:
256,192,8673,1,0,0:0:0:0:
256,192,8936,1,8,0:0:0:0:
256,192,9199,1,0,0:0:0:0:
256,192,9463,1,8,0:0:0:0:
256,192,9594,1,0,0:0:0:0:
256,192,9857,1,0,0:0:0:0:
256,192,9989,1,8,0:0:0:0:
256,192,10252,1,0,0:0:0:0:
256,192,10384,1,0,0:0:0:0:
256,192,10515,1,8,0:0:0:0:
256,192,10581,1,8,0:0:0:0:
256,192,10647,1,0,0:0:0:0:
256,192,10713,1,0,0:0:0:0:
256,192,10778,1,8,0:0:0:0:
256,192,10910,1,0,0:0:0:0:
256,192,11042,1,12,0:0:0:0:
256,192,11305,1,0,0:0:0:0:
256,192,11371,1,0,0:0:0:0:
256,192,11436,1,0,0:0:0:0:
256,192,11568,1,8,0:0:0:0:
256,192,11700,1,8,0:0:0:0:
256,192,11831,1,0,0:0:0:0:
256,192,11963,1,0,0:0:0:0:
256,192,12094,1,8,0:0:0:0:
256,192,12357,1,8,0:0:0:0:
256,192,12489,1,0,0:0:0:0:
256,192,12621,1,8,0:0:0:0:
256,192,12686,1,8,0:0:0:0:
256,192,12752,1,8,0:0:0:0:
256,192,12884,1,0,0:0:0:0:
256,192,13147,1,8,0:0:0:0:
256,192,13410,1,0,0:0:0:0:
256,192,13476,1,0,0:0:0:0:
256,192,13542,1,0,0:0:0:0:
256,192,13607,1,0,0:0:0:0:
256,192,13673,1,8,0:0:0:0:
256,192,13805,1,8,0:0:0:0:
256,192,13936,1,0,0:0:0:0:
256,192,14068,1,0,0:0:0:0:
256,192,14200,1,8,0:0:0:0:
256,192,14463,1,8,0:0:0:0:
256,192,14594,1,0,0:0:0:0:
256,192,14726,1,8,0:0:0:0:
256,192,14792,1,8,0:0:0:0:
256,192,14857,1,8,0:0:0:0:
256,192,14989,1,0,0:0:0:0:
256,192,15055,1,0,0:0:0:0:
256,192,15121,1,0,0:0:0:0:
256,192,15252,1,8,0:0:0:0:
256,192,15384,1,0,0:0:0:0:
256,192,15515,1,8,0:0:0:0:
256,192,15581,1,8,0:0:0:0:
256,192,15647,1,8,0:0:0:0:
256,192,15778,1,0,0:0:0:0:
256,192,15910,1,0,0:0:0:0:
256,192,16042,1,8,0:0:0:0:
256,192,16173,1,0,0:0:0:0:
256,192,16305,1,8,0:0:0:0:
256,192,16436,1,8,0:0:0:0:
256,192,16568,1,0,0:0:0:0:
256,192,16699,1,0,0:0:0:0:
256,192,16765,1,0,0:0:0:0:
256,192,16831,1,8,0:0:0:0:
256,192,16897,1,8,0:0:0:0:
256,192,16963,1,0,0:0:0:0:
256,192,17094,1,8,0:0:0:0:
256,192,17226,1,8,0:0:0:0:
256,192,17357,1,0,0:0:0:0:
256,192,17621,1,8,0:0:0:0:
256,192,17686,1,8,0:0:0:0:
256,192,17752,1,0,0:0:0:0:
256,192,17884,1,8,0:0:0:0:
256,192,18147,1,0,0:0:0:0:
256,192,18278,1,0,0:0:0:0:
256,192,18410,1,8,0:0:0:0:
256,192,18542,1,0,0:0:0:0:
256,192,18673,1,8,0:0:0:0:
256,192,18739,1,8,0:0:0:0:
256,192,18805,1,0,0:0:0:0:
256,192,18936,1,12,0:0:0:0:
256,192,19463,1,4,0:0:0:0:
256,192,19726,1,8,0:0:0:0:
256,192,19857,1,8,0:0:0:0:
256,192,19989,1,0,0:0:0:0:
256,192,20121,1,0,0:0:0:0:
256,192,20252,1,8,0:0:0:0:
256,192,20515,1,0,0:0:0:0:
256,192,20647,1,8,0:0:0:0:
256,192,20910,1,8,0:0:0:0:
256,192,21042,1,0,0:0:0:0:
256,192,21305,1,0,0:0:0:0:
256,192,21371,1,8,0:0:0:0:
256,192,21436,1,8,0:0:0:0:
256,192,21568,1,0,0:0:0:0:
256,192,21831,1,8,0:0:0:0:
256,192,21963,1,8,0:0:0:0:
256,192,22094,1,0,0:0:0:0:
256,192,22357,1,8,0:0:0:0:
256,192,22423,1,0,0:0:0:0:
256,192,22489,1,0,0:0:0:0:
256,192,22621,1,8,0:0:0:0:
256,192,22752,1,0,0:0:0:0:
256,192,22884,1,8,0:0:0:0:
256,192,23015,1,8,0:0:0:0:
256,192,23147,1,0,0:0:0:0:
256,192,23410,1,8,0:0:0:0:
256,192,23673,1,0,0:0:0:0:
256,192,23936,1,8,0:0:0:0:
256,192,24068,1,8,0:0:0:0:
256,192,24199,1,0,0:0:0:0:
256,192,24331,1,0,0:0:0:0:
256,192,24463,1,8,0:0:0:0:
256,192,24726,1,0,0:0:0:0:
256,192,24857,1,8,0:0:0:0:
256,192,24989,1,8,0:0:0:0:
256,192,25121,1,0,0:0:0:0:
256,192,25252,1,8,0:0:0:0:
256,192,25515,1,0,0:0:0:0:
256,192,25581,1,8,0:0:0:0:
256,192,25647,1,8,0:0:0:0:
256,192,25778,1,0,0:0:0:0:
256,192,25910,1,0,0:0:0:0:
256,192,26042,1,8,0:0:0:0:
256,192,26107,1,8,0:0:0:0:
256,192,26173,1,0,0:0:0:0:
256,192,26239,1,0,0:0:0:0:
256,192,26305,1,8,0:0:0:0:
256,192,26568,1,8,0:0:0:0:
256,192,26634,1,0,0:0:0:0:
256,192,26699,1,0,0:0:0:0:
256,192,26831,1,8,0:0:0:0:
256,192,26963,1,8,0:0:0:0:
256,192,27094,1,0,0:0:0:0:
256,192,27226,1,0,0:0:0:0:
256,192,27357,1,8,0:0:0:0:
256,192,27621,1,0,0:0:0:0:
256,192,27884,1,12,0:0:0:0:
256,192,28147,1,0,0:0:0:0:
256,192,28278,1,8,0:0:0:0:
256,192,28410,1,0,0:0:0:0:
256,192,28542,1,0,0:0:0:0:
256,192,28673,1,8,0:0:0:0:
256,192,28936,1,8,0:0:0:0:
256,192,29068,1,0,0:0:0:0:
256,192,29331,1,0,0:0:0:0:
256,192,29463,1,8,0:0:0:0:
256,192,29726,1,0,0:0:0:0:
256,192,29792,1,8,0:0:0:0:
256,192,29857,1,8,0:0:0:0:
256,192,29989,1,0,0:0:0:0:
256,192,30252,1,8,0:0:0:0:
256,192,30384,1,0,0:0:0:0:
256,192,30515,1,8,0:0:0:0:
256,192,30778,1,8,0:0:0:0:
256,192,30844,1,0,0:0:0:0:
256,192,30910,1,0,0:0:0:0:
256,192,31042,1,8,0:0:0:0:
256,192,31173,1,0,0:0:0:0:
256,192,31305,1,8,0:0:0:0:
256,192,31436,1,8,0:0:0:0:
256,192,31568,1,0,0:0:0:0:
256,192,31831,1,0,0:0:0:0:
256,192,32094,1,8,0:0:0:0:
256,192,32357,1,0,0:0:0:0:
256,192,32489,1,8,0:0:0:0:
256,192,32621,1,0,0:0:0:0:
256,192,32752,1,0,0:0:0:0:
256,192,32884,1,8,0:0:0:0:
256,192,33147,1,0,0:0:0:0:
256,192,33278,1,8,0:0:0:0:
256,192,33542,1,8,0:0:0:0:
256,192,33673,1,0,0:0:0:0:
256,192,33936,1,8,0:0:0:0:
256,192,34002,1,0,0:0:0:0:
256,192,34068,1,0,0:0:0:0:
256,192,34200,1,8,0:0:0:0:
256,192,34463,1,0,0:0:0:0:
256,192,34528,1,0,0:0:0:0:
256,192,34594,1,0,0:0:0:0:
256,192,34726,1,8,0:0:0:0:
256,192,34857,1,0,0:0:0:0:
256,192,34989,1,8,0:0:0:0:
256,192,35055,1,8,0:0:0:0:
256,192,35121,1,0,0:0:0:0:
256,192,35252,1,8,0:0:0:0:
256,192,35384,1,8,0:0:0:0:
256,192,35515,1,8,0:0:0:0:
256,192,35647,1,8,0:0:0:0:
256,192,35778,1,0,0:0:0:0:
256,192,35844,1,0,0:0:0:0:
256,192,35910,1,0,0:0:0:0:
256,192,35976,1,0,0:0:0:0:
256,192,36042,1,8,0:0:0:0:
256,192,36305,1,4,0:0:0:0:
256,192,36699,1,8,0:0:0:0:
256,192,36831,1,0,0:0:0:0:
256,192,37094,1,8,0:0:0:0:
256,192,37357,1,0,0:0:0:0:
256,192,37489,1,8,0:0:0:0:
256,192,37752,1,0,0:0:0:0:
256,192,37884,1,0,0:0:0:0:
256,192,38147,1,8,0:0:0:0:
256,192,38410,1,0,0:0:0:0:
256,192,38673,1,8,0:0:0:0:
256,192,38805,1,0,0:0:0:0:
256,192,38936,1,8,0:0:0:0:
256,192,39199,1,8,0:0:0:0:
256,192,39463,1,8,0:0:0:0:
256,192,39594,1,8,0:0:0:0:
256,192,39726,1,0,0:0:0:0:
256,192,39857,1,0,0:0:0:0:
256,192,39989,1,8,0:0:0:0:
256,192,40252,1,0,0:0:0:0:
256,192,40515,1,8,0:0:0:0:
256,192,40910,1,8,0:0:0:0:
256,192,41042,1,0,0:0:0:0:
256,192,41305,1,8,0:0:0:0:
256,192,41568,1,0,0:0:0:0:
256,192,41699,1,8,0:0:0:0:
256,192,41963,1,0,0:0:0:0:
256,192,42094,1,8,0:0:0:0:
256,192,42357,1,0,0:0:0:0:
256,192,42621,1,8,0:0:0:0:
256,192,42884,1,8,0:0:0:0:
256,192,43015,1,0,0:0:0:0:
256,192,43147,1,8,0:0:0:0:
256,192,43410,1,8,0:0:0:0:
256,192,43673,1,0,0:0:0:0:
256,192,43805,1,8,0:0:0:0:
256,192,43936,1,0,0:0:0:0:
256,192,44068,1,0,0:0:0:0:
256,192,44199,1,8,0:0:0:0:
256,192,44463,1,0,0:0:0:0:
256,192,44726,1,12,0:0:0:0:
256,192,44989,1,0,0:0:0:0:
256,192,45121,1,0,0:0:0:0:
256,192,45252,1,8,0:0:0:0:
256,192,45515,1,0,0:0:0:0:
256,192,45778,1,8,0:0:0:0:
256,192,45910,1,8,0:0:0:0:
256,192,46042,1,0,0:0:0:0:
256,192,46173,1,0,0:0:0:0:
256,192,46305,1,8,0:0:0:0:
256,192,46568,1,0,0:0:0:0:
256,192,46831,1,8,0:0:0:0:
256,192,47094,1,0,0:0:0:0:
256,192,47226,1,8,0:0:0:0:
256,192,47357,1,0,0:0:0:0:
256,192,47621,1,8,0:0:0:0:
256,192,47884,1,0,0:0:0:0:
256,192,48015,1,8,0:0:0:0:
256,192,48147,1,8,0:0:0:0:
256,192,48278,1,8,0:0:0:0:
256,192,48410,1,0,0:0:0:0:
256,192,48673,1,8,0:0:0:0:
256,192,48936,1,0,0:0:0:0:
256,192,49199,1,8,0:0:0:0:
256,192,49331,1,8,0:0:0:0:
256,192,49463,1,0,0:0:0:0:
256,192,49726,1,8,0:0:0:0:
256,192,49989,1,0,0:0:0:0:
256,192,50121,1,8,0:0:0:0:
256,192,50252,1,0,0:0:0:0:
256,192,50384,1,0,0:0:0:0:
256,192,50515,1,8,0:0:0:0:
256,192,50778,1,8,0:0:0:0:
256,192,51042,1,4,0:0:0:0:
256,192,51305,1,8,0:0:0:0:
256,192,51436,1,0,0:0:0:0:
256,192,51568,1,8,0:0:0:0:
256,192,51831,1,0,0:0:0:0:
256,192,51963,1,0,0:0:0:0:
256,192,52094,1,8,0:0:0:0:
256,192,52226,1,0,0:0:0:0:
256,192,52292,1,0,0:0:0:0:
256,192,52357,1,8,0:0:0:0:
256,192,52489,1,8,0:0:0:0:
256,192,52621,1,4,0:0:0:0:
256,192,52884,1,0,0:0:0:0:
256,192,53147,1,12,0:0:0:0:
256,192,53410,1,0,0:0:0:0:
256,192,53542,1,8,0:0:0:0:
256,192,53673,1,0,0:0:0:0:
256,192,53936,1,8,0:0:0:0:
256,192,54002,1,8,0:0:0:0:
256,192,54068,1,8,0:0:0:0:
256,192,54199,1,0,0:0:0:0:
256,192,54331,1,8,0:0:0:0:
256,192,54463,1,0,0:0:0:0:
256,192,54528,1,0,0:0:0:0:
256,192,54594,1,0,0:0:0:0:
256,192,54726,1,8,0:0:0:0:
256,192,54989,1,0,0:0:0:0:
256,192,55121,1,0,0:0:0:0:
256,192,55252,1,8,0:0:0:0:
256,192,55515,1,8,0:0:0:0:
256,192,55647,1,0,0:0:0:0:
256,192,55778,1,8,0:0:0:0:
256,192,55910,1,8,0:0:0:0:
256,192,56042,1,0,0:0:0:0:
256,192,56173,1,0,0:0:0:0:
256,192,56305,1,8,0:0:0:0:
256,192,56436,1,0,0:0:0:0:
256,192,56502,1,8,0:0:0:0:
256,192,56568,1,8,0:0:0:0:
256,192,56699,1,0,0:0:0:0:
256,192,56831,1,8,0:0:0:0:
256,192,57094,1,0,0:0:0:0:
256,192,57226,1,8,0:0:0:0:
256,192,57357,1,0,0:0:0:0:
256,192,57621,1,8,0:0:0:0:
256,192,57752,1,8,0:0:0:0:
256,192,57884,1,0,0:0:0:0:
256,192,58015,1,0,0:0:0:0:
256,192,58147,1,8,0:0:0:0:
256,192,58278,1,0,0:0:0:0:
256,192,58410,1,8,0:0:0:0:
256,192,58542,1,0,0:0:0:0:
256,192,58673,1,8,0:0:0:0:
256,192,58739,1,8,0:0:0:0:
256,192,58805,1,0,0:0:0:0:
256,192,58936,1,8,0:0:0:0:
256,192,59068,1,8,0:0:0:0:
256,192,59199,1,0,0:0:0:0:
256,192,59331,1,0,0:0:0:0:
256,192,59463,1,8,0:0:0:0:
256,192,59726,1,0,0:0:0:0:
256,192,59857,1,8,0:0:0:0:
256,192,59989,1,8,0:0:0:0:
256,192,60121,1,0,0:0:0:0:
256,192,60252,1,8,0:0:0:0:
256,192,60515,1,8,0:0:0:0:
256,192,60647,1,0,0:0:0:0:
256,192,60778,1,8,0:0:0:0:
256,192,60910,1,8,0:0:0:0:
256,192,61042,1,0,0:0:0:0:
256,192,61305,1,0,0:0:0:0:
256,192,61568,1,12,0:0:0:0:
256,192,61831,1,0,0:0:0:0:
256,192,61963,1,0,0:0:0:0:
256,192,62094,1,8,0:0:0:0:
256,192,62357,1,8,0:0:0:0:
256,192,62489,1,0,0:0:0:0:
256,192,62621,1,8,0:0:0:0:
256,192,62752,1,0,0:0:0:0:
256,192,62884,1,8,0:0:0:0:
256,192,62950,1,8,0:0:0:0:
256,192,63015,1,0,0:0:0:0:
256,192,63147,1,8,0:0:0:0:
256,192,63410,1,0,0:0:0:0:
256,192,63542,1,8,0:0:0:0:
256,192,63673,1,0,0:0:0:0:
256,192,63936,1,8,0:0:0:0:
256,192,64068,1,8,0:0:0:0:
256,192,64200,1,0,0:0:0:0:
256,192,64463,1,8,0:0:0:0:
256,192,64594,1,0,0:0:0:0:
256,192,64726,1,8,0:0:0:0:
256,192,64857,1,8,0:0:0:0:
256,192,64989,1,0,0:0:0:0:
256,192,65055,1,0,0:0:0:0:
256,192,65121,1,0,0:0:0:0:
256,192,65252,1,8,0:0:0:0:
256,192,65515,1,0,0:0:0:0:
256,192,65778,1,8,0:0:0:0:
256,192,66042,1,0,0:0:0:0:
256,192,66173,1,8,0:0:0:0:
256,192,66305,1,0,0:0:0:0:
256,192,66436,1,0,0:0:0:0:
256,192,66568,1,8,0:0:0:0:
256,192,66831,1,8,0:0:0:0:
256,192,66963,1,0,0:0:0:0:
256,192,67094,1,8,0:0:0:0:
256,192,67160,1,8,0:0:0:0:
256,192,67226,1,0,0:0:0:0:
256,192,67357,1,8,0:0:0:0:
256,192,67489,1,8,0:0:0:0:
256,192,67621,1,0,0:0:0:0:
256,192,67884,1,12,0:0:0:0:
256,192,68147,1,0,0:0:0:0:
256,192,68278,1,0,0:0:0:0:
256,192,68410,1,8,0:0:0:0:
256,192,68673,1,0,0:0:0:0:
256,192,68805,1,0,0:0:0:0:
256,192,68936,1,8,0:0:0:0:
256,192,69068,1,0,0:0:0:0:
256,192,69200,1,8,0:0:0:0:
256,192,69265,1,8,0:0:0:0:
256,192,69331,1,0,0:0:0:0:
256,192,69463,1,12,0:0:0:0:
256,192,69726,1,8,0:0:0:0:
256,192,69989,1,4,0:0:0:0:
256,192,70384,1,8,0:0:0:0:
256,192,70515,1,0,0:0:0:0:
256,192,70778,1,8,0:0:0:0:
256,192,71042,1,8,0:0:0:0:
256,192,71173,1,0,0:0:0:0:
256,192,71436,1,0,0:0:0:0:
256,192,71568,1,8,0:0:0:0:
256,192,71831,1,0,0:0:0:0:
256,192,72094,1,8,0:0:0:0:
256,192,72357,1,0,0:0:0:0:
256,192,72489,1,0,0:0:0:0:
256,192,72621,1,8,0:0:0:0:
256,192,72884,1,0,0:0:0:0:
256,192,73147,1,8,0:0:0:0:
256,192,73278,1,0,0:0:0:0:
256,192,73410,1,8,0:0:0:0:
256,192,73542,1,8,0:0:0:0:
256,192,73673,1,0,0:0:0:0:
256,192,73805,1,0,0:0:0:0:
256,192,73936,1,8,0:0:0:0:
256,192,74200,1,0,0:0:0:0:
256,192,74594,1,8,0:0:0:0:
256,192,74726,1,0,0:0:0:0:
256,192,74989,1,8,0:0:0:0:
256,192,75252,1,0,0:0:0:0:
256,192,75384,1,8,0:0:0:0:
256,192,75647,1,8,0:0:0:0:
256,192,75778,1,0,0:0:0:0:
256,192,76042,1,8,0:0:0:0:
256,192,76305,1,0,0:0:0:0:
256,192,76568,1,8,0:0:0:0:
256,192,76699,1,8,0:0:0:0:
256,192,76831,1,0,0:0:0:0:
256,192,77094,1,8,0:0:0:0:
256,192,77357,1,8,0:0:0:0:
256,192,77489,1,0,0:0:0:0:
256,192,77621,1,8,0:0:0:0:
256,192,77752,1,8,0:0:0:0:
256,192,77884,1,0,0:0:0:0:
256,192,78015,1,8,0:0:0:0:
256,192,78147,1,0,0:0:0:0:
256,192,78213,1,0,0:0:0:0:
256,192,78278,1,0,0:0:0:0:
256,192,78344,1,0,0:0:0:0:
256,192,78410,1,8,0:0:0:0:
256,192,78673,1,0,0:0:0:0:
256,192,78805,1,0,0:0:0:0:
256,192,78936,1,8,0:0:0:0:
256,192,79199,1,0,0:0:0:0:
256,192,79463,1,8,0:0:0:0:
256,192,79594,1,8,0:0:0:0:
256,192,79726,1,0,0:0:0:0:
256,192,79857,1,0,0:0:0:0:
256,192,79989,1,8,0:0:0:0:
256,192,80252,1,0,0:0:0:0:
256,192,80384,1,0,0:0:0:0:
256,192,80515,1,8,0:0:0:0:
256,192,80647,1,8,0:0:0:0:
256,192,80778,1,0,0:0:0:0:
256,192,80844,1,0,0:0:0:0:
256,192,80910,1,0,0:0:0:0:
256,192,81042,1,8,0:0:0:0:
256,192,81305,1,0,0:0:0:0:
256,192,81371,1,0,0:0:0:0:
256,192,81436,1,8,0:0:0:0:
256,192,81568,1,0,0:0:0:0:
256,192,81699,1,0,0:0:0:0:
256,192,81831,1,8,0:0:0:0:
256,192,81897,1,8,0:0:0:0:
256,192,81963,1,8,0:0:0:0:
256,192,82094,1,0,0:0:0:0:
256,192,82226,1,0,0:0:0:0:
256,192,82357,1,8,0:0:0:0:
256,192,82423,1,8,0:0:0:0:
256,192,82489,1,0,0:0:0:0:
256,192,82621,1,8,0:0:0:0:
256,192,82752,1,8,0:0:0:0:
256,192,82884,1,0,0:0:0:0:
256,192,82949,1,0,0:0:0:0:
256,192,83015,1,8,0:0:0:0:
256,192,83147,1,0,0:0:0:0:
256,192,83278,1,0,0:0:0:0:
256,192,83410,1,8,0:0:0:0:
256,192,83476,1,8,0:0:0:0:
256,192,83542,1,8,0:0:0:0:
256,192,83673,1,0,0:0:0:0:
256,192,83805,1,8,0:0:0:0:
256,192,83936,1,0,0:0:0:0:
256,192,84002,1,0,0:0:0:0:
256,192,84068,1,8,0:0:0:0:
256,192,84199,1,0,0:0:0:0:
256,192,84331,1,0,0:0:0:0:
256,192,84463,1,8,0:0:0:0:
256,192,84594,1,0,0:0:0:0:
256,192,84726,1,8,0:0:0:0:
256,192,84901,1,8,0:0:0:0:
256,192,85077,1,8,0:0:0:0:
256,192,85252,1,0,0:0:0:0:
256,192,85428,1,0,0:0:0:0:
256,192,85603,1,0,0:0:0:0:
256,192,85798,1,8,0:0:0:0:
256,192,86051,1,8,0:0:0:0:
256,192,86305,1,4,0:0:0:0:
256,192,86831,1,12,0:0:0:0:
256,192,87094,1,0,0:0:0:0:
256,192,87225,1,8,0:0:0:0:
256,192,87357,1,8,0:0:0:0:
256,192,87620,1,0,0:0:0:0:
256,192,87883,1,8,0:0:0:0:
256,192,88015,1,0,0:0:0:0:
256,192,88146,1,8,0:0:0:0:
256,192,88278,1,8,0:0:0:0:
256,192,88409,1,0,0:0:0:0:
256,192,88673,1,8,0:0:0:0:
256,192,88936,1,0,0:0:0:0:
256,192,89199,1,8,0:0:0:0:
256,192,89331,1,8,0:0:0:0:
256,192,89462,1,0,0:0:0:0:
256,192,89725,1,8,0:0:0:0:
256,192,89988,1,0,0:0:0:0:
256,192,90120,1,0,0:0:0:0:
256,192,90252,1,8,0:0:0:0:
256,192,90383,1,8,0:0:0:0:
256,192,90515,1,0,0:0:0:0:
256,192,90778,1,8,0:0:0:0:
256,192,90909,1,8,0:0:0:0:
256,192,91041,1,0,0:0:0:0:
256,192,91173,1,0,0:0:0:0:
256,192,91304,1,8,0:0:0:0:
256,192,91436,1,0,0:0:0:0:
256,192,91567,1,0,0:0:0:0:
256,192,91831,1,8,0:0:0:0:
256,192,91962,1,8,0:0:0:0:
256,192,92094,1,0,0:0:0:0:
256,192,92225,1,8,0:0:0:0:
256,192,92357,1,8,0:0:0:0:
256,192,92488,1,0,0:0:0:0:
256,192,92620,1,0,0:0:0:0:
256,192,92883,1,8,0:0:0:0:
256,192,93146,1,0,0:0:0:0:
256,192,93278,1,8,0:0:0:0:
256,192,93409,1,8,0:0:0:0:
256,192,93541,1,0,0:0:0:0:
256,192,93673,1,8,0:0:0:0:
256,192,93936,1,8,0:0:0:0:
256,192,94067,1,0,0:0:0:0:
256,192,94199,1,8,0:0:0:0:
256,192,94331,1,8,0:0:0:0:
256,192,94462,1,0,0:0:0:0:
256,192,94594,1,0,0:0:0:0:
256,192,94725,1,8,0:0:0:0:
256,192,94988,1,0,0:0:0:0:
256,192,95252,1,12,0:0:0:0:
256,192,95515,1,0,0:0:0:0:
256,192,95646,1,8,0:0:0:0:
256,192,95778,1,8,0:0:0:0:
256,192,96041,1,0,0:0:0:0:
256,192,96304,1,8,0:0:0:0:
256,192,96436,1,0,0:0:0:0:
256,192,96567,1,8,0:0:0:0:
256,192,96699,1,8,0:0:0:0:
256,192,96831,1,0,0:0:0:0:
256,192,97094,1,8,0:0:0:0:
256,192,97225,1,8,0:0:0:0:
256,192,97357,1,0,0:0:0:0:
256,192,97488,1,0,0:0:0:0:
256,192,97620,1,8,0:0:0:0:
256,192,97752,1,0,0:0:0:0:
256,192,97883,1,0,0:0:0:0:
256,192,98146,1,8,0:0:0:0:
256,192,98278,1,8,0:0:0:0:
256,192,98409,1,0,0:0:0:0:
256,192,98541,1,8,0:0:0:0:
256,192,98673,1,8,0:0:0:0:
256,192,98804,1,0,0:0:0:0:
256,192,98936,1,0,0:0:0:0:
256,192,99199,1,8,0:0:0:0:
256,192,99462,1,0,0:0:0:0:
256,192,99725,1,8,0:0:0:0:
256,192,99857,1,0,0:0:0:0:
256,192,99988,1,8,0:0:0:0:
256,192,100252,1,0,0:0:0:0:
256,192,100383,1,0,0:0:0:0:
256,192,100515,1,8,0:0:0:0:
256,192,100646,1,0,0:0:0:0:
256,192,100778,1,8,0:0:0:0:
256,192,100909,1,8,0:0:0:0:
256,192,101041,1,0,0:0:0:0:
256,192,101304,1,8,0:0:0:0:
256,192,101567,1,4,0:0:0:0:
256,192,101831,1,8,0:0:0:0:
256,192,101962,1,8,0:0:0:0:
256,192,102094,1,0,0:0:0:0:
256,192,102225,1,0,0:0:0:0:
256,192,102357,1,8,0:0:0:0:
256,192,102488,1,0,0:0:0:0:
256,192,102620,1,8,0:0:0:0:
256,192,102752,1,0,0:0:0:0:
256,192,102817,1,0,0:0:0:0:
256,192,102883,1,8,0:0:0:0:
256,192,103015,1,8,0:0:0:0:
256,192,103146,1,4,0:0:0:0:
256,192,103409,1,0,0:0:0:0:
256,192,103673,1,12,0:0:0:0:
256,192,103936,1,8,0:0:0:0:
256,192,104067,1,8,0:0:0:0:
256,192,104199,1,0,0:0:0:0:
256,192,104331,1,0,0:0:0:0:
256,192,104462,1,8,0:0:0:0:
256,192,104725,1,0,0:0:0:0:
256,192,104857,1,8,0:0:0:0:
256,192,104988,1,0,0:0:0:0:
256,192,105120,1,0,0:0:0:0:
256,192,105252,1,8,0:0:0:0:
256,192,105515,1,8,0:0:0:0:
256,192,105581,1,0,0:0:0:0:
256,192,105646,1,8,0:0:0:0:
256,192,105778,1,8,0:0:0:0:
256,192,105909,1,0,0:0:0:0:
256,192,106041,1,0,0:0:0:0:
256,192,106173,1,8,0:0:0:0:
256,192,106304,1,8,0:0:0:0:
256,192,106567,1,0,0:0:0:0:
256,192,106633,1,8,0:0:0:0:
256,192,106699,1,0,0:0:0:0:
256,192,106831,1,8,0:0:0:0:
256,192,106962,1,8,0:0:0:0:
256,192,107094,1,0,0:0:0:0:
256,192,107225,1,0,0:0:0:0:
256,192,107357,1,8,0:0:0:0:
256,192,107620,1,8,0:0:0:0:
256,192,107883,1,0,0:0:0:0:
256,192,108015,1,0,0:0:0:0:
256,192,108146,1,8,0:0:0:0:
256,192,108278,1,8,0:0:0:0:
256,192,108409,1,0,0:0:0:0:
256,192,108673,1,8,0:0:0:0:
256,192,108936,1,0,0:0:0:0:
256,192,109067,1,8,0:0:0:0:
256,192,109199,1,8,0:0:0:0:
256,192,109331,1,0,0:0:0:0:
256,192,109462,1,8,0:0:0:0:
256,192,109725,1,0,0:0:0:0:
256,192,109791,1,8,0:0:0:0:
256,192,109857,1,8,0:0:0:0:
256,192,109988,1,4,0:0:0:0:
256,192,110252,1,8,0:0:0:0:
256,192,110317,1,0,0:0:0:0:
256,192,110383,1,0,0:0:0:0:
256,192,110515,1,8,0:0:0:0:
256,192,110646,1,8,0:0:0:0:
256,192,110778,1,0,0:0:0:0:
256,192,110909,1,0,0:0:0:0:
256,192,111041,1,8,0:0:0:0:
256,192,111173,1,8,0:0:0:0:
256,192,111304,1,8,0:0:0:0:
256,192,111436,1,0,0:0:0:0:
256,192,111567,1,8,0:0:0:0:
256,192,111633,1,8,0:0:0:0:
256,192,111699,1,8,0:0:0:0:
256,192,111765,1,8,0:0:0:0:
256,192,111831,1,0,0:0:0:0:
256,192,112094,1,12,0:0:0:0:
256,192,112488,1,0,0:0:0:0:
256,192,112883,1,0,0:0:0:0:
256,192,113146,1,8,0:0:0:0:
256,192,113409,1,0,0:0:0:0:
256,192,113541,1,0,0:0:0:0:
256,192,113673,1,8,0:0:0:0:
256,192,113936,1,0,0:0:0:0:
256,192,114199,1,8,0:0:0:0:
256,192,114396,1,8,0:0:0:0:
256,192,114594,1,8,0:0:0:0:
256,192,114725,1,0,0:0:0:0:
256,192,114988,1,0,0:0:0:0:
256,192,115252,1,8,0:0:0:0:
256,192,115646,1,0,0:0:0:0:
256,192,115778,1,0,0:0:0:0:
256,192,116041,1,8,0:0:0:0:
256,192,116304,1,0,0:0:0:0:
256,192,116699,1,0,0:0:0:0:
256,192,117094,1,8,0:0:0:0:
256,192,117357,1,8,0:0:0:0:
256,192,117752,1,0,0:0:0:0:
256,192,117883,1,8,0:0:0:0:
256,192,118146,1,0,0:0:0:0:
256,192,118278,1,0,0:0:0:0:
256,192,118409,1,8,0:0:0:0:
256,192,118673,1,0,0:0:0:0:
256,192,118804,1,8,0:0:0:0:
256,192,118936,1,0,0:0:0:0:
256,192,119067,1,8,0:0:0:0:
256,192,119199,1,0,0:0:0:0:
256,192,119462,1,8,0:0:0:0:
256,192,119594,1,8,0:0:0:0:
256,192,119725,1,0,0:0:0:0:
256,192,119857,1,0,0:0:0:0:
256,192,119988,1,8,0:0:0:0:
256,192,120252,1,12,0:0:0:0:
256,192,120515,1,4,0:0:0:0:
256,192,120778,1,8,0:0:0:0:
256,192,120844,1,8,0:0:0:0:
256,192,120909,1,0,0:0:0:0:
256,192,121041,1,8,0:0:0:0:
256,192,121173,1,8,0:0:0:0:
256,192,121304,1,0,0:0:0:0:
256,192,121567,1,8,0:0:0:0:
256,192,121699,1,8,0:0:0:0:
256,192,121831,1,0,0:0:0:0:
256,192,121962,1,0,0:0:0:0:
256,192,122094,1,8,0:0:0:0:
256,192,122159,1,8,0:0:0:0:
256,192,122225,1,8,0:0:0:0:
256,192,122357,1,0,0:0:0:0:
256,192,122620,1,8,0:0:0:0:
256,192,122752,1,0,0:0:0:0:
256,192,122883,1,8,0:0:0:0:
256,192,122949,1,8,0:0:0:0:
256,192,123015,1,0,0:0:0:0:
256,192,123146,1,8,0:0:0:0:
256,192,123409,1,8,0:0:0:0:
256,192,123673,1,0,0:0:0:0:
256,192,123804,1,8,0:0:0:0:
256,192,123936,1,8,0:0:0:0:
256,192,124067,1,0,0:0:0:0:
256,192,124199,1,8,0:0:0:0:
256,192,124265,1,8,0:0:0:0:
256,192,124330,1,8,0:0:0:0:
256,192,124462,1,0,0:0:0:0:
256,192,124528,1,0,0:0:0:0:
256,192,124594,1,0,0:0:0:0:
256,192,124725,1,8,0:0:0:0:
256,192,124988,1,0,0:0:0:0:
256,192,125054,1,0,0:0:0:0:
256,192,125120,1,8,0:0:0:0:
256,192,125252,1,0,0:0:0:0:
256,192,125383,1,0,0:0:0:0:
256,192,125515,1,8,0:0:0:0:
256,192,125778,1,0,0:0:0:0:
256,192,125909,1,8,0:0:0:0:
256,192,126041,1,0,0:0:0:0:
256,192,126173,1,0,0:0:0:0:
256,192,126304,1,8,0:0:0:0:
256,192,126370,1,8,0:0:0:0:
256,192,126436,1,8,0:0:0:0:
256,192,126567,1,0,0:0:0:0:
256,192,126699,1,8,0:0:0:0:
256,192,126830,1,4,0:0:0:0:
256,192,127094,1,8,0:0:0:0:
256,192,127159,1,8,0:0:0:0:
256,192,127225,1,0,0:0:0:0:
256,192,127357,1,8,0:0:0:0:
256,192,127488,1,8,0:0:0:0:
256,192,127620,1,0,0:0:0:0:
256,192,127752,1,0,0:0:0:0:
256,192,127883,1,8,0:0:0:0:
256,192,128015,1,0,0:0:0:0:
256,192,128146,1,8,0:0:0:0:
256,192,128212,1,8,0:0:0:0:
256,192,128278,1,0,0:0:0:0:
256,192,128409,1,12,0:0:0:0:
256,192,128936,1,4,0:0:0:0:
256,192,129331,1,8,0:0:0:0:
256,192,129462,1,0,0:0:0:0:
256,192,129725,1,8,0:0:0:0:
256,192,129989,1,8,0:0:0:0:
256,192,130120,1,0,0:0:0:0:
256,192,130383,1,0,0:0:0:0:
256,192,130515,1,8,0:0:0:0:
256,192,130778,1,0,0:0:0:0:
256,192,131041,1,8,0:0:0:0:
256,192,131304,1,0,0:0:0:0:
256,192,131436,1,0,0:0:0:0:
256,192,131568,1,8,0:0:0:0:
256,192,131831,1,0,0:0:0:0:
256,192,132094,1,8,0:0:0:0:
256,192,132225,1,0,0:0:0:0:
256,192,132357,1,8,0:0:0:0:
256,192,132489,1,8,0:0:0:0:
256,192,132620,1,0,0:0:0:0:
256,192,132752,1,0,0:0:0:0:
256,192,132883,1,8,0:0:0:0:
256,192,133147,1,0,0:0:0:0:
256,192,133541,1,8,0:0:0:0:
256,192,133673,1,0,0:0:0:0:
256,192,133936,1,8,0:0:0:0:
256,192,134199,1,0,0:0:0:0:
256,192,134331,1,8,0:0:0:0:
256,192,134594,1,8,0:0:0:0:
256,192,134725,1,0,0:0:0:0:
256,192,134989,1,8,0:0:0:0:
256,192,135252,1,0,0:0:0:0:
256,192,135515,1,8,0:0:0:0:
256,192,135646,1,8,0:0:0:0:
256,192,135778,1,0,0:0:0:0:
256,192,136041,1,8,0:0:0:0:
256,192,136304,1,8,0:0:0:0:
256,192,136436,1,0,0:0:0:0:
256,192,136568,1,8,0:0:0:0:
256,192,136699,1,8,0:0:0:0:
256,192,136831,1,0,0:0:0:0:
256,192,136962,1,8,0:0:0:0:
256,192,137094,1,0,0:0:0:0:
256,192,137160,1,0,0:0:0:0:
256,192,137225,1,0,0:0:0:0:
256,192,137291,1,0,0:0:0:0:
256,192,137357,1,8,0:0:0:0:
256,192,137620,1,0,0:0:0:0:
256,192,137752,1,0,0:0:0:0:
256,192,137883,1,8,0:0:0:0:
256,192,138146,1,0,0:0:0:0:
256,192,138410,1,8,0:0:0:0:
256,192,138541,1,8,0:0:0:0:
256,192,138673,1,0,0:0:0:0:
256,192,138804,1,0,0:0:0:0:
256,192,138936,1,8,0:0:0:0:
256,192,139199,1,0,0:0:0:0:
256,192,139331,1,0,0:0:0:0:
256,192,139462,1,8,0:0:0:0:
256,192,139594,1,8,0:0:0:0:
256,192,139725,1,0,0:0:0:0:
256,192,139791,1,0,0:0:0:0:
256,192,139857,1,0,0:0:0:0:
256,192,139989,1,8,0:0:0:0:
256,192,140252,1,0,0:0:0:0:
256,192,140318,1,0,0:0:0:0:
256,192,140383,1,8,0:0:0:0:
256,192,140515,1,0,0:0:0:0:
256,192,140646,1,0,0:0:0:0:
256,192,140778,1,8,0:0:0:0:
256,192,140844,1,8,0:0:0:0:
256,192,140910,1,8,0:0:0:0:
256,192,141041,1,0,0:0:0:0:
256,192,141173,1,0,0:0:0:0:
256,192,141304,1,8,0:0:0:0:
256,192,141370,1,8,0:0:0:0:
256,192,141436,1,0,0:0:0:0:
256,192,141568,1,8,0:0:0:0:
256,192,141699,1,8,0:0:0:0:
256,192,141831,1,0,0:0:0:0:
256,192,141896,1,0,0:0:0:0:
256,192,141962,1,8,0:0:0:0:
256,192,142094,1,0,0:0:0:0:
256,192,142225,1,0,0:0:0:0:
256,192,142357,1,8,0:0:0:0:
256,192,142423,1,8,0:0:0:0:
256,192,142489,1,8,0:0:0:0:
256,192,142620,1,0,0:0:0:0:
256,192,142752,1,8,0:0:0:0:
256,192,142883,1,0,0:0:0:0:
256,192,142949,1,0,0:0:0:0:
256,192,143015,1,8,0:0:0:0:
256,192,143146,1,0,0:0:0:0:
256,192,143278,1,0,0:0:0:0:
256,192,143410,1,8,0:0:0:0:
256,192,143541,1,0,0:0:0:0:
256,192,143673,1,8,0:0:0:0:
256,192,143848,1,8,0:0:0:0:
256,192,144024,1,8,0:0:0:0:
256,192,144199,1,0,0:0:0:0:
256,192,144375,1,0,0:0:0:0:
256,192,144550,1,0,0:0:0:0:
256,192,144745,1,8,0:0:0:0:
256,192,144999,1,8,0:0:0:0:
256,192,145252,1,4,0:0:0:0:
256,192,145778,1,12,0:0:0:0:
256,192,146041,1,0,0:0:0:0:
256,192,146172,1,8,0:0:0:0:
256,192,146567,1,8,0:0:0:0:
256,192,146830,1,0,0:0:0:0:
256,192,146962,1,0,0:0:0:0:
256,192,147356,1,8,0:0:0:0:
256,192,147620,1,0,0:0:0:0:
256,192,147883,1,8,0:0:0:0:
256,192,148146,1,0,0:0:0:0:
256,192,148278,1,8,0:0:0:0:
256,192,148672,1,0,0:0:0:0:
256,192,148935,1,8,0:0:0:0:
256,192,149067,1,0,0:0:0:0:
256,192,149462,1,8,0:0:0:0:
256,192,149725,1,8,0:0:0:0:
256,192,149988,1,0,0:0:0:0:
256,192,150383,1,0,0:0:0:0:
256,192,150514,1,8,0:0:0:0:
256,192,150778,1,8,0:0:0:0:
256,192,151041,1,0,0:0:0:0:
256,192,151172,1,0,0:0:0:0:
256,192,151567,1,8,0:0:0:0:
256,192,151830,1,8,0:0:0:0:
256,192,152093,1,0,0:0:0:0:
256,192,152356,1,0,0:0:0:0:
256,192,152488,1,0,0:0:0:0:
256,192,152620,1,8,0:0:0:0:
256,192,152883,1,0,0:0:0:0:
256,192,153146,1,8,0:0:0:0:
256,192,153278,1,0,0:0:0:0:
256,192,153672,1,8,0:0:0:0:
256,192,153935,1,8,0:0:0:0:
256,192,154199,1,0,0:0:0:0:
256,192,154462,1,8,0:0:0:0:
256,192,154593,1,8,0:0:0:0:
256,192,154725,1,0,0:0:0:0:
256,192,154988,1,8,0:0:0:0:
256,192,155251,1,0,0:0:0:0:
256,192,155383,1,8,0:0:0:0:
256,192,155778,1,0,0:0:0:0:
256,192,156041,1,8,0:0:0:0:
256,192,156304,1,0,0:0:0:0:
256,192,156567,1,8,0:0:0:0:
256,192,156699,1,0,0:0:0:0:
256,192,156830,1,8,0:0:0:0:
256,192,157093,1,8,0:0:0:0:
256,192,157356,1,0,0:0:0:0:
256,192,157488,1,0,0:0:0:0:
256,192,157883,1,8,0:0:0:0:
256,192,158146,1,0,0:0:0:0:
256,192,158409,1,8,0:0:0:0:
256,192,158804,1,0,0:0:0:0:
256,192,158935,1,8,0:0:0:0:
256,192,159199,1,8,0:0:0:0:
256,192,159462,1,0,0:0:0:0:
256,192,159593,1,8,0:0:0:0:
256,192,159988,1,0,0:0:0:0:
256,192,160251,1,0,0:0:0:0:
256,192,160514,1,8,0:0:0:0:
256,192,160778,1,0,0:0:0:0:
256,192,160909,1,8,0:0:0:0:
256,192,161041,1,0,0:0:0:0:
256,192,161304,1,8,0:0:0:0:
256,192,161567,1,8,0:0:0:0:
256,192,161699,1,8,0:0:0:0:
256,192,161830,1,0,0:0:0:0:
256,192,161962,1,0,0:0:0:0:
256,192,162093,1,12,0:0:0:0:
256,192,162356,1,8,0:0:0:0:
256,192,162620,1,4,0:0:0:0:
256,192,162883,1,0,0:0:0:0:
256,192,163014,1,0,0:0:0:0:
256,192,163146,1,8,0:0:0:0:
256,192,163409,1,0,0:0:0:0:
256,192,163672,1,8,0:0:0:0:
256,192,163804,1,0,0:0:0:0:
256,192,164067,1,0,0:0:0:0:
256,192,164199,1,8,0:0:0:0:
256,192,164330,1,8,0:0:0:0:
256,192,164462,1,0,0:0:0:0:
256,192,164593,1,0,0:0:0:0:
256,192,164725,1,8,0:0:0:0:
256,192,164988,1,0,0:0:0:0:
256,192,165120,1,0,0:0:0:0:
256,192,165251,1,8,0:0:0:0:
256,192,165514,1,0,0:0:0:0:
256,192,165778,1,8,0:0:0:0:
256,192,165909,1,0,0:0:0:0:
256,192,166041,1,8,0:0:0:0:
256,192,166172,1,8,0:0:0:0:
256,192,166304,1,0,0:0:0:0:
256,192,166567,1,8,0:0:0:0:
256,192,166830,1,0,0:0:0:0:
256,192,167093,1,8,0:0:0:0:
256,192,167225,1,8,0:0:0:0:
256,192,167356,1,0,0:0:0:0:
256,192,167620,1,8,0:0:0:0:
256,192,167883,1,0,0:0:0:0:
256,192,168014,1,0,0:0:0:0:
256,192,168146,1,8,0:0:0:0:
256,192,168278,1,0,0:0:0:0:
256,192,168409,1,8,0:0:0:0:
256,192,168672,1,0,0:0:0:0:
256,192,168935,1,8,0:0:0:0:
256,192,169199,1,0,0:0:0:0:
256,192,169330,1,8,0:0:0:0:
256,192,169462,1,0,0:0:0:0:
256,192,169725,1,8,0:0:0:0:
256,192,169988,1,8,0:0:0:0:
256,192,170120,1,0,0:0:0:0:
256,192,170251,1,8,0:0:0:0:
256,192,170383,1,8,0:0:0:0:
256,192,170514,1,0,0:0:0:0:
256,192,170778,1,8,0:0:0:0:
256,192,170843,1,8,0:0:0:0:
256,192,170909,1,0,0:0:0:0:
256,192,171041,1,12,0:0:0:0:
256,192,171304,1,8,0:0:0:0:
256,192,171435,1,0,0:0:0:0:
256,192,171567,1,8,0:0:0:0:
256,192,171699,1,8,0:0:0:0:
256,192,171830,1,0,0:0:0:0:
256,192,172093,1,8,0:0:0:0:
256,192,172225,1,0,0:0:0:0:
256,192,172356,1,8,0:0:0:0:
256,192,172620,1,0,0:0:0:0:
256,192,172751,1,0,0:0:0:0:
256,192,172883,1,8,0:0:0:0:
256,192,173014,1,8,0:0:0:0:
256,192,173146,1,0,0:0:0:0:
256,192,173409,1,8,0:0:0:0:
256,192,173541,1,8,0:0:0:0:
256,192,173672,1,0,0:0:0:0:
256,192,173935,1,8,0:0:0:0:
256,192,174067,1,8,0:0:0:0:
256,192,174199,1,0,0:0:0:0:
256,192,174330,1,8,0:0:0:0:
256,192,174462,1,0,0:0:0:0:
256,192,174593,1,0,0:0:0:0:
256,192,174725,1,8,0:0:0:0:
256,192,174988,1,8,0:0:0:0:
256,192,175251,1,0,0:0:0:0:
256,192,175383,1,0,0:0:0:0:
256,192,175514,1,8,0:0:0:0:
256,192,175646,1,0,0:0:0:0:
256,192,175778,1,8,0:0:0:0:
256,192,175909,1,8,0:0:0:0:
256,192,176041,1,0,0:0:0:0:
256,192,176172,1,0,0:0:0:0:
256,192,176304,1,8,0:0:0:0:
256,192,176435,1,0,0:0:0:0:
256,192,176567,1,8,0:0:0:0:
256,192,176699,1,0,0:0:0:0:
256,192,176830,1,8,0:0:0:0:
256,192,176962,1,8,0:0:0:0:
256,192,177093,1,8,0:0:0:0:
256,192,177225,1,8,0:0:0:0:
256,192,177356,1,4,0:0:0:0:
256,192,177883,1,0,0:0:0:0:
256,192,178278,1,0,0:0:0:0:
256,192,178409,1,8,0:0:0:0:
256,192,178541,1,8,0:0:0:0:
256,192,178672,1,0,0:0:0:0:
256,192,178935,1,12,0:0:0:0:
256,192,179199,1,0,0:0:0:0:
256,192,179462,1,8,0:0:0:0:
256,192,179725,1,0,0:0:0:0:
256,192,179856,1,8,0:0:0:0:
256,192,179988,1,0,0:0:0:0:
256,192,180251,1,8,0:0:0:0:
256,192,180514,1,0,0:0:0:0:
256,192,180646,1,8,0:0:0:0:
256,192,181041,1,4,0:0:0:0:
256,192,181304,1,0,0:0:0:0:
256,192,181567,1,12,0:0:0:0:
256,192,181830,1,0,0:0:0:0:
256,192,181962,1,8,0:0:0:0:
256,192,182093,1,8,0:0:0:0:
256,192,182225,1,0,0:0:0:0:
256,192,182356,1,0,0:0:0:0:
256,192,182620,1,8,0:0:0:0:
256,192,182751,1,0,0:0:0:0:
256,192,182883,1,8,0:0:0:0:
256,192,183014,1,8,0:0:0:0:
256,192,183146,1,0,0:0:0:0:
256,192,183278,1,0,0:0:0:0:
256,192,183409,1,8,0:0:0:0:
256,192,183541,1,8,0:0:0:0:
256,192,183672,1,0,0:0:0:0:
256,192,183935,1,8,0:0:0:0:
256,192,184067,1,8,0:0:0:0:
256,192,184199,1,0,0:0:0:0:
256,192,184330,1,0,0:0:0:0:
256,192,184462,1,8,0:0:0:0:
256,192,184593,1,8,0:0:0:0:
256,192,184725,1,0,0:0:0:0:
256,192,184988,1,8,0:0:0:0:
256,192,185120,1,0,0:0:0:0:
256,192,185251,1,8,0:0:0:0:
256,192,185383,1,8,0:0:0:0:
256,192,185514,1,0,0:0:0:0:
256,192,185778,1,8,0:0:0:0:
256,192,185909,1,0,0:0:0:0:
256,192,185975,1,0,0:0:0:0:
256,192,186041,1,0,0:0:0:0:
256,192,186172,1,8,0:0:0:0:
256,192,186304,1,8,0:0:0:0:
256,192,186435,1,0,0:0:0:0:
256,192,186567,1,8,0:0:0:0:
256,192,186699,1,0,0:0:0:0:
256,192,186764,1,0,0:0:0:0:
256,192,186830,1,8,0:0:0:0:
256,192,186962,1,8,0:0:0:0:
256,192,187093,1,0,0:0:0:0:
256,192,187225,1,8,0:0:0:0:
256,192,187291,1,8,0:0:0:0:
256,192,187356,1,8,0:0:0:0:
256,192,187620,1,0,0:0:0:0:
256,192,187883,1,12,0:0:0:0:
256,192,188146,1,0,0:0:0:0:
256,192,188278,1,8,0:0:0:0:
256,192,188409,1,8,0:0:0:0:
256,192,188541,1,0,0:0:0:0:
256,192,188672,1,8,0:0:0:0:
256,192,188804,1,8,0:0:0:0:
256,192,188935,1,0,0:0:0:0:
256,192,189067,1,8,0:0:0:0:
256,192,189330,1,8,0:0:0:0:
256,192,189462,1,0,0:0:0:0:
256,192,189593,1,0,0:0:0:0:
256,192,189725,1,8,0:0:0:0:
256,192,189856,1,8,0:0:0:0:
256,192,189988,1,0,0:0:0:0:
256,192,190120,1,8,0:0:0:0:
256,192,190251,1,0,0:0:0:0:
256,192,190383,1,0,0:0:0:0:
256,192,190514,1,8,0:0:0:0:
256,192,190778,1,8,0:0:0:0:
256,192,190909,1,0,0:0:0:0:
256,192,191041,1,8,0:0:0:0:
256,192,191172,1,8,0:0:0:0:
256,192,191304,1,0,0:0:0:0:
256,192,191435,1,0,0:0:0:0:
256,192,191567,1,8,0:0:0:0:
256,192,191830,1,0,0:0:0:0:
256,192,192093,1,8,0:0:0:0:
256,192,192225,1,8,0:0:0:0:
256,192,192356,1,0,0:0:0:0:
256,192,192488,1,0,0:0:0:0:
256,192,192620,1,8,0:0:0:0:
256,192,192883,1,0,0:0:0:0:
256,192,193146,1,8,0:0:0:0:
256,192,193278,1,8,0:0:0:0:
256,192,193409,1,8,0:0:0:0:
256,192,193541,1,0,0:0:0:0:
256,192,193672,1,8,0:0:0:0:
256,192,193935,1,8,0:0:0:0:
256,192,194199,1,4,0:0:0:0:
256,192,194593,1,8,0:0:0:0:
256,192,194725,1,0,0:0:0:0:
256,192,194988,1,8,0:0:0:0:
256,192,195120,1,8,0:0:0:0:
256,192,195251,1,0,0:0:0:0:
256,192,195383,1,8,0:0:0:0:
256,192,195449,1,8,0:0:0:0:
256,192,195514,1,0,0:0:0:0:
256,192,195646,1,8,0:0:0:0:
256,192,195778,1,4,0:0:0:0:
256,192,196041,1,0,0:0:0:0:
256,192,196304,1,12,0:0:0:0:
256,192,196567,1,0,0:0:0:0:
256,192,196698,1,8,0:0:0:0:
256,192,196830,1,0,0:0:0:0:
256,192,196962,1,0,0:0:0:0:
256,192,197093,1,8,0:0:0:0:
256,192,197225,1,8,0:0:0:0:
256,192,197356,1,0,0:0:0:0:
256,192,197488,1,8,0:0:0:0:
256,192,197751,1,8,0:0:0:0:
256,192,197883,1,0,0:0:0:0:
256,192,198014,1,0,0:0:0:0:
256,192,198146,1,8,0:0:0:0:
256,192,198212,1,0,0:0:0:0:
256,192,198277,1,8,0:0:0:0:
256,192,198409,1,0,0:0:0:0:
256,192,198672,1,8,0:0:0:0:
256,192,198804,1,8,0:0:0:0:
256,192,198935,1,0,0:0:0:0:
256,192,199067,1,8,0:0:0:0:
256,192,199198,1,0,0:0:0:0:
256,192,199264,1,8,0:0:0:0:
256,192,199330,1,0,0:0:0:0:
256,192,199462,1,8,0:0:0:0:
256,192,199593,1,0,0:0:0:0:
256,192,199725,1,8,0:0:0:0:
256,192,199856,1,8,0:0:0:0:
256,192,199988,1,0,0:0:0:0:
256,192,200251,1,8,0:0:0:0:
256,192,200514,1,0,0:0:0:0:
256,192,200777,1,8,0:0:0:0:
256,192,200909,1,8,0:0:0:0:
256,192,201040,1,0,0:0:0:0:
256,192,201172,1,0,0:0:0:0:
256,192,201304,1,8,0:0:0:0:
256,192,201435,1,0,0:0:0:0:
256,192,201567,1,0,0:0:0:0:
256,192,201698,1,8,0:0:0:0:
256,192,201830,1,8,0:0:0:0:
256,192,201962,1,0,0:0:0:0:
256,192,202093,1,8,0:0:0:0:
256,192,202356,1,0,0:0:0:0:
256,192,202422,1,8,0:0:0:0:
256,192,202488,1,8,0:0:0:0:
256,192,202619,1,0,0:0:0:0:
256,192,202751,1,0,0:0:0:0:
256,192,202883,1,8,0:0:0:0:
256,192,202948,1,8,0:0:0:0:
256,192,203014,1,0,0:0:0:0:
256,192,203080,1,0,0:0:0:0:
256,192,203146,1,8,0:0:0:0:
256,192,203278,1,0,0:0:0:0:
256,192,203409,1,8,0:0:0:0:
256,192,203475,1,0,0:0:0:0:
256,192,203540,1,0,0:0:0:0:
256,192,203672,1,8,0:0:0:0:
256,192,203804,1,8,0:0:0:0:
256,192,203935,1,0,0:0:0:0:
256,192,204067,1,0,0:0:0:0:
256,192,204198,1,8,0:0:0:0:
256,192,204462,1,0,0:0:0:0:
256,192,204725,1,12,0:0:0:0:
256,192,204988,1,0,0:0:0:0:
256,192,205119,1,8,0:0:0:0:
256,192,205251,1,0,0:0:0:0:
256,192,205383,1,0,0:0:0:0:
256,192,205514,1,8,0:0:0:0:
256,192,205646,1,8,0:0:0:0:
256,192,205777,1,8,0:0:0:0:
256,192,205909,1,0,0:0:0:0:
256,192,206172,1,0,0:0:0:0:
256,192,206304,1,8,0:0:0:0:
256,192,206435,1,8,0:0:0:0:
256,192,206567,1,0,0:0:0:0:
256,192,206633,1,8,0:0:0:0:
256,192,206698,1,0,0:0:0:0:
256,192,206830,1,8,0:0:0:0:
256,192,207093,1,0,0:0:0:0:
256,192,207225,1,0,0:0:0:0:
256,192,207356,1,8,0:0:0:0:
256,192,207488,1,8,0:0:0:0:
256,192,207620,1,0,0:0:0:0:
256,192,207751,1,0,0:0:0:0:
256,192,207883,1,8,0:0:0:0:
256,192,208146,1,0,0:0:0:0:
256,192,208277,1,8,0:0:0:0:
256,192,208409,1,4,0:0:0:0:
256,192,208672,1,0,0:0:0:0:
256,192,208935,1,12,0:0:0:0:
256,192,209198,1,0,0:0:0:0:
256,192,209330,1,8,0:0:0:0:
256,192,209462,1,0,0:0:0:0:
256,192,209593,1,0,0:0:0:0:
256,192,209725,1,8,0:0:0:0:
256,192,209856,1,8,0:0:0:0:
256,192,209988,1,0,0:0:0:0:
256,192,210119,1,8,0:0:0:0:
256,192,210383,1,8,0:0:0:0:
256,192,210514,1,0,0:0:0:0:
256,192,210777,1,8,0:0:0:0:
256,192,211041,1,8,0:0:0:0:
256,192,211172,1,8,0:0:0:0:
256,192,211304,1,0,0:0:0:0:
256,192,211435,1,8,0:0:0:0:
256,192,211567,1,0,0:0:0:0:
256,192,211698,1,0,0:0:0:0:
256,192,211830,1,8,0:0:0:0:
256,192,211962,1,8,0:0:0:0:
256,192,212093,1,0,0:0:0:0:
256,192,212225,1,8,0:0:0:0:
256,192,212356,1,8,0:0:0:0:
256,192,212488,1,8,0:0:0:0:
256,192,212619,1,0,0:0:0:0:
256,192,212751,1,0,0:0:0:0:
256,192,212883,1,8,0:0:0:0:
256,192,212949,1,8,0:0:0:0:
256,192,213014,1,0,0:0:0:0:
256,192,213146,1,12,0:0:0:0:
256,192,213409,1,0,0:0:0:0:
256,192,213541,1,8,0:0:0:0:
256,192,213672,1,0,0:0:0:0:
256,192,213804,1,0,0:0:0:0:
256,192,213935,1,8,0:0:0:0:
256,192,214067,1,8,0:0:0:0:
256,192,214199,1,0,0:0:0:0:
256,192,214330,1,8,0:0:0:0:
256,192,214593,1,0,0:0:0:0:
256,192,214725,1,8,0:0:0:0:
256,192,214988,1,0,0:0:0:0:
256,192,215251,1,8,0:0:0:0:
256,192,215383,1,8,0:0:0:0:
256,192,215514,1,0,0:0:0:0:
256,192,215646,1,8,0:0:0:0:
256,192,215778,1,0,0:0:0:0:
256,192,215909,1,0,0:0:0:0:
256,192,216041,1,8,0:0:0:0:
256,192,216172,1,8,0:0:0:0:
256,192,216304,1,0,0:0:0:0:
256,192,216435,1,8,0:0:0:0:
256,192,216567,1,8,0:0:0:0:
256,192,216699,1,8,0:0:0:0:
256,192,216830,1,0,0:0:0:0:
256,192,216962,1,0,0:0:0:0:
256,192,217093,1,8,0:0:0:0:
256,192,217159,1,8,0:0:0:0:
256,192,217225,1,8,0:0:0:0:
256,192,217356,1,4,0:0:0:0:
256,192,217620,1,8,0:0:0:0:
256,192,217751,1,4,0:0:0:0:
256,192,217883,1,8,0:0:0:0:
256,192,217949,1,8,0:0:0:0:
256,192,218014,1,8,0:0:0:0:
256,192,218080,1,8,0:0:0:0:
256,192,218146,1,0,0:0:0:0:
256,192,218409,1,12,0:0:0:0:
256,192,218672,1,0,0:0:0:0:
256,192,218804,1,12,0:0:0:0:
256,192,218935,1,0,0:0:0:0:
256,192,219001,1,0,0:0:0:0:
256,192,219067,1,0,0:0:0:0:
256,192,219133,1,0,0:0:0:0:
256,192,219199,1,8,0:0:0:0:
256,192,219330,1,0,0:0:0:0:
256,192,219462,1,12,0:0:0:0:
256,192,219725,1,0,0:0:0:0:
256,192,219856,1,12,0:0:0:0:
256,192,220251,1,8,0:0:0:0:
256,192,220383,1,0,0:0:0:0:
256,192,220514,1,8,0:0:0:0:
256,192,220580,1,8,0:0:0:0:
256,192,220646,1,0,0:0:0:0:
256,192,220712,1,0,0:0:0:0:
256,192,220777,1,8,0:0:0:0:
256,192,220909,1,0,0:0:0:0:
256,192,221041,1,12,0:0:0:0:
256,192,221567,1,4,0:0:0:0:
256,192,221699,12,0,229988,0:0:0:0:
