osu file format v14

[General]
AudioFilename: audio.mp3
AudioLeadIn: 0
PreviewTime: 86239
Countdown: 0
SampleSet: Normal
StackLeniency: 0.7
Mode: 1
LetterboxInBreaks: 0
WidescreenStoryboard: 1

[Editor]
Bookmarks: 19456,36298,53140,61561,69982,128936,145778,162620,181567
DistanceSpacing: 1
BeatDivisor: 4
GridSize: 32
TimelineZoom: 0.9999999

[Metadata]
Title:Kotodama Refrain
TitleUnicode:言霊リフレイン
Artist:tokiwa feat. Nakamura Sanso
ArtistUnicode:常盤 feat. 中村さんそ
Creator:Faputa
Version:Futsuu
Source:
Tags:Featured Artist FA Mappers' Guild MG MPG Kawaii Electronic Japanese Jpop j-pop pop
BeatmapID:3497786
BeatmapSetID:1703527

[Difficulty]
HPDrainRate:7
CircleSize:2
OverallDifficulty:4
ApproachRate:10
SliderMultiplier:1.4
SliderTickRate:1

[Events]
//Background and Video events
0,0,"cover.jpg",0,100
//Break Periods
//Storyboard Layer 0 (Background)
//Storyboard Layer 1 (Fail)
//Storyboard Layer 2 (Pass)
//Storyboard Layer 3 (Foreground)
//Storyboard Layer 4 (Overlay)
//Storyboard Sound Samples

[TimingPoints]
-5800,526.315789473684,4,1,0,70,1,0
10976,-100,4,1,0,75,0,0
15186,-100,4,1,0,80,0,0
19331,-100,4,1,0,85,0,0
36568,-100,4,1,0,70,0,0
44594,-100,4,1,0,75,0,0
53015,-100,4,1,0,80,0,0
70252,-100,4,1,0,70,0,0
78410,-100,4,1,0,75,0,0
82555,-100,4,1,0,80,0,0
85603,585.365853658537,4,1,0,80,1,8
85603,-85.5798031664527,4,1,0,80,0,0
85798,507.399577167019,4,1,0,80,1,8
85798,-94.3396226415094,4,1,0,80,0,0
86305,526.315789473684,4,1,0,80,1,8
86699,-100,4,1,0,85,0,0
86831,526.315789473684,4,1,0,85,1,1
112094,-100,4,1,0,85,0,0
112357,-100,4,1,0,70,0,0
120383,-100,4,1,0,80,0,0
129199,-100,4,1,0,70,0,0
137357,-100,4,1,0,75,0,0
141502,-100,4,1,0,80,0,0
144550,585.365853658537,4,1,0,80,1,8
144550,-85.5798031664527,4,1,0,80,0,0
144745,507.399577167019,4,1,0,80,1,8
144745,-94.3396226415094,4,1,0,80,0,0
145252,526.315789473684,4,1,0,80,1,8
145778,526.315789473684,4,1,0,80,1,0
145975,-100,4,1,0,70,0,0
162488,-100,4,1,0,75,0,0
175120,-100,4,1,0,80,0,0
179330,-100,4,1,0,70,0,0
180909,-100,4,1,0,80,0,0
181172,-100,4,1,0,85,0,0
181435,-100,4,1,0,90,0,0
181567,-100,4,1,0,90,0,1
221567,-100,4,1,0,90,0,0
221633,-100,4,1,0,40,0,0
222488,-100,4,1,0,30,0,0
223541,-100,4,1,0,20,0,0
224593,-100,4,1,0,10,0,0
225646,-100,4,1,0,5,0,0

[HitObjects]
256,192,2621,5,12,0:0:0:0:
256,192,3673,1,0,0:0:0:0:
256,192,4726,1,8,0:0:0:0:
256,192,5778,1,0,0:0:0:0:
256,192,6305,1,8,0:0:0:0:
256,192,6831,1,0,0:0:0:0:
256,192,7884,1,0,0:0:0:0:
256,192,8936,1,8,0:0:0:0:
256,192,9463,1,8,0:0:0:0:
256,192,9989,1,8,0:0:0:0:
256,192,10515,1,0,0:0:0:0:
256,192,11042,1,12,0:0:0:0:
256,192,11831,1,0,0:0:0:0:
256,192,12094,1,8,0:0:0:0:
256,192,12621,1,0,0:0:0:0:
256,192,13147,1,8,0:0:0:0:
256,192,13936,1,0,0:0:0:0:
256,192,14200,1,8,0:0:0:0:
256,192,14726,1,8,0:0:0:0:
256,192,15252,1,0,0:0:0:0:
256,192,15778,1,0,0:0:0:0:
256,192,16305,1,8,0:0:0:0:
256,192,16831,1,8,0:0:0:0:
256,192,17357,1,0,0:0:0:0:
256,192,17884,1,8,0:0:0:0:
256,192,18147,1,8,0:0:0:0:
256,192,18410,1,0,0:0:0:0:
256,192,18936,1,12,0:0:0:0:
256,192,19463,1,4,0:0:0:0:
256,192,19989,1,8,0:0:0:0:
256,192,20515,1,0,0:0:0:0:
256,192,21305,1,8,0:0:0:0:
256,192,21568,1,0,0:0:0:0:
256,192,22094,1,8,0:0:0:0:
256,192,22621,1,8,0:0:0:0:
256,192,23673,1,0,0:0:0:0:
256,192,24199,1,8,0:0:0:0:
256,192,24726,1,0,0:0:0:0:
256,192,25515,1,8,0:0:0:0:
256,192,25778,1,0,0:0:0:0:
256,192,26305,1,8,0:0:0:0:
256,192,26831,1,8,0:0:0:0:
256,192,27357,1,0,0:0:0:0:
256,192,27884,1,12,0:0:0:0:
256,192,28410,1,8,0:0:0:0:
256,192,28936,1,0,0:0:0:0:
256,192,29726,1,8,0:0:0:0:
256,192,29989,1,0,0:0:0:0:
256,192,30515,1,0,0:0:0:0:
256,192,31042,1,8,0:0:0:0:
256,192,32094,1,8,0:0:0:0:
256,192,32621,1,8,0:0:0:0:
256,192,33147,1,0,0:0:0:0:
256,192,33936,1,0,0:0:0:0:
256,192,34200,1,8,0:0:0:0:
256,192,34726,1,0,0:0:0:0:
256,192,35252,1,8,0:0:0:0:
256,192,36305,1,4,0:0:0:0:
256,192,37094,1,8,0:0:0:0:
256,192,37357,1,8,0:0:0:0:
256,192,38147,1,8,0:0:0:0:
256,192,38410,1,0,0:0:0:0:
256,192,38936,1,0,0:0:0:0:
256,192,39463,1,8,0:0:0:0:
256,192,40252,1,0,0:0:0:0:
256,192,40515,1,0,0:0:0:0:
256,192,41305,1,8,0:0:0:0:
256,192,41568,1,8,0:0:0:0:
256,192,42357,1,0,0:0:0:0:
256,192,42621,1,8,0:0:0:0:
256,192,43147,1,8,0:0:0:0:
256,192,43673,1,0,0:0:0:0:
256,192,44726,1,12,0:0:0:0:
256,192,45515,1,8,0:0:0:0:
256,192,45778,1,8,0:0:0:0:
256,192,46568,1,8,0:0:0:0:
256,192,46831,1,0,0:0:0:0:
256,192,47357,1,8,0:0:0:0:
256,192,47884,1,0,0:0:0:0:
256,192,48410,1,8,0:0:0:0:
256,192,48936,1,8,0:0:0:0:
256,192,49989,1,0,0:0:0:0:
256,192,50515,1,8,0:0:0:0:
256,192,51042,1,4,0:0:0:0:
256,192,51831,1,0,0:0:0:0:
256,192,52094,1,8,0:0:0:0:
256,192,52621,1,4,0:0:0:0:
256,192,53147,1,12,0:0:0:0:
256,192,53936,1,8,0:0:0:0:
256,192,54199,1,0,0:0:0:0:
256,192,54989,1,0,0:0:0:0:
256,192,55252,1,8,0:0:0:0:
256,192,55778,1,0,0:0:0:0:
256,192,56305,1,8,0:0:0:0:
256,192,56831,1,8,0:0:0:0:
256,192,57357,1,0,0:0:0:0:
256,192,58147,1,0,0:0:0:0:
256,192,58410,1,8,0:0:0:0:
256,192,59199,1,8,0:0:0:0:
256,192,59463,1,0,0:0:0:0:
256,192,59989,1,8,0:0:0:0:
256,192,60515,1,0,0:0:0:0:
256,192,61042,1,0,0:0:0:0:
256,192,61568,1,12,0:0:0:0:
256,192,62357,1,0,0:0:0:0:
256,192,62621,1,8,0:0:0:0:
256,192,63410,1,8,0:0:0:0:
256,192,63673,1,0,0:0:0:0:
256,192,64200,1,8,0:0:0:0:
256,192,64726,1,8,0:0:0:0:
256,192,65252,1,0,0:0:0:0:
256,192,65778,1,8,0:0:0:0:
256,192,66831,1,0,0:0:0:0:
256,192,67357,1,0,0:0:0:0:
256,192,67884,1,12,0:0:0:0:
256,192,68673,1,0,0:0:0:0:
256,192,68936,1,8,0:0:0:0:
256,192,69463,1,12,0:0:0:0:
256,192,69989,1,4,0:0:0:0:
256,192,70515,1,0,0:0:0:0:
256,192,71042,1,8,0:0:0:0:
256,192,71831,1,0,0:0:0:0:
256,192,72357,1,8,0:0:0:0:
256,192,72884,1,8,0:0:0:0:
256,192,74200,1,0,0:0:0:0:
256,192,74726,1,0,0:0:0:0:
256,192,75252,1,8,0:0:0:0:
256,192,75778,1,8,0:0:0:0:
256,192,76305,1,8,0:0:0:0:
256,192,78410,1,8,0:0:0:0:
256,192,78936,1,0,0:0:0:0:
256,192,79463,1,8,0:0:0:0:
256,192,80252,1,8,0:0:0:0:
256,192,80778,1,0,0:0:0:0:
256,192,81305,1,8,0:0:0:0:
256,192,82094,1,0,0:0:0:0:
256,192,82621,1,8,0:0:0:0:
256,192,83147,1,8,0:0:0:0:
256,192,83673,1,0,0:0:0:0:
256,192,84199,1,8,0:0:0:0:
256,192,84463,1,8,0:0:0:0:
256,192,84726,1,0,0:0:0:0:
256,192,86305,5,4,0:0:0:0:
256,192,86831,1,12,0:0:0:0:
256,192,87357,1,8,0:0:0:0:
256,192,87883,1,0,0:0:0:0:
256,192,88409,1,0,0:0:0:0:
256,192,88673,1,8,0:0:0:0:
256,192,88936,1,0,0:0:0:0:
256,192,89462,1,8,0:0:0:0:
256,192,89725,1,8,0:0:0:0:
256,192,89988,1,0,0:0:0:0:
256,192,90515,1,0,0:0:0:0:
256,192,90778,1,0,0:0:0:0:
256,192,91041,1,8,0:0:0:0:
256,192,91567,1,0,0:0:0:0:
256,192,91831,1,0,0:0:0:0:
256,192,92094,1,8,0:0:0:0:
256,192,92357,1,0,0:0:0:0:
256,192,92620,1,8,0:0:0:0:
256,192,93146,1,0,0:0:0:0:
256,192,93673,1,8,0:0:0:0:
256,192,94199,1,8,0:0:0:0:
256,192,95252,1,12,0:0:0:0:
256,192,95778,1,8,0:0:0:0:
256,192,96304,1,0,0:0:0:0:
256,192,96831,1,0,0:0:0:0:
256,192,97094,1,8,0:0:0:0:
256,192,97357,1,0,0:0:0:0:
256,192,97883,1,8,0:0:0:0:
256,192,98146,1,8,0:0:0:0:
256,192,98409,1,0,0:0:0:0:
256,192,98936,1,0,0:0:0:0:
256,192,99199,1,8,0:0:0:0:
256,192,99462,1,8,0:0:0:0:
256,192,100252,1,8,0:0:0:0:
256,192,100778,1,0,0:0:0:0:
256,192,101041,1,8,0:0:0:0:
256,192,101567,1,4,0:0:0:0:
256,192,102357,1,8,0:0:0:0:
256,192,102620,1,8,0:0:0:0:
256,192,103146,1,4,0:0:0:0:
256,192,103673,1,12,0:0:0:0:
256,192,104199,1,0,0:0:0:0:
256,192,104725,1,8,0:0:0:0:
256,192,105252,1,0,0:0:0:0:
256,192,105515,1,8,0:0:0:0:
256,192,105778,1,0,0:0:0:0:
256,192,106304,1,8,0:0:0:0:
256,192,106567,1,0,0:0:0:0:
256,192,106831,1,8,0:0:0:0:
256,192,107357,1,8,0:0:0:0:
256,192,107620,1,8,0:0:0:0:
256,192,107883,1,0,0:0:0:0:
256,192,108409,1,8,0:0:0:0:
256,192,108936,1,8,0:0:0:0:
256,192,109462,1,0,0:0:0:0:
256,192,109988,1,4,0:0:0:0:
256,192,110778,1,8,0:0:0:0:
256,192,111041,1,0,0:0:0:0:
256,192,111567,1,4,0:0:0:0:
256,192,112094,1,12,0:0:0:0:
256,192,112883,1,8,0:0:0:0:
256,192,113146,1,8,0:0:0:0:
256,192,113936,1,8,0:0:0:0:
256,192,114199,1,8,0:0:0:0:
256,192,114988,1,8,0:0:0:0:
256,192,115252,1,0,0:0:0:0:
256,192,116304,1,0,0:0:0:0:
256,192,117094,1,8,0:0:0:0:
256,192,117357,1,8,0:0:0:0:
256,192,117883,1,8,0:0:0:0:
256,192,118409,1,0,0:0:0:0:
256,192,118936,1,8,0:0:0:0:
256,192,119462,1,0,0:0:0:0:
256,192,119988,1,8,0:0:0:0:
256,192,120515,1,4,0:0:0:0:
256,192,121304,1,0,0:0:0:0:
256,192,121567,1,8,0:0:0:0:
256,192,122357,1,0,0:0:0:0:
256,192,122620,1,8,0:0:0:0:
256,192,123146,1,8,0:0:0:0:
256,192,123673,1,0,0:0:0:0:
256,192,124199,1,8,0:0:0:0:
256,192,124725,1,8,0:0:0:0:
256,192,125778,1,0,0:0:0:0:
256,192,126304,1,8,0:0:0:0:
256,192,126830,1,4,0:0:0:0:
256,192,127620,1,8,0:0:0:0:
256,192,127883,1,0,0:0:0:0:
256,192,128409,1,12,0:0:0:0:
256,192,128936,1,4,0:0:0:0:
256,192,129462,1,8,0:0:0:0:
256,192,129988,1,8,0:0:0:0:
256,192,130778,1,0,0:0:0:0:
256,192,131304,1,8,0:0:0:0:
256,192,131831,1,0,0:0:0:0:
256,192,133147,1,0,0:0:0:0:
256,192,133673,1,0,0:0:0:0:
256,192,134199,1,8,0:0:0:0:
256,192,134725,1,8,0:0:0:0:
256,192,135252,1,8,0:0:0:0:
256,192,137357,1,8,0:0:0:0:
256,192,137883,1,0,0:0:0:0:
256,192,138410,1,8,0:0:0:0:
256,192,139199,1,0,0:0:0:0:
256,192,139725,1,0,0:0:0:0:
256,192,140252,1,8,0:0:0:0:
256,192,141041,1,8,0:0:0:0:
256,192,141567,1,0,0:0:0:0:
256,192,142094,1,0,0:0:0:0:
256,192,142620,1,8,0:0:0:0:
256,192,143146,1,0,0:0:0:0:
256,192,143410,1,0,0:0:0:0:
256,192,143673,1,8,0:0:0:0:
256,192,145252,5,4,0:0:0:0:
256,192,145778,1,12,0:0:0:0:
256,192,147883,1,8,0:0:0:0:
256,192,148935,1,0,0:0:0:0:
256,192,149462,1,0,0:0:0:0:
256,192,149988,1,8,0:0:0:0:
256,192,152093,1,8,0:0:0:0:
256,192,152620,1,8,0:0:0:0:
256,192,153146,1,0,0:0:0:0:
256,192,153672,1,8,0:0:0:0:
256,192,154199,1,0,0:0:0:0:
256,192,156304,1,0,0:0:0:0:
256,192,157883,1,8,0:0:0:0:
256,192,158409,1,8,0:0:0:0:
256,192,159988,1,0,0:0:0:0:
256,192,160514,1,8,0:0:0:0:
256,192,161304,1,8,0:0:0:0:
256,192,161567,1,0,0:0:0:0:
256,192,162093,1,12,0:0:0:0:
256,192,162620,1,4,0:0:0:0:
256,192,163146,1,8,0:0:0:0:
256,192,163672,1,8,0:0:0:0:
256,192,164199,1,0,0:0:0:0:
256,192,164725,1,0,0:0:0:0:
256,192,165251,1,8,0:0:0:0:
256,192,165778,1,8,0:0:0:0:
256,192,166830,1,8,0:0:0:0:
256,192,167356,1,0,0:0:0:0:
256,192,167883,1,8,0:0:0:0:
256,192,168409,1,0,0:0:0:0:
256,192,168935,1,8,0:0:0:0:
256,192,169462,1,8,0:0:0:0:
256,192,169988,1,0,0:0:0:0:
256,192,170514,1,0,0:0:0:0:
256,192,171041,1,12,0:0:0:0:
256,192,172093,1,8,0:0:0:0:
256,192,172620,1,8,0:0:0:0:
256,192,173146,1,0,0:0:0:0:
256,192,173672,1,0,0:0:0:0:
256,192,174199,1,8,0:0:0:0:
256,192,174725,1,8,0:0:0:0:
256,192,175251,1,0,0:0:0:0:
256,192,175778,1,8,0:0:0:0:
256,192,176304,1,0,0:0:0:0:
256,192,176567,1,0,0:0:0:0:
256,192,176830,1,8,0:0:0:0:
256,192,177356,1,4,0:0:0:0:
256,192,178409,1,0,0:0:0:0:
256,192,178935,1,12,0:0:0:0:
256,192,179462,1,8,0:0:0:0:
256,192,181041,1,4,0:0:0:0:
256,192,181567,1,12,0:0:0:0:
256,192,182093,1,0,0:0:0:0:
256,192,182356,1,0,0:0:0:0:
256,192,182620,1,8,0:0:0:0:
256,192,183146,1,0,0:0:0:0:
256,192,183409,1,8,0:0:0:0:
256,192,183672,1,8,0:0:0:0:
256,192,184199,1,0,0:0:0:0:
256,192,184462,1,8,0:0:0:0:
256,192,184725,1,8,0:0:0:0:
256,192,184988,1,0,0:0:0:0:
256,192,185251,1,8,0:0:0:0:
256,192,185514,1,0,0:0:0:0:
256,192,185778,1,8,0:0:0:0:
256,192,186304,1,0,0:0:0:0:
256,192,186830,1,8,0:0:0:0:
256,192,187883,1,12,0:0:0:0:
256,192,188409,1,0,0:0:0:0:
256,192,188935,1,8,0:0:0:0:
256,192,189462,1,8,0:0:0:0:
256,192,189725,1,8,0:0:0:0:
256,192,189988,1,0,0:0:0:0:
256,192,190514,1,0,0:0:0:0:
256,192,190778,1,8,0:0:0:0:
256,192,191041,1,0,0:0:0:0:
256,192,191567,1,8,0:0:0:0:
256,192,191830,1,8,0:0:0:0:
256,192,192093,1,8,0:0:0:0:
256,192,192620,1,0,0:0:0:0:
256,192,193146,1,8,0:0:0:0:
256,192,193672,1,8,0:0:0:0:
256,192,194199,1,4,0:0:0:0:
256,192,195251,1,8,0:0:0:0:
256,192,195778,1,4,0:0:0:0:
256,192,196304,1,12,0:0:0:0:
256,192,196830,1,0,0:0:0:0:
256,192,197356,1,8,0:0:0:0:
256,192,197883,1,0,0:0:0:0:
256,192,198146,1,8,0:0:0:0:
256,192,198409,1,0,0:0:0:0:
256,192,198935,1,8,0:0:0:0:
256,192,199199,1,0,0:0:0:0:
256,192,199462,1,8,0:0:0:0:
256,192,199988,1,0,0:0:0:0:
256,192,200251,1,0,0:0:0:0:
256,192,200514,1,8,0:0:0:0:
256,192,200778,1,8,0:0:0:0:
256,192,201040,1,0,0:0:0:0:
256,192,201567,1,8,0:0:0:0:
256,192,202093,1,0,0:0:0:0:
256,192,202356,1,8,0:0:0:0:
256,192,202619,1,0,0:0:0:0:
256,192,203146,1,8,0:0:0:0:
256,192,203409,1,0,0:0:0:0:
256,192,203672,1,8,0:0:0:0:
256,192,204725,1,12,0:0:0:0:
256,192,205251,1,0,0:0:0:0:
256,192,205777,1,8,0:0:0:0:
256,192,206304,1,0,0:0:0:0:
256,192,206567,1,0,0:0:0:0:
256,192,206830,1,8,0:0:0:0:
256,192,207356,1,8,0:0:0:0:
256,192,207620,1,0,0:0:0:0:
256,192,207883,1,8,0:0:0:0:
256,192,208146,1,8,0:0:0:0:
256,192,208409,1,4,0:0:0:0:
256,192,208935,1,12,0:0:0:0:
256,192,209725,1,8,0:0:0:0:
256,192,209988,1,0,0:0:0:0:
256,192,210514,1,8,0:0:0:0:
256,192,211041,1,0,0:0:0:0:
256,192,211567,1,8,0:0:0:0:
256,192,211830,1,8,0:0:0:0:
256,192,212093,1,0,0:0:0:0:
256,192,212356,1,8,0:0:0:0:
256,192,212620,1,0,0:0:0:0:
256,192,213146,1,12,0:0:0:0:
256,192,213935,1,8,0:0:0:0:
256,192,214199,1,0,0:0:0:0:
256,192,214725,1,0,0:0:0:0:
256,192,215251,1,8,0:0:0:0:
256,192,215778,1,8,0:0:0:0:
256,192,216041,1,8,0:0:0:0:
256,192,216304,1,0,0:0:0:0:
256,192,216567,1,0,0:0:0:0:
256,192,216830,1,8,0:0:0:0:
256,192,217356,1,4,0:0:0:0:
256,192,217751,1,4,0:0:0:0:
256,192,218409,1,12,0:0:0:0:
256,192,218804,1,12,0:0:0:0:
256,192,219462,1,12,0:0:0:0:
256,192,220251,1,8,0:0:0:0:
256,192,220514,1,0,0:0:0:0:
256,192,221041,1,12,0:0:0:0:
256,192,221567,1,4,0:0:0:0:
256,192,221830,12,0,229988,0:0:0:0:
