osu file format v14

[General]
AudioFilename: audio.mp3
AudioLeadIn: 0
PreviewTime: 132932
Countdown: 0
SampleSet: Normal
StackLeniency: 0.7
Mode: 1
LetterboxInBreaks: 0
WidescreenStoryboard: 1

[Editor]
Bookmarks: 34836
DistanceSpacing: 1
BeatDivisor: 4
GridSize: 32
TimelineZoom: 2.5

[Metadata]
Title:wasurena feat. Sennzai
TitleUnicode:勿忘 feat. Sennzai
Artist:tokiwa
ArtistUnicode:常盤
Creator:HEAVENLY MOON
Version:muzukashii
Source:
Tags:ginjani faputa mappers' guild mpg mg featured artist fa future bass electronic dance music japanese vocals edm oriental
BeatmapID:3561595
BeatmapSetID:1703065

[Difficulty]
HPDrainRate:7
CircleSize:5
OverallDifficulty:4
ApproachRate:5
SliderMultiplier:1.4
SliderTickRate:1

[Events]
//Background and Video events
0,0,"tokiwa.jpg",0,0
//Break Periods
2,67763,71818
//Storyboard Layer 0 (Background)
//Storyboard Layer 1 (Fail)
//Storyboard Layer 2 (Pass)
//Storyboard Layer 3 (Foreground)
//Storyboard Layer 4 (Overlay)
//Storyboard Sound Samples

[TimingPoints]
2109,340.909090909091,4,1,0,70,1,0
2109,-125,4,1,0,70,0,0
13018,-117.647058823529,4,1,0,80,0,0
23245,-116.279069767442,4,1,0,80,0,0
23330,-114.942528735632,4,1,0,80,0,0
23415,-113.636363636364,4,1,0,80,0,0
23586,-112.359550561798,4,1,0,80,0,0
23927,-111.111111111111,4,1,0,90,0,0
34836,-99.9999999999999,4,1,0,100,0,0
43018,-99.009900990099,4,1,0,100,0,0
43103,-98.0392156862745,4,1,0,100,0,0
43188,-97.0873786407767,4,1,0,100,0,0
43273,-96.1538461538461,4,1,0,100,0,0
43359,-95.2380952380952,4,1,0,100,0,0
43444,-94.3396226415094,4,1,0,100,0,0
43529,-93.4579439252336,4,1,0,100,0,0
43614,-92.5925925925926,4,1,0,100,0,0
43699,-91.743119266055,4,1,0,100,0,0
43785,-90.9090909090909,4,1,0,100,0,0
43870,-90.0900900900901,4,1,0,100,0,0
43955,-89.2857142857143,4,1,0,100,0,0
44040,-88.4955752212389,4,1,0,100,0,0
44126,-87.719298245614,4,1,0,100,0,0
44211,-86.9565217391304,4,1,0,100,0,0
44296,-86.2068965517241,4,1,0,100,0,0
44381,-85.4700854700855,4,1,0,100,0,0
44552,-86.9565217391304,4,1,0,100,0,0
44722,-88.4955752212389,4,1,0,100,0,0
44779,-89.2857142857143,4,1,0,100,0,0
44836,-90.0900900900901,4,1,0,100,0,0
44893,-90.9090909090909,4,1,0,100,0,0
45063,-93.0232558139535,4,1,0,100,0,0
45148,-95.2380952380952,4,1,0,100,0,0
45234,-97.5609756097561,4,1,0,100,0,0
45404,-100,4,1,0,100,0,0
45745,-90.9090909090909,4,1,0,100,0,1
56484,-90.9090909090909,4,1,0,100,0,0
56654,-90.9090909090909,4,1,0,100,0,1
67563,-90.9090909090909,4,1,0,100,0,0
68927,-142.857142857143,4,1,0,60,0,0
72975,-142.857142857143,4,1,0,70,0,0
78472,-133.333333333333,4,1,0,70,0,0
86654,-131.578947368421,4,1,0,70,0,0
86995,-131.578947368421,4,1,0,70,0,0
87165,-129.87012987013,4,1,0,70,0,0
87336,-129.87012987013,4,1,0,70,0,0
87677,-128.205128205128,4,1,0,70,0,0
88018,-128.205128205128,4,1,0,70,0,0
88359,-128.205128205128,4,1,0,70,0,0
88699,-126.582278481013,4,1,0,70,0,0
89040,-125,4,1,0,70,0,0
89381,-125,4,1,0,70,0,0
100290,-111.111111111111,4,1,0,80,0,0
110518,-109.89010989011,4,1,0,80,0,0
110603,-108.695652173913,4,1,0,80,0,0
110688,-107.52688172043,4,1,0,80,0,0
110859,-106.382978723404,4,1,0,80,0,0
111199,-105.263157894737,4,1,0,90,0,0
121768,-104.166666666667,4,1,0,90,0,0
121938,-102.040816326531,4,1,0,90,0,0
122109,-100,4,1,0,100,0,0
130290,-99.009900990099,4,1,0,100,0,0
130376,-98.0392156862745,4,1,0,100,0,0
130461,-97.0873786407767,4,1,0,100,0,0
130546,-96.1538461538461,4,1,0,100,0,0
130631,-95.2380952380952,4,1,0,100,0,0
130716,-94.3396226415094,4,1,0,100,0,0
130802,-93.4579439252336,4,1,0,100,0,0
130887,-92.5925925925926,4,1,0,100,0,0
130972,-91.743119266055,4,1,0,100,0,0
131057,-90.9090909090909,4,1,0,100,0,0
131143,-90.0900900900901,4,1,0,100,0,0
131228,-89.2857142857143,4,1,0,100,0,0
131313,-88.4955752212389,4,1,0,100,0,0
131398,-87.719298245614,4,1,0,100,0,0
131484,-86.9565217391304,4,1,0,100,0,0
131569,-86.2068965517241,4,1,0,100,0,0
131654,-85.4700854700855,4,1,0,100,0,0
131824,-86.9565217391304,4,1,0,100,0,0
131995,-88.4955752212389,4,1,0,100,0,0
132052,-89.2857142857143,4,1,0,100,0,0
132109,-90.0900900900901,4,1,0,100,0,0
132165,-90.9090909090909,4,1,0,100,0,0
132336,-93.0232558139535,4,1,0,100,0,0
132421,-95.2380952380952,4,1,0,100,0,0
132506,-97.5609756097561,4,1,0,100,0,0
132677,-100,4,1,0,100,0,0
133018,-90.9090909090909,4,1,0,100,0,1
143756,-90.9090909090909,4,1,0,100,0,0
143927,-90.9090909090909,4,1,0,100,0,1
154836,-90.9090909090909,4,1,0,100,0,0
176654,-83.3333333333333,4,1,0,100,0,0

[HitObjects]
256,192,2109,5,8,0:0:0:0:
256,192,2449,1,8,0:0:0:0:
256,192,2790,1,0,0:0:0:0:
256,192,3131,1,8,0:0:0:0:
256,192,3472,1,0,0:0:0:0:
256,192,4495,1,0,0:0:0:0:
256,192,4836,1,8,0:0:0:0:
256,192,5177,1,0,0:0:0:0:
256,192,5518,1,8,0:0:0:0:
256,192,5859,1,8,0:0:0:0:
256,192,6199,1,0,0:0:0:0:
256,192,7563,1,8,0:0:0:0:
256,192,7904,1,8,0:0:0:0:
256,192,8245,1,0,0:0:0:0:
256,192,8586,1,0,0:0:0:0:
256,192,8927,1,8,0:0:0:0:
256,192,9949,1,0,0:0:0:0:
256,192,10290,1,8,0:0:0:0:
256,192,10631,1,0,0:0:0:0:
256,192,10972,1,8,0:0:0:0:
256,192,11313,1,0,0:0:0:0:
256,192,11654,1,8,0:0:0:0:
256,192,12336,12,0,12932,0:0:0:0:
256,192,13018,5,4,0:0:0:0:
256,192,13359,1,8,0:0:0:0:
256,192,13699,1,8,0:0:0:0:
256,192,14040,1,0,0:0:0:0:
256,192,14381,1,8,0:0:0:0:
256,192,15404,1,0,0:0:0:0:
256,192,15745,1,8,0:0:0:0:
256,192,16086,1,8,0:0:0:0:
256,192,16427,1,0,0:0:0:0:
256,192,16768,1,0,0:0:0:0:
256,192,17109,1,8,0:0:0:0:
256,192,17790,1,8,0:0:0:0:
256,192,18472,1,8,0:0:0:0:
256,192,18813,1,0,0:0:0:0:
256,192,19154,1,8,0:0:0:0:
256,192,19495,1,8,0:0:0:0:
256,192,19836,1,0,0:0:0:0:
256,192,20177,1,0,0:0:0:0:
256,192,20518,1,8,0:0:0:0:
256,192,21199,1,8,0:0:0:0:
256,192,21540,1,8,0:0:0:0:
256,192,21881,1,0,0:0:0:0:
256,192,22222,1,0,0:0:0:0:
256,192,22563,1,8,0:0:0:0:
256,192,22904,1,0,0:0:0:0:
256,192,23245,1,0,0:0:0:0:
256,192,23415,1,0,0:0:0:0:
256,192,23586,1,8,0:0:0:0:
256,192,23927,1,4,0:0:0:0:
256,192,24268,1,8,0:0:0:0:
256,192,24439,1,0,0:0:0:0:
256,192,24609,1,0,0:0:0:0:
256,192,24949,1,8,0:0:0:0:
256,192,25120,1,8,0:0:0:0:
256,192,25461,1,0,0:0:0:0:
256,192,25631,1,8,0:0:0:0:
256,192,25972,1,8,0:0:0:0:
256,192,26313,1,0,0:0:0:0:
256,192,26654,1,8,0:0:0:0:
256,192,26995,1,8,0:0:0:0:
256,192,27165,1,8,0:0:0:0:
256,192,27336,1,0,0:0:0:0:
256,192,27677,1,0,0:0:0:0:
256,192,27847,1,8,0:0:0:0:
256,192,28188,1,0,0:0:0:0:
256,192,28359,1,8,0:0:0:0:
256,192,28699,1,8,0:0:0:0:
256,192,29040,1,0,0:0:0:0:
256,192,29381,1,8,0:0:0:0:
256,192,29722,1,0,0:0:0:0:
256,192,29893,1,8,0:0:0:0:
256,192,30063,1,0,0:0:0:0:
256,192,30404,1,8,0:0:0:0:
256,192,30574,1,8,0:0:0:0:
256,192,30915,1,8,0:0:0:0:
256,192,31086,1,8,0:0:0:0:
256,192,31427,1,8,0:0:0:0:
256,192,31768,1,8,0:0:0:0:
256,192,31938,1,0,0:0:0:0:
256,192,32109,1,8,0:0:0:0:
256,192,32449,1,8,0:0:0:0:
256,192,32620,1,8,0:0:0:0:
256,192,32790,1,0,0:0:0:0:
256,192,33131,1,8,0:0:0:0:
256,192,33302,1,0,0:0:0:0:
256,192,33643,1,0,0:0:0:0:
256,192,33813,1,8,0:0:0:0:
256,192,34154,1,0,0:0:0:0:
256,192,34495,1,0,0:0:0:0:
256,192,34836,1,12,0:0:0:0:
256,192,35177,1,8,0:0:0:0:
256,192,35347,1,8,0:0:0:0:
256,192,35518,1,0,0:0:0:0:
256,192,35688,1,0,0:0:0:0:
256,192,35859,1,8,0:0:0:0:
256,192,35944,1,8,0:0:0:0:
256,192,36029,1,8,0:0:0:0:
256,192,36199,1,0,0:0:0:0:
256,192,36540,1,8,0:0:0:0:
256,192,36711,1,0,0:0:0:0:
256,192,36881,1,0,0:0:0:0:
256,192,36966,1,0,0:0:0:0:
256,192,37052,1,0,0:0:0:0:
256,192,37222,1,8,0:0:0:0:
256,192,37393,1,0,0:0:0:0:
256,192,37563,1,8,0:0:0:0:
256,192,37904,1,0,0:0:0:0:
256,192,38074,1,0,0:0:0:0:
256,192,38245,1,8,0:0:0:0:
256,192,38415,1,0,0:0:0:0:
256,192,38586,1,8,0:0:0:0:
256,192,38671,1,8,0:0:0:0:
256,192,38756,1,8,0:0:0:0:
256,192,38927,1,8,0:0:0:0:
256,192,39268,1,0,0:0:0:0:
256,192,39609,1,8,0:0:0:0:
256,192,39949,1,0,0:0:0:0:
256,192,40120,1,0,0:0:0:0:
256,192,40290,1,8,0:0:0:0:
256,192,40461,1,0,0:0:0:0:
256,192,40631,1,8,0:0:0:0:
256,192,40802,1,8,0:0:0:0:
256,192,40972,1,0,0:0:0:0:
256,192,41057,1,0,0:0:0:0:
256,192,41143,1,0,0:0:0:0:
256,192,41313,1,8,0:0:0:0:
256,192,41484,1,0,0:0:0:0:
256,192,41654,1,8,0:0:0:0:
256,192,41995,1,8,0:0:0:0:
256,192,42165,1,0,0:0:0:0:
256,192,42336,1,8,0:0:0:0:
256,192,42506,1,8,0:0:0:0:
256,192,42677,1,0,0:0:0:0:
256,192,43018,1,8,0:0:0:0:
256,192,43103,1,8,0:0:0:0:
256,192,43188,1,8,0:0:0:0:
256,192,43359,1,0,0:0:0:0:
256,192,43529,1,8,0:0:0:0:
256,192,43699,1,0,0:0:0:0:
256,192,43785,1,0,0:0:0:0:
256,192,43870,1,0,0:0:0:0:
256,192,44040,1,8,0:0:0:0:
256,192,44211,1,8,0:0:0:0:
256,192,44381,1,0,0:0:0:0:
256,192,44552,1,0,0:0:0:0:
256,192,44722,1,8,0:0:0:0:
256,192,44807,1,8,0:0:0:0:
256,192,44893,1,8,0:0:0:0:
256,192,45063,1,8,0:0:0:0:
256,192,45404,1,0,0:0:0:0:
256,192,45745,1,12,0:0:0:0:
256,192,46086,1,8,0:0:0:0:
256,192,46256,1,8,0:0:0:0:
256,192,46427,1,0,0:0:0:0:
256,192,46768,1,8,0:0:0:0:
256,192,46938,1,4,0:0:0:0:
256,192,47279,1,8,0:0:0:0:
256,192,47449,1,4,0:0:0:0:
256,192,47620,1,0,0:0:0:0:
256,192,47790,1,8,0:0:0:0:
256,192,48131,1,0,0:0:0:0:
256,192,48302,1,8,0:0:0:0:
256,192,48472,1,4,0:0:0:0:
256,192,48643,1,8,0:0:0:0:
256,192,48984,1,8,0:0:0:0:
256,192,49154,1,8,0:0:0:0:
256,192,49495,1,0,0:0:0:0:
256,192,49665,1,4,0:0:0:0:
256,192,49836,1,8,0:0:0:0:
256,192,50006,1,8,0:0:0:0:
256,192,50177,1,4,0:0:0:0:
256,192,50347,1,8,0:0:0:0:
256,192,50432,1,8,0:0:0:0:
256,192,50518,1,8,0:0:0:0:
256,192,50859,1,4,0:0:0:0:
256,192,51199,1,4,0:0:0:0:
256,192,51540,1,8,0:0:0:0:
256,192,51711,1,8,0:0:0:0:
256,192,51881,1,0,0:0:0:0:
256,192,52222,1,8,0:0:0:0:
256,192,52393,1,4,0:0:0:0:
256,192,52734,1,8,0:0:0:0:
256,192,52904,1,4,0:0:0:0:
256,192,53074,1,8,0:0:0:0:
256,192,53245,1,8,0:0:0:0:
256,192,53586,1,8,0:0:0:0:
256,192,53756,1,8,0:0:0:0:
256,192,53927,1,4,0:0:0:0:
256,192,54268,1,0,0:0:0:0:
256,192,54438,1,8,0:0:0:0:
256,192,54609,1,8,0:0:0:0:
256,192,54949,1,8,0:0:0:0:
256,192,55120,1,4,0:0:0:0:
256,192,55290,1,8,0:0:0:0:
256,192,55376,1,8,0:0:0:0:
256,192,55461,1,8,0:0:0:0:
256,192,55631,1,4,0:0:0:0:
256,192,55802,1,8,0:0:0:0:
256,192,55972,1,8,0:0:0:0:
256,192,56313,1,0,0:0:0:0:
256,192,56654,1,12,0:0:0:0:
256,192,56995,1,8,0:0:0:0:
256,192,57165,1,8,0:0:0:0:
256,192,57336,1,0,0:0:0:0:
256,192,57677,1,8,0:0:0:0:
256,192,57847,1,4,0:0:0:0:
256,192,58188,1,8,0:0:0:0:
256,192,58358,1,4,0:0:0:0:
256,192,58529,1,8,0:0:0:0:
256,192,58699,1,8,0:0:0:0:
256,192,59040,1,0,0:0:0:0:
256,192,59211,1,8,0:0:0:0:
256,192,59381,1,4,0:0:0:0:
256,192,59552,1,0,0:0:0:0:
256,192,59893,1,8,0:0:0:0:
256,192,60063,1,0,0:0:0:0:
256,192,60404,1,8,0:0:0:0:
256,192,60574,1,4,0:0:0:0:
256,192,60745,1,8,0:0:0:0:
256,192,60915,1,0,0:0:0:0:
256,192,61086,1,4,0:0:0:0:
256,192,61256,1,8,0:0:0:0:
256,192,61341,1,8,0:0:0:0:
256,192,61427,1,8,0:0:0:0:
256,192,61768,1,4,0:0:0:0:
256,192,62108,1,4,0:0:0:0:
256,192,62449,1,8,0:0:0:0:
256,192,62620,1,8,0:0:0:0:
256,192,62790,1,0,0:0:0:0:
256,192,63131,1,8,0:0:0:0:
256,192,63302,1,4,0:0:0:0:
256,192,63643,1,8,0:0:0:0:
256,192,63813,1,4,0:0:0:0:
256,192,63983,1,0,0:0:0:0:
256,192,64154,1,8,0:0:0:0:
256,192,64495,1,8,0:0:0:0:
256,192,64665,1,8,0:0:0:0:
256,192,64836,1,4,0:0:0:0:
256,192,65177,1,8,0:0:0:0:
256,192,65347,1,0,0:0:0:0:
256,192,65518,1,8,0:0:0:0:
256,192,65858,1,8,0:0:0:0:
256,192,66029,1,4,0:0:0:0:
256,192,66199,1,0,0:0:0:0:
256,192,66370,1,8,0:0:0:0:
256,192,66540,1,4,0:0:0:0:
256,192,66711,1,8,0:0:0:0:
256,192,66796,1,8,0:0:0:0:
256,192,66881,1,8,0:0:0:0:
256,192,67222,1,8,0:0:0:0:
256,192,67563,1,0,0:0:0:0:
256,192,73018,5,0,0:0:0:0:
256,192,73359,1,8,0:0:0:0:
256,192,73699,1,8,0:0:0:0:
256,192,74040,1,0,0:0:0:0:
256,192,74381,1,8,0:0:0:0:
256,192,75404,1,0,0:0:0:0:
256,192,75745,1,8,0:0:0:0:
256,192,76086,1,8,0:0:0:0:
256,192,76427,1,0,0:0:0:0:
256,192,76768,1,0,0:0:0:0:
256,192,77109,1,8,0:0:0:0:
256,192,78472,1,0,0:0:0:0:
256,192,78813,1,8,0:0:0:0:
256,192,79154,1,0,0:0:0:0:
256,192,79495,1,0,0:0:0:0:
256,192,79665,1,8,0:0:0:0:
256,192,80006,1,8,0:0:0:0:
256,192,80177,1,8,0:0:0:0:
256,192,80518,1,8,0:0:0:0:
256,192,80859,1,0,0:0:0:0:
256,192,81199,1,8,0:0:0:0:
256,192,81540,1,8,0:0:0:0:
256,192,81881,1,0,0:0:0:0:
256,192,82222,1,0,0:0:0:0:
256,192,82393,1,8,0:0:0:0:
256,192,82734,1,0,0:0:0:0:
256,192,82904,1,8,0:0:0:0:
256,192,83245,1,8,0:0:0:0:
256,192,83927,1,8,0:0:0:0:
256,192,84268,1,8,0:0:0:0:
256,192,84609,1,0,0:0:0:0:
256,192,84949,1,8,0:0:0:0:
256,192,85290,1,0,0:0:0:0:
256,192,86313,1,0,0:0:0:0:
256,192,86654,1,8,0:0:0:0:
256,192,86995,1,0,0:0:0:0:
256,192,87165,1,0,0:0:0:0:
256,192,87336,1,8,0:0:0:0:
256,192,87677,1,0,0:0:0:0:
256,192,88018,1,8,0:0:0:0:
256,192,88359,1,8,0:0:0:0:
256,192,88699,1,0,0:0:0:0:
256,192,89040,1,0,0:0:0:0:
256,192,89381,5,8,0:0:0:0:
256,192,89721,1,8,0:0:0:0:
256,192,90062,1,0,0:0:0:0:
256,192,90403,1,8,0:0:0:0:
256,192,90744,1,0,0:0:0:0:
256,192,91767,1,0,0:0:0:0:
256,192,92108,1,8,0:0:0:0:
256,192,92449,1,8,0:0:0:0:
256,192,92790,1,0,0:0:0:0:
256,192,93131,1,8,0:0:0:0:
256,192,93471,1,0,0:0:0:0:
256,192,94835,1,8,0:0:0:0:
256,192,95176,1,8,0:0:0:0:
256,192,95517,1,0,0:0:0:0:
256,192,95858,1,8,0:0:0:0:
256,192,96199,1,0,0:0:0:0:
256,192,97221,1,0,0:0:0:0:
256,192,97562,1,8,0:0:0:0:
256,192,97903,1,0,0:0:0:0:
256,192,98244,1,8,0:0:0:0:
256,192,98585,1,8,0:0:0:0:
256,192,98926,1,0,0:0:0:0:
256,192,99609,12,0,100205,0:0:0:0:
256,192,100290,5,4,0:0:0:0:
256,192,100631,1,8,0:0:0:0:
256,192,100971,1,8,0:0:0:0:
256,192,101312,1,0,0:0:0:0:
256,192,101653,1,8,0:0:0:0:
256,192,102676,1,0,0:0:0:0:
256,192,103018,1,8,0:0:0:0:
256,192,103358,1,0,0:0:0:0:
256,192,103699,1,8,0:0:0:0:
256,192,104040,1,0,0:0:0:0:
256,192,104211,1,0,0:0:0:0:
256,192,104381,1,8,0:0:0:0:
256,192,104721,1,0,0:0:0:0:
256,192,105062,1,8,0:0:0:0:
256,192,105744,1,8,0:0:0:0:
256,192,106086,1,8,0:0:0:0:
256,192,106426,1,8,0:0:0:0:
256,192,106767,1,0,0:0:0:0:
256,192,107108,1,8,0:0:0:0:
256,192,107449,1,0,0:0:0:0:
256,192,107790,1,8,0:0:0:0:
256,192,108471,1,0,0:0:0:0:
256,192,108812,1,0,0:0:0:0:
256,192,109153,1,8,0:0:0:0:
256,192,109494,1,0,0:0:0:0:
256,192,109835,1,8,0:0:0:0:
256,192,110176,1,0,0:0:0:0:
256,192,110518,1,0,0:0:0:0:
256,192,110688,1,0,0:0:0:0:
256,192,110859,1,8,0:0:0:0:
256,192,111199,1,4,0:0:0:0:
256,192,111540,1,8,0:0:0:0:
256,192,111711,1,0,0:0:0:0:
256,192,111881,1,8,0:0:0:0:
256,192,112221,1,8,0:0:0:0:
256,192,112393,1,0,0:0:0:0:
256,192,112733,1,8,0:0:0:0:
256,192,112903,1,8,0:0:0:0:
256,192,113244,1,8,0:0:0:0:
256,192,113585,1,8,0:0:0:0:
256,192,113756,1,0,0:0:0:0:
256,192,113926,1,0,0:0:0:0:
256,192,114267,1,8,0:0:0:0:
256,192,114437,1,8,0:0:0:0:
256,192,114608,1,0,0:0:0:0:
256,192,114949,1,0,0:0:0:0:
256,192,115119,1,8,0:0:0:0:
256,192,115460,1,0,0:0:0:0:
256,192,115631,1,8,0:0:0:0:
256,192,115972,1,8,0:0:0:0:
256,192,116312,1,0,0:0:0:0:
256,192,116653,1,8,0:0:0:0:
256,192,116994,1,0,0:0:0:0:
256,192,117165,1,8,0:0:0:0:
256,192,117335,1,0,0:0:0:0:
256,192,117676,1,8,0:0:0:0:
256,192,117846,1,8,0:0:0:0:
256,192,118187,1,0,0:0:0:0:
256,192,118358,1,8,0:0:0:0:
256,192,118699,1,0,0:0:0:0:
256,192,119040,1,8,0:0:0:0:
256,192,119210,1,0,0:0:0:0:
256,192,119381,1,8,0:0:0:0:
256,192,119721,1,8,0:0:0:0:
256,192,119892,1,8,0:0:0:0:
256,192,120062,1,8,0:0:0:0:
256,192,120403,1,8,0:0:0:0:
256,192,120574,1,0,0:0:0:0:
256,192,120915,1,8,0:0:0:0:
256,192,121085,1,0,0:0:0:0:
256,192,121426,1,8,0:0:0:0:
256,192,121768,1,0,0:0:0:0:
256,192,122109,1,12,0:0:0:0:
256,192,122449,1,8,0:0:0:0:
256,192,122620,1,0,0:0:0:0:
256,192,122790,1,8,0:0:0:0:
256,192,122961,1,0,0:0:0:0:
256,192,123131,1,8,0:0:0:0:
256,192,123216,1,8,0:0:0:0:
256,192,123302,1,8,0:0:0:0:
256,192,123472,1,0,0:0:0:0:
256,192,123813,1,8,0:0:0:0:
256,192,123984,1,8,0:0:0:0:
256,192,124154,1,0,0:0:0:0:
256,192,124239,1,0,0:0:0:0:
256,192,124324,1,0,0:0:0:0:
256,192,124495,1,8,0:0:0:0:
256,192,124665,1,0,0:0:0:0:
256,192,124836,1,8,0:0:0:0:
256,192,125177,1,8,0:0:0:0:
256,192,125347,1,0,0:0:0:0:
256,192,125518,1,8,0:0:0:0:
256,192,125688,1,8,0:0:0:0:
256,192,125859,1,0,0:0:0:0:
256,192,125944,1,0,0:0:0:0:
256,192,126029,1,0,0:0:0:0:
256,192,126199,1,8,0:0:0:0:
256,192,126540,1,0,0:0:0:0:
256,192,126711,1,0,0:0:0:0:
256,192,126881,1,8,0:0:0:0:
256,192,127222,1,8,0:0:0:0:
256,192,127393,1,0,0:0:0:0:
256,192,127563,1,8,0:0:0:0:
256,192,127904,1,8,0:0:0:0:
256,192,128074,1,0,0:0:0:0:
256,192,128245,1,8,0:0:0:0:
256,192,128330,1,8,0:0:0:0:
256,192,128415,1,8,0:0:0:0:
256,192,128586,1,8,0:0:0:0:
256,192,128927,1,0,0:0:0:0:
256,192,129012,1,0,0:0:0:0:
256,192,129097,1,0,0:0:0:0:
256,192,129268,1,8,0:0:0:0:
256,192,129438,1,0,0:0:0:0:
256,192,129609,1,8,0:0:0:0:
256,192,129779,1,8,0:0:0:0:
256,192,129949,1,0,0:0:0:0:
256,192,130290,1,8,0:0:0:0:
256,192,130376,1,8,0:0:0:0:
256,192,130461,1,8,0:0:0:0:
256,192,130631,1,8,0:0:0:0:
256,192,130802,1,0,0:0:0:0:
256,192,130972,1,0,0:0:0:0:
256,192,131057,1,0,0:0:0:0:
256,192,131143,1,0,0:0:0:0:
256,192,131313,1,8,0:0:0:0:
256,192,131484,1,0,0:0:0:0:
256,192,131654,1,8,0:0:0:0:
256,192,131824,1,8,0:0:0:0:
256,192,131995,1,8,0:0:0:0:
256,192,132080,1,8,0:0:0:0:
256,192,132165,1,8,0:0:0:0:
256,192,132336,1,8,0:0:0:0:
256,192,132506,1,0,0:0:0:0:
256,192,132677,1,8,0:0:0:0:
256,192,133018,1,12,0:0:0:0:
256,192,133359,1,8,0:0:0:0:
256,192,133529,1,8,0:0:0:0:
256,192,133700,1,0,0:0:0:0:
256,192,134041,1,8,0:0:0:0:
256,192,134211,1,4,0:0:0:0:
256,192,134552,1,8,0:0:0:0:
256,192,134722,1,4,0:0:0:0:
256,192,134893,1,0,0:0:0:0:
256,192,135063,1,8,0:0:0:0:
256,192,135404,1,0,0:0:0:0:
256,192,135575,1,8,0:0:0:0:
256,192,135745,1,4,0:0:0:0:
256,192,136086,1,8,0:0:0:0:
256,192,136257,1,8,0:0:0:0:
256,192,136427,1,8,0:0:0:0:
256,192,136768,1,0,0:0:0:0:
256,192,136938,1,4,0:0:0:0:
256,192,137109,1,8,0:0:0:0:
256,192,137279,1,8,0:0:0:0:
256,192,137450,1,4,0:0:0:0:
256,192,137620,1,8,0:0:0:0:
256,192,137705,1,8,0:0:0:0:
256,192,137791,1,8,0:0:0:0:
256,192,138132,1,4,0:0:0:0:
256,192,138472,1,4,0:0:0:0:
256,192,138813,1,8,0:0:0:0:
256,192,138984,1,8,0:0:0:0:
256,192,139154,1,0,0:0:0:0:
256,192,139495,1,8,0:0:0:0:
256,192,139666,1,4,0:0:0:0:
256,192,140007,1,8,0:0:0:0:
256,192,140177,1,4,0:0:0:0:
256,192,140347,1,8,0:0:0:0:
256,192,140518,1,8,0:0:0:0:
256,192,140859,1,8,0:0:0:0:
256,192,141029,1,8,0:0:0:0:
256,192,141200,1,4,0:0:0:0:
256,192,141541,1,0,0:0:0:0:
256,192,141711,1,8,0:0:0:0:
256,192,141882,1,8,0:0:0:0:
256,192,142222,1,8,0:0:0:0:
256,192,142393,1,4,0:0:0:0:
256,192,142563,1,8,0:0:0:0:
256,192,142649,1,8,0:0:0:0:
256,192,142734,1,8,0:0:0:0:
256,192,142904,1,4,0:0:0:0:
256,192,143075,1,8,0:0:0:0:
256,192,143245,1,8,0:0:0:0:
256,192,143586,1,0,0:0:0:0:
256,192,143927,1,12,0:0:0:0:
256,192,144268,1,8,0:0:0:0:
256,192,144438,1,0,0:0:0:0:
256,192,144609,1,8,0:0:0:0:
256,192,144950,1,8,0:0:0:0:
256,192,145120,1,4,0:0:0:0:
256,192,145461,1,8,0:0:0:0:
256,192,145631,1,4,0:0:0:0:
256,192,145802,1,0,0:0:0:0:
256,192,145972,1,8,0:0:0:0:
256,192,146313,1,8,0:0:0:0:
256,192,146484,1,8,0:0:0:0:
256,192,146654,1,4,0:0:0:0:
256,192,146825,1,0,0:0:0:0:
256,192,147166,1,8,0:0:0:0:
256,192,147336,1,0,0:0:0:0:
256,192,147677,1,8,0:0:0:0:
256,192,147847,1,4,0:0:0:0:
256,192,148018,1,8,0:0:0:0:
256,192,148188,1,0,0:0:0:0:
256,192,148359,1,4,0:0:0:0:
256,192,148529,1,8,0:0:0:0:
256,192,148614,1,8,0:0:0:0:
256,192,148700,1,8,0:0:0:0:
256,192,149040,1,4,0:0:0:0:
256,192,149381,1,4,0:0:0:0:
256,192,149722,1,8,0:0:0:0:
256,192,149893,1,8,0:0:0:0:
256,192,150063,1,0,0:0:0:0:
256,192,150404,1,8,0:0:0:0:
256,192,150575,1,4,0:0:0:0:
256,192,150916,1,8,0:0:0:0:
256,192,151086,1,4,0:0:0:0:
256,192,151256,1,8,0:0:0:0:
256,192,151342,1,8,0:0:0:0:
256,192,151427,1,8,0:0:0:0:
256,192,151768,1,8,0:0:0:0:
256,192,151938,1,8,0:0:0:0:
256,192,152109,1,4,0:0:0:0:
256,192,152450,1,8,0:0:0:0:
256,192,152620,1,0,0:0:0:0:
256,192,152791,1,8,0:0:0:0:
256,192,153131,1,8,0:0:0:0:
256,192,153302,1,4,0:0:0:0:
256,192,153472,1,0,0:0:0:0:
256,192,153643,1,8,0:0:0:0:
256,192,153813,1,4,0:0:0:0:
256,192,153984,1,0,0:0:0:0:
256,192,154069,1,0,0:0:0:0:
256,192,154154,1,0,0:0:0:0:
256,192,154495,1,8,0:0:0:0:
256,192,154836,1,12,0:0:0:0:
256,192,155177,1,0,0:0:0:0:
256,192,155347,1,0,0:0:0:0:
256,192,155518,1,8,0:0:0:0:
256,192,155603,1,8,0:0:0:0:
256,192,155688,1,8,0:0:0:0:
256,192,155859,1,0,0:0:0:0:
256,192,156029,1,8,0:0:0:0:
256,192,156199,1,0,0:0:0:0:
256,192,156540,1,8,0:0:0:0:
256,192,156711,1,0,0:0:0:0:
256,192,156881,1,0,0:0:0:0:
256,192,156966,1,0,0:0:0:0:
256,192,157052,1,0,0:0:0:0:
256,192,157222,1,8,0:0:0:0:
256,192,157563,1,8,0:0:0:0:
256,192,157734,1,8,0:0:0:0:
256,192,157904,1,0,0:0:0:0:
256,192,158074,1,0,0:0:0:0:
256,192,158245,1,8,0:0:0:0:
256,192,158586,1,8,0:0:0:0:
256,192,158756,1,0,0:0:0:0:
256,192,158927,1,8,0:0:0:0:
256,192,159012,1,8,0:0:0:0:
256,192,159097,1,8,0:0:0:0:
256,192,159268,1,8,0:0:0:0:
256,192,159438,1,0,0:0:0:0:
256,192,159609,1,8,0:0:0:0:
256,192,159949,1,8,0:0:0:0:
256,192,160290,1,4,0:0:0:0:
256,192,160631,1,0,0:0:0:0:
256,192,160802,1,0,0:0:0:0:
256,192,160972,1,8,0:0:0:0:
256,192,161143,1,0,0:0:0:0:
256,192,161313,1,8,0:0:0:0:
256,192,161398,1,8,0:0:0:0:
256,192,161484,1,8,0:0:0:0:
256,192,161654,1,8,0:0:0:0:
256,192,161995,1,8,0:0:0:0:
256,192,162165,1,0,0:0:0:0:
256,192,162336,1,8,0:0:0:0:
256,192,162677,1,0,0:0:0:0:
256,192,162847,1,0,0:0:0:0:
256,192,163018,1,8,0:0:0:0:
256,192,163188,1,0,0:0:0:0:
256,192,163359,1,8,0:0:0:0:
256,192,163444,1,8,0:0:0:0:
256,192,163529,1,8,0:0:0:0:
256,192,163699,1,8,0:0:0:0:
256,192,164040,1,0,0:0:0:0:
256,192,164211,1,8,0:0:0:0:
256,192,164381,1,0,0:0:0:0:
256,192,164466,1,0,0:0:0:0:
256,192,164552,1,0,0:0:0:0:
256,192,164722,1,0,0:0:0:0:
256,192,164893,1,0,0:0:0:0:
256,192,165063,1,8,0:0:0:0:
256,192,165404,1,0,0:0:0:0:
256,192,165745,1,12,0:0:0:0:
256,192,166086,1,0,0:0:0:0:
256,192,166256,1,8,0:0:0:0:
256,192,166427,1,8,0:0:0:0:
256,192,166597,1,0,0:0:0:0:
256,192,166768,1,8,0:0:0:0:
256,192,166853,1,8,0:0:0:0:
256,192,166938,1,8,0:0:0:0:
256,192,167109,1,8,0:0:0:0:
256,192,167449,1,0,0:0:0:0:
256,192,167620,1,8,0:0:0:0:
256,192,167790,1,0,0:0:0:0:
256,192,167876,1,0,0:0:0:0:
256,192,167961,1,0,0:0:0:0:
256,192,168131,1,8,0:0:0:0:
256,192,168472,1,8,0:0:0:0:
256,192,168643,1,0,0:0:0:0:
256,192,168813,1,8,0:0:0:0:
256,192,168898,1,8,0:0:0:0:
256,192,168984,1,8,0:0:0:0:
256,192,169154,1,8,0:0:0:0:
256,192,169324,1,0,0:0:0:0:
256,192,169495,1,8,0:0:0:0:
256,192,169836,1,8,0:0:0:0:
256,192,170006,1,0,0:0:0:0:
256,192,170091,1,0,0:0:0:0:
256,192,170177,1,0,0:0:0:0:
256,192,170347,1,0,0:0:0:0:
256,192,170518,1,8,0:0:0:0:
256,192,170859,1,8,0:0:0:0:
256,192,171199,1,4,0:0:0:0:
256,192,171540,1,8,0:0:0:0:
256,192,171711,1,0,0:0:0:0:
256,192,171881,1,8,0:0:0:0:
256,192,171966,1,8,0:0:0:0:
256,192,172052,1,8,0:0:0:0:
256,192,172222,1,0,0:0:0:0:
256,192,172393,1,8,0:0:0:0:
256,192,172563,1,0,0:0:0:0:
256,192,172904,1,8,0:0:0:0:
256,192,173074,1,0,0:0:0:0:
256,192,173245,1,8,0:0:0:0:
256,192,173415,1,8,0:0:0:0:
256,192,173586,1,0,0:0:0:0:
256,192,173927,1,8,0:0:0:0:
256,192,174097,1,0,0:0:0:0:
256,192,174268,1,8,0:0:0:0:
256,192,174353,1,8,0:0:0:0:
256,192,174438,1,8,0:0:0:0:
256,192,174609,1,8,0:0:0:0:
256,192,174779,1,0,0:0:0:0:
256,192,174949,1,8,0:0:0:0:
256,192,175120,1,0,0:0:0:0:
256,192,175290,1,8,0:0:0:0:
256,192,175631,1,0,0:0:0:0:
256,192,175802,1,0,0:0:0:0:
256,192,175972,1,8,0:0:0:0:
256,192,176057,1,8,0:0:0:0:
256,192,176143,1,8,0:0:0:0:
256,192,176313,1,0,0:0:0:0:
256,192,176654,1,4,0:0:0:0:
