osu file format v14

[General]
AudioFilename: audio.mp3
AudioLeadIn: 0
PreviewTime: 45745
Countdown: 0
SampleSet: Soft
StackLeniency: 0.7
Mode: 3
LetterboxInBreaks: 0
SpecialStyle: 0
WidescreenStoryboard: 0

[Editor]
Bookmarks: 2109,23927,34495,44381,45745,67563,89381,111199,121768,131654,133018,154495,176654
DistanceSpacing: 1
BeatDivisor: 12
GridSize: 32
TimelineZoom: 3.600002

[Metadata]
Title:wasurena feat. Sennzai
TitleUnicode:勿忘 feat. Sennzai
Artist:tokiwa
ArtistUnicode:常盤
Creator:AquaTC
Version:memoirs
Source:
Tags:future bass edm oriental electronic instrumental japanese vocal featured artist fa 常盤詞音 tokiwa_anka long notes ln
BeatmapID:4054146
BeatmapSetID:1957020

[Difficulty]
HPDrainRate:8.6
CircleSize:4
OverallDifficulty:7.6
ApproachRate:5
SliderMultiplier:1.4
SliderTickRate:1

[Events]
//Background and Video events
0,0,"te4S73c.jpeg",0,0
//Break Periods
//Storyboard Layer 0 (Background)
//Storyboard Layer 1 (Fail)
//Storyboard Layer 2 (Pass)
//Storyboard Layer 3 (Foreground)
//Storyboard Layer 4 (Overlay)
//Storyboard Sound Samples

[TimingPoints]
2109,340.909090909091,4,2,1,100,1,0
45745,-100,4,2,1,100,0,1
56313,-100,4,2,1,100,0,0
56654,-100,4,2,1,100,0,1
67563,-100,4,2,1,100,0,0
133018,-100,4,2,1,100,0,1
143586,-100,4,2,1,100,0,0
143927,-100,4,2,1,100,0,1
154495,-100,4,2,1,100,0,0
154836,-100,4,2,1,100,0,1
165404,-100,4,2,1,100,0,0
165745,-100,4,2,1,100,0,1
176654,-100,4,2,1,100,0,0
182109,342.857142857143,4,2,1,100,1,0
182109,-99.4318181535705,4,2,1,100,0,0
187594,348.837209302326,4,2,1,100,1,0
187594,-97.7272727228306,4,2,1,100,0,0
190384,355.029585798817,4,2,1,100,1,0
190384,-97.7272727228306,4,2,1,100,0,0
193224,365.853658536585,4,2,1,100,1,0
193224,-93.181818156405,4,2,1,100,0,0
193955,377.358490566038,4,2,1,100,1,0
193955,-90.3409090903958,4,2,1,100,0,0
194709,377.358490566038,4,2,1,100,1,0
194709,-90.3409090903958,4,2,1,100,0,0
195463,400,4,2,1,100,1,0
195463,-85.227272751485,4,2,1,100,0,0
196263,400,4,2,1,100,1,0
196263,-85.227272751485,4,2,1,100,0,0
197063,422.535211267606,4,2,1,100,1,0
197063,-80.6818181634814,4,2,1,100,0,0
197696,422.535211267606,4,2,1,100,1,0
197696,-80.6818181634814,4,2,1,100,0,0
198329,454.545454545455,4,2,1,100,1,0
198329,-75.00000001875,4,2,1,100,0,0
198783,454.545454545455,4,2,1,100,1,0
198783,-75.00000001875,4,2,1,100,0,0

[HitObjects]
64,192,2109,128,0,2279:0:0:0:0:
448,192,2109,128,0,2279:0:0:0:0:
192,192,2109,1,0,0:0:0:0:
320,192,2449,128,0,2620:0:0:0:0:
192,192,2790,128,0,2961:0:0:0:0:
64,192,2790,128,0,2961:0:0:0:0:
448,192,3131,128,0,3302:0:0:0:0:
192,192,3472,128,0,4154:0:0:0:0:
320,192,3472,128,0,3643:0:0:0:0:
448,192,3643,1,0,0:0:0:0:
64,192,3813,1,0,0:0:0:0:
320,192,3984,1,0,0:0:0:0:
448,192,4154,128,0,4324:0:0:0:0:
64,192,4154,128,0,4324:0:0:0:0:
320,192,4324,1,0,0:0:0:0:
192,192,4495,128,0,4665:0:0:0:0:
448,192,4665,1,0,0:0:0:0:
320,192,4836,128,0,5006:0:0:0:0:
64,192,4836,128,0,5006:0:0:0:0:
448,192,5177,128,0,5347:0:0:0:0:
64,192,5518,128,0,5688:0:0:0:0:
192,192,5518,128,0,5688:0:0:0:0:
448,192,5859,128,0,6029:0:0:0:0:
320,192,6199,128,0,6881:0:0:0:0:
192,192,6199,128,0,6370:0:0:0:0:
64,192,6370,1,0,0:0:0:0:
448,192,6540,1,0,0:0:0:0:
192,192,6711,1,0,0:0:0:0:
64,192,6881,128,0,7052:0:0:0:0:
448,192,6881,128,0,7052:0:0:0:0:
192,192,7052,1,0,0:0:0:0:
448,192,7222,1,0,0:0:0:0:
320,192,7393,1,0,0:0:0:0:
64,192,7563,128,0,7734:0:0:0:0:
192,192,7563,128,0,7734:0:0:0:0:
448,192,7904,128,0,8074:0:0:0:0:
64,192,8245,128,0,8415:0:0:0:0:
320,192,8245,128,0,8415:0:0:0:0:
192,192,8586,128,0,8756:0:0:0:0:
64,192,8927,128,0,9609:0:0:0:0:
448,192,8927,128,0,9097:0:0:0:0:
320,192,9097,1,0,0:0:0:0:
192,192,9268,1,0,0:0:0:0:
448,192,9438,1,0,0:0:0:0:
320,192,9609,128,0,9779:0:0:0:0:
192,192,9609,128,0,9779:0:0:0:0:
448,192,9779,1,0,0:0:0:0:
320,192,9949,128,0,10120:0:0:0:0:
64,192,10120,1,0,0:0:0:0:
448,192,10290,128,0,10461:0:0:0:0:
192,192,10290,128,0,10461:0:0:0:0:
64,192,10631,128,0,10802:0:0:0:0:
320,192,10972,128,0,11143:0:0:0:0:
448,192,10972,128,0,11143:0:0:0:0:
192,192,11313,128,0,11484:0:0:0:0:
64,192,11654,128,0,11824:0:0:0:0:
448,192,11654,128,0,12336:0:0:0:0:
192,192,11824,1,0,0:0:0:0:
320,192,11995,1,0,0:0:0:0:
64,192,12165,1,0,0:0:0:0:
192,192,12336,128,0,12506:0:0:0:0:
320,192,12336,128,0,12506:0:0:0:0:
64,192,12506,1,0,0:0:0:0:
448,192,12677,1,0,0:0:0:0:
320,192,12847,1,0,0:0:0:0:
64,192,13018,128,0,13188:0:0:0:0:
192,192,13018,128,0,13188:0:0:0:0:
448,192,13018,1,0,0:0:0:0:
320,192,13188,1,0,0:0:0:0:
448,192,13359,128,0,13529:0:0:0:0:
192,192,13529,1,0,0:0:0:0:
320,192,13699,128,0,13870:0:0:0:0:
64,192,13699,128,0,13870:0:0:0:0:
448,192,13870,1,0,0:0:0:0:
192,192,14040,128,0,14211:0:0:0:0:
64,192,14040,1,0,0:0:0:0:
320,192,14211,1,0,0:0:0:0:
64,192,14381,128,0,15063:0:0:0:0:
448,192,14381,128,0,14552:0:0:0:0:
320,192,14552,1,0,0:0:0:0:
192,192,14722,1,0,0:0:0:0:
448,192,14893,1,0,0:0:0:0:
320,192,15063,1,0,0:0:0:0:
192,192,15234,1,0,0:0:0:0:
64,192,15404,128,0,15489:0:0:0:0:
448,192,15404,128,0,15574:0:0:0:0:
320,192,15574,1,0,0:0:0:0:
192,192,15745,128,0,15915:0:0:0:0:
64,192,15745,128,0,15915:0:0:0:0:
448,192,15745,128,0,15830:0:0:0:0:
320,192,15915,1,0,0:0:0:0:
448,192,16086,128,0,16256:0:0:0:0:
192,192,16256,1,0,0:0:0:0:
320,192,16427,128,0,16597:0:0:0:0:
64,192,16427,128,0,16597:0:0:0:0:
448,192,16597,1,0,0:0:0:0:
192,192,16768,128,0,16938:0:0:0:0:
64,192,16768,1,0,0:0:0:0:
320,192,16938,1,0,0:0:0:0:
64,192,17109,128,0,17279:0:0:0:0:
448,192,17109,128,0,17790:0:0:0:0:
192,192,17279,1,0,0:0:0:0:
320,192,17449,128,0,17535:0:0:0:0:
64,192,17449,1,0,0:0:0:0:
192,192,17620,1,0,0:0:0:0:
64,192,17790,128,0,17876:0:0:0:0:
320,192,17790,128,0,17876:0:0:0:0:
448,192,17961,1,0,0:0:0:0:
192,192,18131,128,0,18216:0:0:0:0:
320,192,18302,1,0,0:0:0:0:
64,192,18472,128,0,18643:0:0:0:0:
192,192,18472,128,0,18643:0:0:0:0:
320,192,18643,1,0,0:0:0:0:
448,192,18813,128,0,18984:0:0:0:0:
192,192,18984,1,0,0:0:0:0:
320,192,19154,128,0,19324:0:0:0:0:
64,192,19154,128,0,19324:0:0:0:0:
448,192,19324,1,0,0:0:0:0:
192,192,19495,128,0,19665:0:0:0:0:
320,192,19495,1,0,0:0:0:0:
64,192,19665,1,0,0:0:0:0:
448,192,19836,128,0,20006:0:0:0:0:
320,192,19836,128,0,20006:0:0:0:0:
192,192,20006,1,0,0:0:0:0:
64,192,20177,128,0,20347:0:0:0:0:
320,192,20347,1,0,0:0:0:0:
192,192,20518,128,0,20688:0:0:0:0:
64,192,20688,1,0,0:0:0:0:
320,192,20859,128,0,21029:0:0:0:0:
192,192,21029,1,0,0:0:0:0:
448,192,21199,128,0,21370:0:0:0:0:
64,192,21199,128,0,21370:0:0:0:0:
192,192,21370,1,0,0:0:0:0:
320,192,21540,128,0,21711:0:0:0:0:
448,192,21711,1,0,0:0:0:0:
64,192,21881,128,0,22052:0:0:0:0:
192,192,21881,128,0,22052:0:0:0:0:
320,192,22052,1,0,0:0:0:0:
448,192,22222,128,0,22393:0:0:0:0:
64,192,22222,1,0,0:0:0:0:
192,192,22393,1,0,0:0:0:0:
64,192,22563,128,0,22904:0:0:0:0:
320,192,22563,128,0,22734:0:0:0:0:
448,192,22734,1,0,0:0:0:0:
192,192,22904,1,0,0:0:0:0:
320,192,22904,1,0,0:0:0:0:
448,192,23074,1,0,0:0:0:0:
64,192,23245,1,0,0:0:0:0:
192,192,23302,1,0,0:0:0:0:
320,192,23359,1,0,0:0:0:0:
448,192,23415,1,0,0:0:0:0:
64,192,23415,1,0,0:0:0:0:
320,192,23586,128,0,23841:0:0:0:0:
192,192,23586,128,0,23785:0:0:0:0:
64,192,23586,128,0,23728:0:0:0:0:
448,192,23586,128,0,23671:0:0:0:0:
64,192,23927,128,0,24182:0:0:0:0:
192,192,23927,128,0,24097:0:0:0:0:
448,192,23927,128,0,24012:0:0:0:0:
320,192,24012,128,0,24268:0:0:0:0:
448,192,24182,128,0,24268:0:0:0:0:
192,192,24268,128,0,24523:0:0:0:0:
448,192,24438,128,0,24609:0:0:0:0:
64,192,24609,128,0,24949:0:0:0:0:
320,192,24609,128,0,24779:0:0:0:0:
192,192,24864,128,0,24949:0:0:0:0:
448,192,24949,128,0,25290:0:0:0:0:
320,192,25120,128,0,25205:0:0:0:0:
192,192,25162,128,0,25290:0:0:0:0:
64,192,25290,128,0,25376:0:0:0:0:
320,192,25290,128,0,25461:0:0:0:0:
448,192,25461,128,0,25716:0:0:0:0:
64,192,25546,128,0,25631:0:0:0:0:
192,192,25631,128,0,25972:0:0:0:0:
64,192,25802,128,0,25887:0:0:0:0:
320,192,25859,128,0,25915:0:0:0:0:
448,192,25915,128,0,25972:0:0:0:0:
64,192,25972,128,0,26086:0:0:0:0:
192,192,26029,128,0,26143:0:0:0:0:
448,192,26086,128,0,26313:0:0:0:0:
320,192,26228,128,0,26313:0:0:0:0:
64,192,26313,128,0,26569:0:0:0:0:
448,192,26484,128,0,26654:0:0:0:0:
192,192,26654,128,0,26824:0:0:0:0:
64,192,26654,128,0,26910:0:0:0:0:
320,192,26739,128,0,26995:0:0:0:0:
448,192,26910,128,0,26995:0:0:0:0:
192,192,26995,128,0,27251:0:0:0:0:
64,192,27165,128,0,27336:0:0:0:0:
448,192,27336,128,0,27677:0:0:0:0:
320,192,27336,128,0,27506:0:0:0:0:
64,192,27591,128,0,27677:0:0:0:0:
192,192,27677,128,0,28018:0:0:0:0:
320,192,27847,128,0,28188:0:0:0:0:
64,192,28018,128,0,28103:0:0:0:0:
448,192,28018,128,0,28188:0:0:0:0:
192,192,28188,128,0,28529:0:0:0:0:
64,192,28273,128,0,28359:0:0:0:0:
320,192,28359,128,0,28699:0:0:0:0:
64,192,28529,128,0,28643:0:0:0:0:
448,192,28586,128,0,28699:0:0:0:0:
64,192,28699,128,0,28813:0:0:0:0:
192,192,28756,128,0,28870:0:0:0:0:
448,192,28813,128,0,29040:0:0:0:0:
64,192,28955,128,0,29040:0:0:0:0:
320,192,29040,128,0,29296:0:0:0:0:
192,192,29211,128,0,29381:0:0:0:0:
448,192,29381,128,0,29637:0:0:0:0:
64,192,29381,128,0,29552:0:0:0:0:
320,192,29466,128,0,29722:0:0:0:0:
192,192,29637,128,0,29722:0:0:0:0:
64,192,29722,128,0,29978:0:0:0:0:
320,192,29893,128,0,30063:0:0:0:0:
448,192,30063,128,0,30234:0:0:0:0:
64,192,30063,128,0,30319:0:0:0:0:
192,192,30148,128,0,30404:0:0:0:0:
320,192,30319,128,0,30404:0:0:0:0:
448,192,30404,128,0,30660:0:0:0:0:
192,192,30574,128,0,30660:0:0:0:0:
64,192,30617,128,0,30745:0:0:0:0:
192,192,30745,128,0,30915:0:0:0:0:
320,192,30745,128,0,30830:0:0:0:0:
448,192,30915,128,0,31256:0:0:0:0:
320,192,31001,128,0,31086:0:0:0:0:
64,192,31086,128,0,31427:0:0:0:0:
320,192,31256,128,0,31341:0:0:0:0:
192,192,31313,128,0,31370:0:0:0:0:
448,192,31370,128,0,31427:0:0:0:0:
320,192,31427,128,0,31768:0:0:0:0:
64,192,31682,128,0,31768:0:0:0:0:
448,192,31768,128,0,32023:0:0:0:0:
192,192,31938,128,0,32109:0:0:0:0:
448,192,32109,128,0,32364:0:0:0:0:
64,192,32109,128,0,32279:0:0:0:0:
320,192,32194,128,0,32449:0:0:0:0:
192,192,32364,128,0,32449:0:0:0:0:
64,192,32449,128,0,32705:0:0:0:0:
320,192,32620,128,0,32790:0:0:0:0:
448,192,32790,128,0,33046:0:0:0:0:
64,192,32790,128,0,32961:0:0:0:0:
192,192,32876,128,0,33131:0:0:0:0:
320,192,33046,128,0,33131:0:0:0:0:
448,192,33131,128,0,33387:0:0:0:0:
192,192,33302,128,0,33387:0:0:0:0:
64,192,33344,128,0,33472:0:0:0:0:
320,192,33472,128,0,33557:0:0:0:0:
192,192,33472,128,0,33643:0:0:0:0:
448,192,33643,128,0,33728:0:0:0:0:
64,192,33728,128,0,33813:0:0:0:0:
448,192,33813,128,0,33984:0:0:0:0:
64,192,33984,128,0,34154:0:0:0:0:
192,192,34154,128,0,34410:0:0:0:0:
320,192,34197,128,0,34452:0:0:0:0:
448,192,34239,128,0,34495:0:0:0:0:
64,192,34410,128,0,34495:0:0:0:0:
192,192,34495,128,0,34665:0:0:0:0:
320,192,34665,128,0,34836:0:0:0:0:
448,192,34836,128,0,35006:0:0:0:0:
64,192,34836,128,0,35006:0:0:0:0:
192,192,34836,1,0,0:0:0:0:
320,192,35006,1,0,0:0:0:0:
192,192,35091,128,0,35177:0:0:0:0:
320,192,35177,1,0,0:0:0:0:
448,192,35177,1,0,0:0:0:0:
192,192,35347,128,0,35432:0:0:0:0:
320,192,35432,1,0,0:0:0:0:
64,192,35518,128,0,35603:0:0:0:0:
448,192,35518,128,0,35603:0:0:0:0:
320,192,35688,1,0,0:0:0:0:
192,192,35773,128,0,35859:0:0:0:0:
64,192,35859,128,0,36029:0:0:0:0:
448,192,35859,128,0,36029:0:0:0:0:
192,192,35944,1,0,0:0:0:0:
320,192,36029,128,0,36199:0:0:0:0:
448,192,36114,1,0,0:0:0:0:
64,192,36199,128,0,36370:0:0:0:0:
192,192,36199,128,0,36370:0:0:0:0:
448,192,36370,1,0,0:0:0:0:
320,192,36455,128,0,36540:0:0:0:0:
192,192,36540,1,0,0:0:0:0:
64,192,36540,1,0,0:0:0:0:
320,192,36711,128,0,36796:0:0:0:0:
192,192,36796,1,0,0:0:0:0:
448,192,36881,128,0,37052:0:0:0:0:
64,192,36881,128,0,37052:0:0:0:0:
320,192,37052,1,0,0:0:0:0:
192,192,37137,128,0,37222:0:0:0:0:
448,192,37222,128,0,37393:0:0:0:0:
64,192,37222,128,0,37393:0:0:0:0:
320,192,37307,1,0,0:0:0:0:
192,192,37393,128,0,37478:0:0:0:0:
320,192,37478,1,0,0:0:0:0:
192,192,37563,128,0,37734:0:0:0:0:
64,192,37563,128,0,37734:0:0:0:0:
448,192,37734,1,0,0:0:0:0:
64,192,37819,128,0,37904:0:0:0:0:
448,192,37904,128,0,38074:0:0:0:0:
192,192,37904,128,0,38074:0:0:0:0:
64,192,38074,128,0,38160:0:0:0:0:
320,192,38160,1,0,0:0:0:0:
192,192,38245,128,0,38415:0:0:0:0:
64,192,38245,128,0,38415:0:0:0:0:
448,192,38415,1,0,0:0:0:0:
192,192,38501,128,0,38586:0:0:0:0:
64,192,38586,128,0,38756:0:0:0:0:
448,192,38586,128,0,38756:0:0:0:0:
320,192,38671,1,0,0:0:0:0:
192,192,38756,128,0,38841:0:0:0:0:
320,192,38841,1,0,0:0:0:0:
64,192,38927,128,0,39097:0:0:0:0:
192,192,38927,128,0,39097:0:0:0:0:
320,192,39097,1,0,0:0:0:0:
448,192,39182,128,0,39268:0:0:0:0:
192,192,39268,1,0,0:0:0:0:
64,192,39268,1,0,0:0:0:0:
448,192,39438,128,0,39523:0:0:0:0:
64,192,39523,1,0,0:0:0:0:
192,192,39609,128,0,39779:0:0:0:0:
448,192,39609,128,0,39779:0:0:0:0:
320,192,39779,1,0,0:0:0:0:
192,192,39864,128,0,39949:0:0:0:0:
448,192,39949,128,0,40120:0:0:0:0:
64,192,39949,128,0,40120:0:0:0:0:
192,192,40120,128,0,40205:0:0:0:0:
320,192,40205,1,0,0:0:0:0:
64,192,40290,128,0,40461:0:0:0:0:
192,192,40290,128,0,40461:0:0:0:0:
448,192,40461,128,0,40546:0:0:0:0:
64,192,40546,128,0,40631:0:0:0:0:
320,192,40631,128,0,40802:0:0:0:0:
448,192,40631,128,0,40802:0:0:0:0:
64,192,40802,128,0,40887:0:0:0:0:
192,192,40972,128,0,41143:0:0:0:0:
448,192,40972,128,0,41143:0:0:0:0:
64,192,41143,128,0,41228:0:0:0:0:
448,192,41228,128,0,41313:0:0:0:0:
64,192,41313,128,0,41484:0:0:0:0:
320,192,41313,128,0,41484:0:0:0:0:
448,192,41484,128,0,41569:0:0:0:0:
192,192,41654,128,0,41824:0:0:0:0:
320,192,41654,128,0,41824:0:0:0:0:
448,192,41824,128,0,41910:0:0:0:0:
192,192,41910,128,0,41995:0:0:0:0:
64,192,41995,128,0,42165:0:0:0:0:
448,192,41995,128,0,42165:0:0:0:0:
192,192,42165,128,0,42251:0:0:0:0:
320,192,42336,128,0,42506:0:0:0:0:
448,192,42336,128,0,42506:0:0:0:0:
64,192,42506,128,0,42591:0:0:0:0:
320,192,42591,128,0,42677:0:0:0:0:
192,192,42677,128,0,42847:0:0:0:0:
64,192,42677,128,0,42847:0:0:0:0:
320,192,42847,128,0,42932:0:0:0:0:
64,192,43018,128,0,43103:0:0:0:0:
192,192,43018,128,0,43103:0:0:0:0:
448,192,43103,1,0,0:0:0:0:
320,192,43188,1,0,0:0:0:0:
64,192,43188,1,0,0:0:0:0:
448,192,43273,1,0,0:0:0:0:
64,192,43359,128,0,43444:0:0:0:0:
192,192,43359,128,0,43444:0:0:0:0:
320,192,43444,1,0,0:0:0:0:
64,192,43529,1,0,0:0:0:0:
448,192,43529,1,0,0:0:0:0:
192,192,43614,1,0,0:0:0:0:
320,192,43699,128,0,43785:0:0:0:0:
448,192,43699,128,0,43785:0:0:0:0:
64,192,43785,1,0,0:0:0:0:
192,192,43870,1,0,0:0:0:0:
448,192,43870,1,0,0:0:0:0:
64,192,43955,1,0,0:0:0:0:
320,192,44040,128,0,44126:0:0:0:0:
448,192,44040,128,0,44126:0:0:0:0:
192,192,44126,1,0,0:0:0:0:
64,192,44211,1,0,0:0:0:0:
448,192,44211,1,0,0:0:0:0:
320,192,44296,1,0,0:0:0:0:
192,192,44381,128,0,44552:0:0:0:0:
64,192,44381,1,0,0:0:0:0:
448,192,44552,128,0,44722:0:0:0:0:
320,192,44722,128,0,44893:0:0:0:0:
192,192,44765,128,0,44935:0:0:0:0:
64,192,44807,128,0,44978:0:0:0:0:
448,192,44893,128,0,45063:0:0:0:0:
64,192,45063,128,0,45234:0:0:0:0:
192,192,45120,1,0,0:0:0:0:
320,192,45177,1,0,0:0:0:0:
448,192,45234,1,0,0:0:0:0:
192,192,45234,1,0,0:0:0:0:
64,192,45404,128,0,45603:0:0:0:0:
192,192,45404,128,0,45489:0:0:0:0:
320,192,45404,128,0,45660:0:0:0:0:
448,192,45404,128,0,45546:0:0:0:0:
64,192,45745,128,0,46086:0:0:0:0:
192,192,45745,128,0,45915:0:0:0:0:
448,192,45745,128,0,45830:0:0:0:0:
448,192,45915,1,0,0:0:0:0:
320,192,46086,128,0,46341:0:0:0:0:
448,192,46256,128,0,46341:0:0:0:0:
448,192,46427,128,0,46682:0:0:0:0:
64,192,46427,128,0,46768:0:0:0:0:
320,192,46427,128,0,46597:0:0:0:0:
192,192,46427,128,0,46512:0:0:0:0:
192,192,46597,1,0,0:0:0:0:
448,192,46768,128,0,47109:0:0:0:0:
192,192,46768,128,0,46853:0:0:0:0:
192,192,46938,128,0,47279:0:0:0:0:
320,192,46938,128,0,47109:0:0:0:0:
64,192,46938,128,0,47023:0:0:0:0:
64,192,47109,128,0,47279:0:0:0:0:
448,192,47279,128,0,47620:0:0:0:0:
320,192,47449,128,0,47620:0:0:0:0:
64,192,47449,128,0,47535:0:0:0:0:
192,192,47449,128,0,47577:0:0:0:0:
64,192,47620,128,0,47705:0:0:0:0:
192,192,47677,128,0,47734:0:0:0:0:
448,192,47734,128,0,47790:0:0:0:0:
320,192,47790,128,0,47904:0:0:0:0:
192,192,47790,128,0,48018:0:0:0:0:
64,192,47790,128,0,47847:0:0:0:0:
448,192,47847,128,0,47961:0:0:0:0:
64,192,47904,128,0,48131:0:0:0:0:
320,192,47961,1,0,0:0:0:0:
448,192,48131,128,0,48387:0:0:0:0:
320,192,48302,128,0,48387:0:0:0:0:
64,192,48387,1,0,0:0:0:0:
448,192,48472,128,0,48813:0:0:0:0:
192,192,48472,128,0,48557:0:0:0:0:
320,192,48472,128,0,48643:0:0:0:0:
192,192,48643,1,0,0:0:0:0:
64,192,48813,128,0,49069:0:0:0:0:
448,192,48984,128,0,49069:0:0:0:0:
320,192,49154,128,0,49239:0:0:0:0:
64,192,49154,128,0,49410:0:0:0:0:
448,192,49154,128,0,49495:0:0:0:0:
192,192,49154,128,0,49324:0:0:0:0:
320,192,49324,1,0,0:0:0:0:
64,192,49495,128,0,49836:0:0:0:0:
320,192,49495,128,0,49580:0:0:0:0:
320,192,49665,128,0,50006:0:0:0:0:
448,192,49665,128,0,49751:0:0:0:0:
192,192,49665,128,0,49836:0:0:0:0:
448,192,49836,128,0,50006:0:0:0:0:
64,192,50006,128,0,50347:0:0:0:0:
320,192,50177,128,0,50262:0:0:0:0:
192,192,50177,128,0,50347:0:0:0:0:
448,192,50177,128,0,50305:0:0:0:0:
320,192,50347,128,0,50461:0:0:0:0:
448,192,50404,128,0,50518:0:0:0:0:
320,192,50518,128,0,50745:0:0:0:0:
192,192,50518,128,0,50631:0:0:0:0:
64,192,50518,128,0,50574:0:0:0:0:
448,192,50574,128,0,50688:0:0:0:0:
64,192,50631,128,0,50859:0:0:0:0:
192,192,50688,1,0,0:0:0:0:
448,192,50859,128,0,51114:0:0:0:0:
320,192,50859,128,0,50944:0:0:0:0:
192,192,50859,128,0,51029:0:0:0:0:
64,192,51029,128,0,51114:0:0:0:0:
320,192,51114,1,0,0:0:0:0:
64,192,51199,128,0,51540:0:0:0:0:
448,192,51199,128,0,51285:0:0:0:0:
192,192,51199,128,0,51370:0:0:0:0:
448,192,51370,1,0,0:0:0:0:
320,192,51540,128,0,51796:0:0:0:0:
448,192,51711,128,0,51796:0:0:0:0:
64,192,51881,128,0,52222:0:0:0:0:
448,192,51881,128,0,52137:0:0:0:0:
192,192,51881,128,0,51966:0:0:0:0:
320,192,51881,128,0,52052:0:0:0:0:
192,192,52052,1,0,0:0:0:0:
448,192,52222,128,0,52563:0:0:0:0:
192,192,52222,128,0,52307:0:0:0:0:
192,192,52393,128,0,52734:0:0:0:0:
64,192,52393,128,0,52478:0:0:0:0:
320,192,52393,128,0,52563:0:0:0:0:
64,192,52563,128,0,52734:0:0:0:0:
448,192,52734,128,0,53074:0:0:0:0:
320,192,52904,128,0,53074:0:0:0:0:
64,192,52904,128,0,53032:0:0:0:0:
192,192,52904,128,0,52989:0:0:0:0:
192,192,53074,128,0,53160:0:0:0:0:
64,192,53131,128,0,53188:0:0:0:0:
320,192,53188,128,0,53245:0:0:0:0:
448,192,53245,128,0,53586:0:0:0:0:
192,192,53245,128,0,53501:0:0:0:0:
64,192,53245,128,0,53415:0:0:0:0:
320,192,53415,1,0,0:0:0:0:
64,192,53586,128,0,53841:0:0:0:0:
448,192,53756,128,0,53841:0:0:0:0:
192,192,53841,1,0,0:0:0:0:
448,192,53927,128,0,54268:0:0:0:0:
320,192,53927,128,0,54097:0:0:0:0:
64,192,53927,128,0,54012:0:0:0:0:
64,192,54097,1,0,0:0:0:0:
192,192,54268,128,0,54523:0:0:0:0:
448,192,54438,128,0,54523:0:0:0:0:
448,192,54609,128,0,54949:0:0:0:0:
320,192,54609,128,0,54694:0:0:0:0:
64,192,54609,128,0,54864:0:0:0:0:
192,192,54609,128,0,54779:0:0:0:0:
320,192,54779,1,0,0:0:0:0:
64,192,54949,128,0,55290:0:0:0:0:
320,192,54949,128,0,55035:0:0:0:0:
320,192,55120,128,0,55461:0:0:0:0:
448,192,55120,128,0,55205:0:0:0:0:
192,192,55120,128,0,55290:0:0:0:0:
448,192,55290,128,0,55461:0:0:0:0:
64,192,55461,128,0,55631:0:0:0:0:
192,192,55631,128,0,55716:0:0:0:0:
320,192,55631,128,0,55887:0:0:0:0:
448,192,55631,128,0,55802:0:0:0:0:
192,192,55802,128,0,55930:0:0:0:0:
64,192,55972,128,0,56143:0:0:0:0:
320,192,55972,1,0,0:0:0:0:
448,192,55972,128,0,56057:0:0:0:0:
192,192,56015,128,0,56185:0:0:0:0:
320,192,56057,128,0,56228:0:0:0:0:
448,192,56143,1,0,0:0:0:0:
64,192,56313,128,0,56512:0:0:0:0:
448,192,56313,128,0,56569:0:0:0:0:
320,192,56313,128,0,56455:0:0:0:0:
192,192,56313,128,0,56398:0:0:0:0:
192,192,56484,1,0,0:0:0:0:
320,192,56569,1,0,0:0:0:0:
64,192,56654,128,0,56995:0:0:0:0:
448,192,56654,128,0,56739:0:0:0:0:
192,192,56654,128,0,56824:0:0:0:0:
448,192,56824,1,0,0:0:0:0:
320,192,56995,128,0,57251:0:0:0:0:
448,192,57165,128,0,57251:0:0:0:0:
448,192,57336,128,0,57591:0:0:0:0:
320,192,57336,128,0,57506:0:0:0:0:
64,192,57336,128,0,57677:0:0:0:0:
192,192,57336,128,0,57421:0:0:0:0:
192,192,57506,1,0,0:0:0:0:
320,192,57591,1,0,0:0:0:0:
448,192,57677,128,0,58018:0:0:0:0:
192,192,57677,128,0,57762:0:0:0:0:
192,192,57847,128,0,58188:0:0:0:0:
64,192,57847,128,0,57932:0:0:0:0:
320,192,57847,128,0,58018:0:0:0:0:
64,192,58018,128,0,58188:0:0:0:0:
448,192,58188,128,0,58529:0:0:0:0:
320,192,58359,128,0,58529:0:0:0:0:
64,192,58359,128,0,58444:0:0:0:0:
192,192,58359,128,0,58486:0:0:0:0:
64,192,58529,128,0,58614:0:0:0:0:
192,192,58586,128,0,58643:0:0:0:0:
320,192,58643,128,0,58699:0:0:0:0:
64,192,58699,128,0,58756:0:0:0:0:
192,192,58699,128,0,58927:0:0:0:0:
448,192,58699,128,0,58813:0:0:0:0:
320,192,58756,128,0,58870:0:0:0:0:
64,192,58813,128,0,59040:0:0:0:0:
448,192,58870,1,0,0:0:0:0:
320,192,58955,1,0,0:0:0:0:
448,192,59040,128,0,59296:0:0:0:0:
64,192,59126,1,0,0:0:0:0:
320,192,59211,128,0,59296:0:0:0:0:
192,192,59296,1,0,0:0:0:0:
320,192,59381,128,0,59722:0:0:0:0:
448,192,59381,128,0,59552:0:0:0:0:
64,192,59381,128,0,59466:0:0:0:0:
192,192,59466,1,0,0:0:0:0:
64,192,59552,1,0,0:0:0:0:
448,192,59637,1,0,0:0:0:0:
64,192,59722,128,0,59978:0:0:0:0:
320,192,59807,1,0,0:0:0:0:
448,192,59893,128,0,59978:0:0:0:0:
192,192,59978,128,0,60319:0:0:0:0:
448,192,60063,128,0,60404:0:0:0:0:
320,192,60063,128,0,60148:0:0:0:0:
64,192,60063,128,0,60234:0:0:0:0:
320,192,60234,1,0,0:0:0:0:
64,192,60319,1,0,0:0:0:0:
192,192,60404,128,0,60745:0:0:0:0:
320,192,60404,128,0,60489:0:0:0:0:
320,192,60574,128,0,60915:0:0:0:0:
64,192,60574,128,0,60745:0:0:0:0:
448,192,60574,128,0,60660:0:0:0:0:
448,192,60745,128,0,60915:0:0:0:0:
192,192,60830,1,0,0:0:0:0:
64,192,60915,128,0,61001:0:0:0:0:
192,192,61001,128,0,61256:0:0:0:0:
64,192,61086,128,0,61256:0:0:0:0:
448,192,61086,128,0,61171:0:0:0:0:
320,192,61086,128,0,61214:0:0:0:0:
448,192,61256,128,0,61370:0:0:0:0:
320,192,61313,128,0,61427:0:0:0:0:
448,192,61427,128,0,61654:0:0:0:0:
192,192,61427,128,0,61540:0:0:0:0:
64,192,61427,128,0,61484:0:0:0:0:
320,192,61484,128,0,61597:0:0:0:0:
64,192,61540,128,0,61626:0:0:0:0:
192,192,61597,1,0,0:0:0:0:
64,192,61682,128,0,61768:0:0:0:0:
448,192,61768,128,0,62023:0:0:0:0:
192,192,61768,128,0,61853:0:0:0:0:
320,192,61768,128,0,61938:0:0:0:0:
64,192,61853,1,0,0:0:0:0:
192,192,61938,128,0,62023:0:0:0:0:
320,192,62023,1,0,0:0:0:0:
192,192,62109,128,0,62449:0:0:0:0:
448,192,62109,128,0,62194:0:0:0:0:
64,192,62109,128,0,62279:0:0:0:0:
320,192,62194,1,0,0:0:0:0:
448,192,62279,1,0,0:0:0:0:
64,192,62364,1,0,0:0:0:0:
320,192,62449,128,0,62705:0:0:0:0:
192,192,62535,1,0,0:0:0:0:
64,192,62620,128,0,62705:0:0:0:0:
448,192,62705,128,0,63046:0:0:0:0:
64,192,62790,128,0,63131:0:0:0:0:
320,192,62790,128,0,62961:0:0:0:0:
192,192,62790,128,0,62876:0:0:0:0:
192,192,62961,1,0,0:0:0:0:
320,192,63046,1,0,0:0:0:0:
448,192,63131,128,0,63472:0:0:0:0:
192,192,63131,128,0,63216:0:0:0:0:
192,192,63302,128,0,63643:0:0:0:0:
64,192,63302,128,0,63387:0:0:0:0:
320,192,63302,128,0,63472:0:0:0:0:
64,192,63472,128,0,63643:0:0:0:0:
448,192,63557,1,0,0:0:0:0:
320,192,63643,128,0,63728:0:0:0:0:
448,192,63728,128,0,63984:0:0:0:0:
320,192,63813,128,0,63984:0:0:0:0:
192,192,63813,128,0,63941:0:0:0:0:
64,192,63813,128,0,63898:0:0:0:0:
64,192,63984,128,0,64069:0:0:0:0:
192,192,64040,128,0,64097:0:0:0:0:
320,192,64097,128,0,64154:0:0:0:0:
448,192,64154,128,0,64495:0:0:0:0:
192,192,64154,128,0,64324:0:0:0:0:
64,192,64154,128,0,64410:0:0:0:0:
320,192,64324,1,0,0:0:0:0:
192,192,64410,1,0,0:0:0:0:
64,192,64495,128,0,64751:0:0:0:0:
320,192,64580,1,0,0:0:0:0:
448,192,64665,128,0,64751:0:0:0:0:
192,192,64751,1,0,0:0:0:0:
448,192,64836,128,0,65006:0:0:0:0:
320,192,64836,128,0,65177:0:0:0:0:
64,192,64836,128,0,64921:0:0:0:0:
192,192,64921,1,0,0:0:0:0:
64,192,65006,1,0,0:0:0:0:
448,192,65091,1,0,0:0:0:0:
64,192,65177,128,0,65432:0:0:0:0:
320,192,65262,1,0,0:0:0:0:
448,192,65347,128,0,65432:0:0:0:0:
192,192,65432,128,0,65773:0:0:0:0:
320,192,65518,128,0,65603:0:0:0:0:
448,192,65518,128,0,65859:0:0:0:0:
64,192,65518,128,0,65688:0:0:0:0:
320,192,65688,1,0,0:0:0:0:
64,192,65773,1,0,0:0:0:0:
192,192,65859,128,0,66199:0:0:0:0:
320,192,65859,128,0,65944:0:0:0:0:
320,192,66029,128,0,66370:0:0:0:0:
448,192,66029,128,0,66114:0:0:0:0:
64,192,66029,128,0,66199:0:0:0:0:
448,192,66199,128,0,66370:0:0:0:0:
192,192,66285,1,0,0:0:0:0:
64,192,66370,128,0,66455:0:0:0:0:
192,192,66455,128,0,66711:0:0:0:0:
64,192,66540,128,0,66796:0:0:0:0:
320,192,66540,128,0,66711:0:0:0:0:
448,192,66540,128,0,66626:0:0:0:0:
448,192,66711,128,0,66824:0:0:0:0:
320,192,66796,1,0,0:0:0:0:
192,192,66881,1,0,0:0:0:0:
448,192,66881,128,0,67052:0:0:0:0:
64,192,66881,128,0,66966:0:0:0:0:
320,192,66924,128,0,67094:0:0:0:0:
192,192,66966,128,0,67137:0:0:0:0:
64,192,67052,1,0,0:0:0:0:
320,192,67222,128,0,67421:0:0:0:0:
192,192,67222,128,0,67307:0:0:0:0:
64,192,67222,128,0,67364:0:0:0:0:
448,192,67222,128,0,67478:0:0:0:0:
320,192,67563,1,0,0:0:0:0:
64,192,67563,128,0,67734:0:0:0:0:
192,192,67563,128,0,67734:0:0:0:0:
320,192,67904,128,0,68074:0:0:0:0:
448,192,68074,128,0,68245:0:0:0:0:
64,192,68245,128,0,68415:0:0:0:0:
192,192,68245,128,0,68415:0:0:0:0:
320,192,68586,128,0,68756:0:0:0:0:
192,192,68756,128,0,68955:0:0:0:0:
64,192,68955,128,0,69040:0:0:0:0:
448,192,68955,128,0,69040:0:0:0:0:
320,192,69097,128,0,69268:0:0:0:0:
192,192,69268,128,0,69438:0:0:0:0:
64,192,69438,128,0,69523:0:0:0:0:
448,192,69481,128,0,69566:0:0:0:0:
320,192,69523,128,0,69609:0:0:0:0:
192,192,69609,128,0,69779:0:0:0:0:
448,192,69949,128,0,70120:0:0:0:0:
320,192,70120,128,0,70290:0:0:0:0:
64,192,70290,128,0,70461:0:0:0:0:
192,192,70290,128,0,70461:0:0:0:0:
320,192,70631,128,0,70802:0:0:0:0:
448,192,70802,128,0,70972:0:0:0:0:
64,192,70972,128,0,71143:0:0:0:0:
192,192,70972,128,0,71143:0:0:0:0:
320,192,71313,128,0,71484:0:0:0:0:
192,192,71484,128,0,71682:0:0:0:0:
64,192,71682,128,0,71768:0:0:0:0:
448,192,71682,128,0,71768:0:0:0:0:
192,192,71824,128,0,71995:0:0:0:0:
320,192,71995,128,0,72165:0:0:0:0:
448,192,72165,128,0,72336:0:0:0:0:
64,192,72336,128,0,72506:0:0:0:0:
64,192,73018,128,0,73359:0:0:0:0:
448,192,73018,128,0,73188:0:0:0:0:
320,192,73359,128,0,73699:0:0:0:0:
192,192,73699,128,0,74040:0:0:0:0:
64,192,73699,128,0,73870:0:0:0:0:
448,192,74040,128,0,74381:0:0:0:0:
192,192,74381,128,0,74509:0:0:0:0:
64,192,74381,128,0,74552:0:0:0:0:
320,192,74466,128,0,74594:0:0:0:0:
448,192,74552,128,0,75234:0:0:0:0:
320,192,75404,128,0,75745:0:0:0:0:
64,192,75745,128,0,75915:0:0:0:0:
448,192,75745,128,0,75873:0:0:0:0:
192,192,75830,128,0,76086:0:0:0:0:
448,192,76086,128,0,76427:0:0:0:0:
192,192,76427,128,0,76597:0:0:0:0:
64,192,76427,128,0,76555:0:0:0:0:
320,192,76512,128,0,76768:0:0:0:0:
64,192,76768,128,0,77109:0:0:0:0:
448,192,77109,128,0,77236:0:0:0:0:
320,192,77109,128,0,77279:0:0:0:0:
192,192,77194,128,0,78131:0:0:0:0:
64,192,78245,1,0,0:0:0:0:
192,192,78302,1,0,0:0:0:0:
448,192,78387,1,0,0:0:0:0:
320,192,78430,1,0,0:0:0:0:
192,192,78472,128,0,78643:0:0:0:0:
64,192,78472,128,0,78643:0:0:0:0:
320,192,78813,128,0,78984:0:0:0:0:
448,192,78984,128,0,79154:0:0:0:0:
64,192,79154,128,0,79324:0:0:0:0:
192,192,79154,128,0,79324:0:0:0:0:
320,192,79495,128,0,79665:0:0:0:0:
192,192,79665,128,0,79836:0:0:0:0:
64,192,79836,128,0,79921:0:0:0:0:
448,192,79836,128,0,79921:0:0:0:0:
320,192,80006,128,0,80177:0:0:0:0:
192,192,80177,128,0,80347:0:0:0:0:
64,192,80347,128,0,80432:0:0:0:0:
448,192,80390,128,0,80475:0:0:0:0:
320,192,80432,128,0,80518:0:0:0:0:
192,192,80518,128,0,80688:0:0:0:0:
448,192,80859,128,0,81029:0:0:0:0:
320,192,81029,128,0,81199:0:0:0:0:
64,192,81199,128,0,81370:0:0:0:0:
192,192,81199,128,0,81370:0:0:0:0:
320,192,81540,128,0,81711:0:0:0:0:
448,192,81711,128,0,81881:0:0:0:0:
64,192,81881,128,0,82052:0:0:0:0:
192,192,81881,128,0,82052:0:0:0:0:
320,192,82222,128,0,82393:0:0:0:0:
192,192,82393,128,0,82563:0:0:0:0:
64,192,82563,128,0,82648:0:0:0:0:
448,192,82563,128,0,82648:0:0:0:0:
320,192,82734,128,0,82904:0:0:0:0:
192,192,82904,128,0,83074:0:0:0:0:
448,192,83074,128,0,83245:0:0:0:0:
64,192,83245,128,0,83415:0:0:0:0:
192,192,83245,128,0,83415:0:0:0:0:
320,192,83245,128,0,83330:0:0:0:0:
320,192,83586,1,0,0:0:0:0:
64,192,83927,128,0,84268:0:0:0:0:
448,192,83927,128,0,84097:0:0:0:0:
320,192,84268,128,0,84609:0:0:0:0:
448,192,84438,1,0,0:0:0:0:
192,192,84609,128,0,84949:0:0:0:0:
64,192,84609,128,0,84779:0:0:0:0:
448,192,84949,128,0,85290:0:0:0:0:
64,192,85290,128,0,85461:0:0:0:0:
192,192,85290,128,0,85418:0:0:0:0:
320,192,85376,128,0,85503:0:0:0:0:
448,192,85461,128,0,86143:0:0:0:0:
192,192,85631,1,0,0:0:0:0:
64,192,85802,1,0,0:0:0:0:
192,192,85972,128,0,86057:0:0:0:0:
320,192,85972,128,0,86057:0:0:0:0:
64,192,86313,128,0,86654:0:0:0:0:
320,192,86654,128,0,86782:0:0:0:0:
192,192,86654,128,0,86824:0:0:0:0:
448,192,86739,128,0,86995:0:0:0:0:
320,192,86995,128,0,87336:0:0:0:0:
64,192,87165,1,0,0:0:0:0:
448,192,87336,128,0,87506:0:0:0:0:
192,192,87336,128,0,87464:0:0:0:0:
64,192,87421,128,0,87677:0:0:0:0:
192,192,87677,128,0,88018:0:0:0:0:
64,192,88018,128,0,88145:0:0:0:0:
320,192,88018,128,0,88188:0:0:0:0:
448,192,88103,128,0,89296:0:0:0:0:
320,192,88359,128,0,89296:0:0:0:0:
192,192,88529,1,0,0:0:0:0:
192,192,88699,128,0,89296:0:0:0:0:
64,192,88699,128,0,88785:0:0:0:0:
64,192,89040,128,0,89296:0:0:0:0:
64,192,89381,128,0,89552:0:0:0:0:
192,192,89381,128,0,89552:0:0:0:0:
448,192,89381,1,0,0:0:0:0:
320,192,89722,128,0,89893:0:0:0:0:
192,192,90063,128,0,90234:0:0:0:0:
448,192,90063,128,0,90234:0:0:0:0:
64,192,90404,128,0,90574:0:0:0:0:
192,192,90745,128,0,91427:0:0:0:0:
320,192,90745,128,0,90915:0:0:0:0:
448,192,90915,1,0,0:0:0:0:
64,192,91086,1,0,0:0:0:0:
320,192,91256,1,0,0:0:0:0:
64,192,91427,128,0,91597:0:0:0:0:
448,192,91427,128,0,91597:0:0:0:0:
320,192,91597,1,0,0:0:0:0:
192,192,91768,128,0,91938:0:0:0:0:
64,192,91938,1,0,0:0:0:0:
448,192,92109,128,0,92279:0:0:0:0:
320,192,92109,128,0,92279:0:0:0:0:
192,192,92449,128,0,92620:0:0:0:0:
64,192,92790,128,0,92961:0:0:0:0:
320,192,92790,128,0,92961:0:0:0:0:
448,192,93131,128,0,93302:0:0:0:0:
192,192,93472,128,0,93643:0:0:0:0:
320,192,93472,128,0,94154:0:0:0:0:
64,192,93643,1,0,0:0:0:0:
448,192,93813,1,0,0:0:0:0:
192,192,93984,1,0,0:0:0:0:
448,192,94154,128,0,94324:0:0:0:0:
64,192,94154,128,0,94324:0:0:0:0:
192,192,94324,1,0,0:0:0:0:
320,192,94495,1,0,0:0:0:0:
64,192,94665,1,0,0:0:0:0:
448,192,94836,128,0,95006:0:0:0:0:
320,192,94836,128,0,95006:0:0:0:0:
64,192,95177,128,0,95347:0:0:0:0:
192,192,95518,128,0,95688:0:0:0:0:
448,192,95518,128,0,95688:0:0:0:0:
320,192,95859,128,0,96029:0:0:0:0:
64,192,96199,128,0,96881:0:0:0:0:
448,192,96199,128,0,96370:0:0:0:0:
320,192,96370,1,0,0:0:0:0:
192,192,96540,1,0,0:0:0:0:
448,192,96711,1,0,0:0:0:0:
320,192,96881,128,0,97052:0:0:0:0:
192,192,96881,128,0,97052:0:0:0:0:
64,192,97052,1,0,0:0:0:0:
448,192,97222,128,0,97393:0:0:0:0:
320,192,97393,1,0,0:0:0:0:
64,192,97563,128,0,97734:0:0:0:0:
192,192,97563,128,0,97734:0:0:0:0:
448,192,97904,128,0,98074:0:0:0:0:
64,192,98245,128,0,98415:0:0:0:0:
320,192,98245,128,0,98415:0:0:0:0:
192,192,98586,128,0,98756:0:0:0:0:
64,192,98927,128,0,99097:0:0:0:0:
448,192,98927,128,0,99609:0:0:0:0:
192,192,99097,1,0,0:0:0:0:
320,192,99268,1,0,0:0:0:0:
64,192,99438,1,0,0:0:0:0:
192,192,99609,128,0,99779:0:0:0:0:
320,192,99609,128,0,99779:0:0:0:0:
64,192,99779,1,0,0:0:0:0:
192,192,99949,1,0,0:0:0:0:
448,192,100120,1,0,0:0:0:0:
64,192,100290,128,0,100461:0:0:0:0:
192,192,100290,128,0,100461:0:0:0:0:
320,192,100290,1,0,0:0:0:0:
448,192,100461,1,0,0:0:0:0:
320,192,100631,128,0,100802:0:0:0:0:
64,192,100802,1,0,0:0:0:0:
192,192,100972,128,0,101143:0:0:0:0:
448,192,100972,128,0,101143:0:0:0:0:
64,192,101143,1,0,0:0:0:0:
320,192,101313,128,0,101484:0:0:0:0:
448,192,101313,1,0,0:0:0:0:
192,192,101484,1,0,0:0:0:0:
64,192,101654,128,0,102336:0:0:0:0:
448,192,101654,128,0,101824:0:0:0:0:
320,192,101824,1,0,0:0:0:0:
192,192,101995,1,0,0:0:0:0:
448,192,102165,1,0,0:0:0:0:
192,192,102336,1,0,0:0:0:0:
320,192,102506,1,0,0:0:0:0:
64,192,102677,128,0,102847:0:0:0:0:
448,192,102677,128,0,102762:0:0:0:0:
192,192,102847,1,0,0:0:0:0:
320,192,103018,128,0,103188:0:0:0:0:
448,192,103018,128,0,103188:0:0:0:0:
64,192,103018,128,0,103103:0:0:0:0:
192,192,103188,1,0,0:0:0:0:
64,192,103359,128,0,103529:0:0:0:0:
448,192,103529,1,0,0:0:0:0:
320,192,103699,128,0,103870:0:0:0:0:
192,192,103699,128,0,103870:0:0:0:0:
64,192,103870,1,0,0:0:0:0:
448,192,104040,128,0,104211:0:0:0:0:
192,192,104040,1,0,0:0:0:0:
320,192,104211,1,0,0:0:0:0:
64,192,104381,128,0,104552:0:0:0:0:
448,192,104381,128,0,105063:0:0:0:0:
192,192,104552,1,0,0:0:0:0:
320,192,104722,128,0,104807:0:0:0:0:
64,192,104722,1,0,0:0:0:0:
192,192,104893,1,0,0:0:0:0:
64,192,105063,128,0,105148:0:0:0:0:
320,192,105063,128,0,105148:0:0:0:0:
448,192,105234,1,0,0:0:0:0:
192,192,105404,128,0,105489:0:0:0:0:
64,192,105574,1,0,0:0:0:0:
320,192,105745,128,0,105915:0:0:0:0:
448,192,105745,128,0,105915:0:0:0:0:
192,192,105915,1,0,0:0:0:0:
64,192,106086,128,0,106256:0:0:0:0:
448,192,106256,1,0,0:0:0:0:
320,192,106427,128,0,106597:0:0:0:0:
192,192,106427,128,0,106597:0:0:0:0:
64,192,106597,1,0,0:0:0:0:
448,192,106768,128,0,106938:0:0:0:0:
192,192,106768,1,0,0:0:0:0:
320,192,106938,1,0,0:0:0:0:
64,192,107109,128,0,107279:0:0:0:0:
192,192,107109,128,0,107279:0:0:0:0:
448,192,107279,1,0,0:0:0:0:
320,192,107449,128,0,107620:0:0:0:0:
64,192,107620,1,0,0:0:0:0:
192,192,107790,128,0,107961:0:0:0:0:
448,192,107961,1,0,0:0:0:0:
64,192,108131,128,0,108302:0:0:0:0:
192,192,108302,1,0,0:0:0:0:
320,192,108472,128,0,108643:0:0:0:0:
448,192,108472,128,0,108643:0:0:0:0:
64,192,108643,1,0,0:0:0:0:
192,192,108813,128,0,108984:0:0:0:0:
320,192,108984,1,0,0:0:0:0:
64,192,109154,128,0,109324:0:0:0:0:
192,192,109154,128,0,109324:0:0:0:0:
448,192,109324,1,0,0:0:0:0:
320,192,109495,128,0,109665:0:0:0:0:
192,192,109495,1,0,0:0:0:0:
64,192,109665,1,0,0:0:0:0:
448,192,109836,128,0,110177:0:0:0:0:
192,192,109836,128,0,110006:0:0:0:0:
64,192,110006,1,0,0:0:0:0:
320,192,110177,1,0,0:0:0:0:
192,192,110177,1,0,0:0:0:0:
64,192,110347,1,0,0:0:0:0:
448,192,110518,1,0,0:0:0:0:
320,192,110574,1,0,0:0:0:0:
192,192,110631,1,0,0:0:0:0:
64,192,110688,1,0,0:0:0:0:
448,192,110688,1,0,0:0:0:0:
448,192,110859,128,0,111114:0:0:0:0:
320,192,110859,128,0,111057:0:0:0:0:
192,192,110859,128,0,110944:0:0:0:0:
64,192,110859,128,0,111001:0:0:0:0:
64,192,111199,128,0,111540:0:0:0:0:
192,192,111199,128,0,111370:0:0:0:0:
320,192,111199,128,0,111285:0:0:0:0:
448,192,111285,128,0,111540:0:0:0:0:
320,192,111455,128,0,111540:0:0:0:0:
192,192,111540,128,0,111796:0:0:0:0:
448,192,111711,128,0,111881:0:0:0:0:
320,192,111881,128,0,112137:0:0:0:0:
64,192,111881,128,0,112052:0:0:0:0:
192,192,112137,128,0,112222:0:0:0:0:
448,192,112222,128,0,112563:0:0:0:0:
320,192,112393,128,0,112478:0:0:0:0:
192,192,112435,128,0,112563:0:0:0:0:
320,192,112563,128,0,112734:0:0:0:0:
64,192,112563,128,0,112648:0:0:0:0:
448,192,112734,128,0,113074:0:0:0:0:
64,192,112819,128,0,112904:0:0:0:0:
192,192,112904,128,0,113245:0:0:0:0:
64,192,113074,128,0,113160:0:0:0:0:
320,192,113131,128,0,113188:0:0:0:0:
448,192,113188,128,0,113245:0:0:0:0:
64,192,113245,128,0,113359:0:0:0:0:
192,192,113302,128,0,113415:0:0:0:0:
448,192,113359,128,0,113586:0:0:0:0:
64,192,113501,128,0,113586:0:0:0:0:
320,192,113586,128,0,113841:0:0:0:0:
192,192,113756,128,0,113927:0:0:0:0:
64,192,113927,128,0,114097:0:0:0:0:
448,192,113927,128,0,114182:0:0:0:0:
320,192,114012,128,0,114268:0:0:0:0:
192,192,114182,128,0,114268:0:0:0:0:
64,192,114268,128,0,114523:0:0:0:0:
448,192,114438,128,0,114609:0:0:0:0:
192,192,114609,128,0,114949:0:0:0:0:
320,192,114609,128,0,114779:0:0:0:0:
448,192,114864,128,0,114949:0:0:0:0:
64,192,114949,128,0,115290:0:0:0:0:
320,192,115120,128,0,115461:0:0:0:0:
192,192,115290,128,0,115461:0:0:0:0:
448,192,115290,128,0,115376:0:0:0:0:
64,192,115461,128,0,115802:0:0:0:0:
448,192,115546,128,0,115631:0:0:0:0:
320,192,115631,128,0,115972:0:0:0:0:
192,192,115802,128,0,115915:0:0:0:0:
448,192,115859,128,0,115972:0:0:0:0:
192,192,115972,128,0,116086:0:0:0:0:
320,192,116029,128,0,116143:0:0:0:0:
448,192,116086,128,0,116313:0:0:0:0:
64,192,116228,128,0,116313:0:0:0:0:
320,192,116313,128,0,116569:0:0:0:0:
64,192,116484,128,0,116654:0:0:0:0:
192,192,116654,128,0,116824:0:0:0:0:
448,192,116654,128,0,116910:0:0:0:0:
320,192,116739,128,0,116995:0:0:0:0:
64,192,116910,128,0,116995:0:0:0:0:
192,192,116995,128,0,117251:0:0:0:0:
320,192,117165,128,0,117336:0:0:0:0:
448,192,117336,128,0,117506:0:0:0:0:
192,192,117336,128,0,117591:0:0:0:0:
64,192,117421,128,0,117677:0:0:0:0:
320,192,117591,128,0,117677:0:0:0:0:
448,192,117677,128,0,117932:0:0:0:0:
320,192,117847,128,0,117932:0:0:0:0:
192,192,117890,128,0,118018:0:0:0:0:
320,192,118018,128,0,118188:0:0:0:0:
64,192,118018,128,0,118103:0:0:0:0:
448,192,118188,128,0,118529:0:0:0:0:
64,192,118273,128,0,118359:0:0:0:0:
192,192,118359,128,0,118699:0:0:0:0:
64,192,118529,128,0,118614:0:0:0:0:
320,192,118586,128,0,118643:0:0:0:0:
448,192,118643,128,0,118699:0:0:0:0:
64,192,118699,128,0,119040:0:0:0:0:
192,192,118955,128,0,119040:0:0:0:0:
448,192,119040,128,0,119296:0:0:0:0:
320,192,119211,128,0,119381:0:0:0:0:
64,192,119381,128,0,119552:0:0:0:0:
192,192,119381,128,0,119637:0:0:0:0:
448,192,119466,128,0,119722:0:0:0:0:
320,192,119637,128,0,119722:0:0:0:0:
64,192,119722,128,0,119978:0:0:0:0:
448,192,119893,128,0,120063:0:0:0:0:
192,192,120063,128,0,120319:0:0:0:0:
320,192,120063,128,0,120234:0:0:0:0:
64,192,120148,128,0,120404:0:0:0:0:
448,192,120319,128,0,120404:0:0:0:0:
320,192,120404,128,0,120660:0:0:0:0:
192,192,120574,128,0,120660:0:0:0:0:
64,192,120617,128,0,120745:0:0:0:0:
192,192,120745,128,0,120915:0:0:0:0:
448,192,120745,128,0,120830:0:0:0:0:
320,192,120915,128,0,121001:0:0:0:0:
64,192,121001,128,0,121086:0:0:0:0:
320,192,121086,128,0,121256:0:0:0:0:
448,192,121256,128,0,121427:0:0:0:0:
64,192,121427,128,0,121682:0:0:0:0:
192,192,121469,128,0,121725:0:0:0:0:
320,192,121512,128,0,121768:0:0:0:0:
448,192,121682,128,0,121768:0:0:0:0:
64,192,121768,128,0,121938:0:0:0:0:
320,192,121938,128,0,122109:0:0:0:0:
448,192,122109,128,0,122279:0:0:0:0:
64,192,122109,128,0,122279:0:0:0:0:
192,192,122109,1,0,0:0:0:0:
320,192,122279,1,0,0:0:0:0:
192,192,122364,128,0,122449:0:0:0:0:
448,192,122449,1,0,0:0:0:0:
64,192,122449,1,0,0:0:0:0:
192,192,122620,128,0,122705:0:0:0:0:
320,192,122705,1,0,0:0:0:0:
448,192,122790,128,0,122876:0:0:0:0:
64,192,122790,128,0,122876:0:0:0:0:
192,192,122961,1,0,0:0:0:0:
320,192,123046,128,0,123131:0:0:0:0:
448,192,123131,128,0,123302:0:0:0:0:
64,192,123131,128,0,123302:0:0:0:0:
192,192,123216,1,0,0:0:0:0:
320,192,123302,128,0,123472:0:0:0:0:
448,192,123387,1,0,0:0:0:0:
192,192,123472,128,0,123643:0:0:0:0:
64,192,123472,128,0,123643:0:0:0:0:
320,192,123643,1,0,0:0:0:0:
448,192,123728,128,0,123813:0:0:0:0:
64,192,123813,1,0,0:0:0:0:
192,192,123813,1,0,0:0:0:0:
448,192,123984,128,0,124069:0:0:0:0:
64,192,124069,1,0,0:0:0:0:
320,192,124154,128,0,124324:0:0:0:0:
192,192,124154,128,0,124324:0:0:0:0:
448,192,124324,1,0,0:0:0:0:
64,192,124410,128,0,124495:0:0:0:0:
192,192,124495,128,0,124665:0:0:0:0:
320,192,124495,128,0,124665:0:0:0:0:
448,192,124580,1,0,0:0:0:0:
64,192,124665,128,0,124751:0:0:0:0:
448,192,124751,1,0,0:0:0:0:
64,192,124836,128,0,125006:0:0:0:0:
192,192,124836,128,0,125006:0:0:0:0:
320,192,125006,1,0,0:0:0:0:
192,192,125091,128,0,125177:0:0:0:0:
448,192,125177,128,0,125347:0:0:0:0:
64,192,125177,128,0,125347:0:0:0:0:
192,192,125347,128,0,125432:0:0:0:0:
320,192,125432,1,0,0:0:0:0:
448,192,125518,128,0,125688:0:0:0:0:
192,192,125518,128,0,125688:0:0:0:0:
320,192,125688,1,0,0:0:0:0:
64,192,125773,128,0,125859:0:0:0:0:
192,192,125859,128,0,126029:0:0:0:0:
320,192,125859,128,0,126029:0:0:0:0:
448,192,125944,1,0,0:0:0:0:
64,192,126029,128,0,126114:0:0:0:0:
448,192,126114,1,0,0:0:0:0:
192,192,126199,128,0,126370:0:0:0:0:
64,192,126199,128,0,126370:0:0:0:0:
448,192,126370,1,0,0:0:0:0:
320,192,126455,128,0,126540:0:0:0:0:
192,192,126540,1,0,0:0:0:0:
64,192,126540,1,0,0:0:0:0:
320,192,126711,128,0,126796:0:0:0:0:
192,192,126796,1,0,0:0:0:0:
64,192,126881,128,0,127052:0:0:0:0:
448,192,126881,128,0,127052:0:0:0:0:
192,192,127052,1,0,0:0:0:0:
448,192,127137,128,0,127222:0:0:0:0:
192,192,127222,128,0,127393:0:0:0:0:
320,192,127222,128,0,127393:0:0:0:0:
64,192,127307,1,0,0:0:0:0:
448,192,127393,128,0,127478:0:0:0:0:
64,192,127478,1,0,0:0:0:0:
448,192,127563,128,0,127734:0:0:0:0:
320,192,127563,128,0,127734:0:0:0:0:
192,192,127734,128,0,127819:0:0:0:0:
448,192,127819,128,0,127904:0:0:0:0:
192,192,127904,128,0,128074:0:0:0:0:
64,192,127904,128,0,128074:0:0:0:0:
448,192,128074,128,0,128160:0:0:0:0:
448,192,128245,128,0,128415:0:0:0:0:
64,192,128245,128,0,128415:0:0:0:0:
320,192,128415,128,0,128501:0:0:0:0:
64,192,128501,128,0,128586:0:0:0:0:
320,192,128586,128,0,128756:0:0:0:0:
192,192,128586,128,0,128756:0:0:0:0:
64,192,128756,128,0,128841:0:0:0:0:
64,192,128927,128,0,129097:0:0:0:0:
320,192,128927,128,0,129097:0:0:0:0:
192,192,129097,128,0,129182:0:0:0:0:
320,192,129182,128,0,129268:0:0:0:0:
192,192,129268,128,0,129438:0:0:0:0:
448,192,129268,128,0,129438:0:0:0:0:
320,192,129438,128,0,129523:0:0:0:0:
192,192,129609,128,0,129779:0:0:0:0:
64,192,129609,128,0,129779:0:0:0:0:
320,192,129779,128,0,129864:0:0:0:0:
192,192,129864,128,0,129949:0:0:0:0:
320,192,129949,128,0,130120:0:0:0:0:
448,192,129949,128,0,130120:0:0:0:0:
192,192,130120,128,0,130205:0:0:0:0:
320,192,130290,128,0,130376:0:0:0:0:
448,192,130290,128,0,130376:0:0:0:0:
192,192,130376,1,0,0:0:0:0:
64,192,130461,1,0,0:0:0:0:
320,192,130461,1,0,0:0:0:0:
192,192,130546,1,0,0:0:0:0:
320,192,130631,128,0,130716:0:0:0:0:
448,192,130631,128,0,130716:0:0:0:0:
64,192,130716,1,0,0:0:0:0:
192,192,130802,1,0,0:0:0:0:
320,192,130802,1,0,0:0:0:0:
448,192,130887,1,0,0:0:0:0:
64,192,130972,128,0,131057:0:0:0:0:
192,192,130972,128,0,131057:0:0:0:0:
320,192,131057,1,0,0:0:0:0:
448,192,131143,1,0,0:0:0:0:
192,192,131143,1,0,0:0:0:0:
320,192,131228,1,0,0:0:0:0:
192,192,131313,128,0,131398:0:0:0:0:
64,192,131313,128,0,131398:0:0:0:0:
448,192,131398,1,0,0:0:0:0:
320,192,131484,1,0,0:0:0:0:
192,192,131484,1,0,0:0:0:0:
64,192,131569,1,0,0:0:0:0:
448,192,131654,128,0,131824:0:0:0:0:
320,192,131654,1,0,0:0:0:0:
64,192,131824,128,0,131995:0:0:0:0:
192,192,131995,128,0,132165:0:0:0:0:
320,192,132037,128,0,132208:0:0:0:0:
448,192,132080,128,0,132251:0:0:0:0:
64,192,132165,128,0,132336:0:0:0:0:
448,192,132336,128,0,132506:0:0:0:0:
320,192,132393,1,0,0:0:0:0:
192,192,132449,1,0,0:0:0:0:
64,192,132506,1,0,0:0:0:0:
320,192,132506,1,0,0:0:0:0:
448,192,132677,128,0,132762:0:0:0:0:
192,192,132677,128,0,132932:0:0:0:0:
320,192,132677,128,0,132876:0:0:0:0:
64,192,132677,128,0,132819:0:0:0:0:
64,192,133018,128,0,133103:0:0:0:0:
320,192,133018,128,0,133188:0:0:0:0:
448,192,133018,128,0,133359:0:0:0:0:
64,192,133188,1,0,0:0:0:0:
192,192,133359,128,0,133614:0:0:0:0:
320,192,133529,128,0,133614:0:0:0:0:
448,192,133699,128,0,133785:0:0:0:0:
192,192,133699,128,0,133955:0:0:0:0:
320,192,133699,128,0,134040:0:0:0:0:
64,192,133699,128,0,133870:0:0:0:0:
448,192,133870,1,0,0:0:0:0:
448,192,134040,128,0,134126:0:0:0:0:
64,192,134040,128,0,134381:0:0:0:0:
448,192,134211,128,0,134552:0:0:0:0:
320,192,134211,128,0,134296:0:0:0:0:
192,192,134211,128,0,134381:0:0:0:0:
320,192,134381,128,0,134552:0:0:0:0:
64,192,134552,128,0,134893:0:0:0:0:
448,192,134722,128,0,134807:0:0:0:0:
320,192,134722,128,0,134850:0:0:0:0:
192,192,134722,128,0,134893:0:0:0:0:
448,192,134893,128,0,135006:0:0:0:0:
320,192,134949,128,0,135006:0:0:0:0:
192,192,135006,128,0,135063:0:0:0:0:
320,192,135063,128,0,135290:0:0:0:0:
64,192,135063,128,0,135177:0:0:0:0:
448,192,135063,128,0,135120:0:0:0:0:
192,192,135120,128,0,135234:0:0:0:0:
448,192,135177,128,0,135404:0:0:0:0:
64,192,135234,1,0,0:0:0:0:
192,192,135404,128,0,135660:0:0:0:0:
320,192,135574,128,0,135660:0:0:0:0:
448,192,135660,1,0,0:0:0:0:
64,192,135745,128,0,136001:0:0:0:0:
192,192,135745,128,0,135915:0:0:0:0:
320,192,135745,128,0,135830:0:0:0:0:
320,192,135915,1,0,0:0:0:0:
192,192,136086,128,0,136341:0:0:0:0:
320,192,136256,128,0,136341:0:0:0:0:
64,192,136427,128,0,136512:0:0:0:0:
320,192,136427,128,0,136682:0:0:0:0:
192,192,136427,128,0,136768:0:0:0:0:
448,192,136427,128,0,136597:0:0:0:0:
64,192,136597,1,0,0:0:0:0:
64,192,136768,128,0,136853:0:0:0:0:
448,192,136768,128,0,137109:0:0:0:0:
64,192,136938,128,0,137279:0:0:0:0:
320,192,136938,128,0,137109:0:0:0:0:
192,192,136938,128,0,137023:0:0:0:0:
192,192,137109,128,0,137279:0:0:0:0:
448,192,137279,128,0,137620:0:0:0:0:
64,192,137449,128,0,137577:0:0:0:0:
192,192,137449,128,0,137535:0:0:0:0:
320,192,137449,128,0,137620:0:0:0:0:
192,192,137620,128,0,137734:0:0:0:0:
64,192,137677,128,0,137790:0:0:0:0:
192,192,137790,128,0,138018:0:0:0:0:
320,192,137790,128,0,137904:0:0:0:0:
448,192,137790,128,0,137847:0:0:0:0:
64,192,137847,128,0,137961:0:0:0:0:
448,192,137904,128,0,138131:0:0:0:0:
320,192,137961,1,0,0:0:0:0:
192,192,138131,128,0,138216:0:0:0:0:
320,192,138131,128,0,138302:0:0:0:0:
64,192,138131,128,0,138387:0:0:0:0:
448,192,138302,128,0,138387:0:0:0:0:
192,192,138387,1,0,0:0:0:0:
64,192,138472,128,0,138557:0:0:0:0:
320,192,138472,128,0,138813:0:0:0:0:
448,192,138472,128,0,138643:0:0:0:0:
64,192,138643,1,0,0:0:0:0:
192,192,138813,128,0,139069:0:0:0:0:
320,192,138984,128,0,139069:0:0:0:0:
320,192,139154,128,0,139495:0:0:0:0:
448,192,139154,128,0,139239:0:0:0:0:
192,192,139154,128,0,139410:0:0:0:0:
64,192,139154,128,0,139324:0:0:0:0:
448,192,139324,1,0,0:0:0:0:
448,192,139495,128,0,139580:0:0:0:0:
64,192,139495,128,0,139836:0:0:0:0:
448,192,139665,128,0,140006:0:0:0:0:
320,192,139665,128,0,139751:0:0:0:0:
192,192,139665,128,0,139836:0:0:0:0:
320,192,139836,128,0,140006:0:0:0:0:
64,192,140006,128,0,140347:0:0:0:0:
448,192,140177,128,0,140305:0:0:0:0:
320,192,140177,128,0,140262:0:0:0:0:
192,192,140177,128,0,140347:0:0:0:0:
320,192,140347,128,0,140432:0:0:0:0:
448,192,140404,128,0,140461:0:0:0:0:
192,192,140461,128,0,140518:0:0:0:0:
320,192,140518,128,0,140745:0:0:0:0:
448,192,140518,128,0,140631:0:0:0:0:
64,192,140518,128,0,140859:0:0:0:0:
192,192,140688,1,0,0:0:0:0:
448,192,140859,128,0,141114:0:0:0:0:
192,192,141029,128,0,141114:0:0:0:0:
320,192,141114,1,0,0:0:0:0:
64,192,141199,128,0,141540:0:0:0:0:
192,192,141199,128,0,141370:0:0:0:0:
448,192,141199,128,0,141285:0:0:0:0:
448,192,141370,1,0,0:0:0:0:
320,192,141540,128,0,141796:0:0:0:0:
192,192,141711,128,0,141796:0:0:0:0:
64,192,141881,128,0,141966:0:0:0:0:
192,192,141881,128,0,142222:0:0:0:0:
320,192,141881,128,0,142137:0:0:0:0:
448,192,141881,128,0,142052:0:0:0:0:
64,192,142052,1,0,0:0:0:0:
448,192,142222,128,0,142563:0:0:0:0:
64,192,142222,128,0,142307:0:0:0:0:
64,192,142393,128,0,142734:0:0:0:0:
192,192,142393,128,0,142478:0:0:0:0:
320,192,142393,128,0,142563:0:0:0:0:
192,192,142563,128,0,142734:0:0:0:0:
448,192,142734,128,0,142989:0:0:0:0:
64,192,142904,128,0,143160:0:0:0:0:
192,192,142904,128,0,143074:0:0:0:0:
320,192,142904,128,0,142989:0:0:0:0:
320,192,143074,128,0,143202:0:0:0:0:
448,192,143245,128,0,143415:0:0:0:0:
192,192,143245,1,0,0:0:0:0:
64,192,143245,128,0,143330:0:0:0:0:
320,192,143287,128,0,143458:0:0:0:0:
192,192,143330,128,0,143501:0:0:0:0:
64,192,143415,1,0,0:0:0:0:
64,192,143586,128,0,143728:0:0:0:0:
192,192,143586,128,0,143841:0:0:0:0:
320,192,143586,128,0,143785:0:0:0:0:
448,192,143586,128,0,143671:0:0:0:0:
448,192,143756,1,0,0:0:0:0:
64,192,143841,1,0,0:0:0:0:
448,192,143927,128,0,144268:0:0:0:0:
192,192,143927,128,0,144012:0:0:0:0:
320,192,143927,128,0,144097:0:0:0:0:
192,192,144097,1,0,0:0:0:0:
64,192,144268,128,0,144523:0:0:0:0:
320,192,144438,128,0,144523:0:0:0:0:
192,192,144609,128,0,144864:0:0:0:0:
64,192,144609,128,0,144779:0:0:0:0:
320,192,144609,128,0,144949:0:0:0:0:
448,192,144609,128,0,144694:0:0:0:0:
448,192,144779,1,0,0:0:0:0:
64,192,144864,1,0,0:0:0:0:
192,192,144949,128,0,145290:0:0:0:0:
448,192,144949,128,0,145035:0:0:0:0:
448,192,145120,128,0,145461:0:0:0:0:
320,192,145120,128,0,145205:0:0:0:0:
64,192,145120,128,0,145290:0:0:0:0:
320,192,145290,128,0,145461:0:0:0:0:
64,192,145461,128,0,145802:0:0:0:0:
192,192,145631,128,0,145802:0:0:0:0:
448,192,145631,128,0,145716:0:0:0:0:
320,192,145631,128,0,145759:0:0:0:0:
448,192,145802,128,0,145887:0:0:0:0:
320,192,145859,128,0,145915:0:0:0:0:
64,192,145915,128,0,145972:0:0:0:0:
448,192,145972,128,0,146029:0:0:0:0:
320,192,145972,128,0,146199:0:0:0:0:
192,192,145972,128,0,146086:0:0:0:0:
64,192,146029,128,0,146143:0:0:0:0:
448,192,146086,128,0,146313:0:0:0:0:
192,192,146143,1,0,0:0:0:0:
64,192,146228,1,0,0:0:0:0:
192,192,146313,128,0,146569:0:0:0:0:
320,192,146398,1,0,0:0:0:0:
64,192,146484,128,0,146569:0:0:0:0:
448,192,146569,1,0,0:0:0:0:
64,192,146654,128,0,146995:0:0:0:0:
192,192,146654,128,0,146824:0:0:0:0:
320,192,146654,128,0,146739:0:0:0:0:
448,192,146739,1,0,0:0:0:0:
320,192,146824,1,0,0:0:0:0:
192,192,146910,1,0,0:0:0:0:
448,192,146995,128,0,147251:0:0:0:0:
64,192,147080,1,0,0:0:0:0:
192,192,147165,128,0,147251:0:0:0:0:
320,192,147251,128,0,147591:0:0:0:0:
192,192,147336,128,0,147677:0:0:0:0:
64,192,147336,128,0,147421:0:0:0:0:
448,192,147336,128,0,147506:0:0:0:0:
64,192,147506,1,0,0:0:0:0:
448,192,147591,1,0,0:0:0:0:
320,192,147677,128,0,148018:0:0:0:0:
64,192,147677,128,0,147762:0:0:0:0:
64,192,147847,128,0,148188:0:0:0:0:
448,192,147847,128,0,148018:0:0:0:0:
192,192,147847,128,0,147932:0:0:0:0:
192,192,148018,128,0,148188:0:0:0:0:
320,192,148103,1,0,0:0:0:0:
448,192,148188,128,0,148273:0:0:0:0:
320,192,148273,128,0,148529:0:0:0:0:
448,192,148359,128,0,148529:0:0:0:0:
64,192,148359,128,0,148444:0:0:0:0:
192,192,148359,128,0,148486:0:0:0:0:
64,192,148529,128,0,148643:0:0:0:0:
192,192,148586,128,0,148699:0:0:0:0:
64,192,148699,128,0,148927:0:0:0:0:
320,192,148699,128,0,148813:0:0:0:0:
448,192,148699,128,0,148756:0:0:0:0:
192,192,148756,128,0,148870:0:0:0:0:
448,192,148813,128,0,148898:0:0:0:0:
320,192,148870,1,0,0:0:0:0:
448,192,148955,128,0,149040:0:0:0:0:
192,192,149040,128,0,149296:0:0:0:0:
64,192,149040,128,0,149211:0:0:0:0:
320,192,149040,128,0,149126:0:0:0:0:
448,192,149126,1,0,0:0:0:0:
320,192,149211,128,0,149296:0:0:0:0:
64,192,149296,1,0,0:0:0:0:
448,192,149381,128,0,149722:0:0:0:0:
192,192,149381,128,0,149466:0:0:0:0:
320,192,149381,128,0,149552:0:0:0:0:
64,192,149466,1,0,0:0:0:0:
192,192,149552,1,0,0:0:0:0:
320,192,149637,1,0,0:0:0:0:
192,192,149722,128,0,149978:0:0:0:0:
448,192,149807,1,0,0:0:0:0:
320,192,149893,128,0,149978:0:0:0:0:
64,192,149978,128,0,150319:0:0:0:0:
320,192,150063,128,0,150404:0:0:0:0:
192,192,150063,128,0,150234:0:0:0:0:
448,192,150063,128,0,150148:0:0:0:0:
448,192,150234,1,0,0:0:0:0:
192,192,150319,1,0,0:0:0:0:
64,192,150404,128,0,150745:0:0:0:0:
448,192,150404,128,0,150489:0:0:0:0:
448,192,150574,128,0,150915:0:0:0:0:
320,192,150574,128,0,150660:0:0:0:0:
192,192,150574,128,0,150745:0:0:0:0:
320,192,150745,128,0,150915:0:0:0:0:
64,192,150830,1,0,0:0:0:0:
192,192,150915,128,0,151001:0:0:0:0:
64,192,151001,128,0,151256:0:0:0:0:
192,192,151086,128,0,151256:0:0:0:0:
320,192,151086,128,0,151214:0:0:0:0:
448,192,151086,128,0,151171:0:0:0:0:
448,192,151256,128,0,151341:0:0:0:0:
320,192,151313,128,0,151370:0:0:0:0:
192,192,151370,128,0,151427:0:0:0:0:
64,192,151427,128,0,151768:0:0:0:0:
320,192,151427,128,0,151682:0:0:0:0:
448,192,151427,128,0,151597:0:0:0:0:
192,192,151597,1,0,0:0:0:0:
448,192,151682,1,0,0:0:0:0:
320,192,151768,128,0,152023:0:0:0:0:
192,192,151853,1,0,0:0:0:0:
64,192,151938,128,0,152023:0:0:0:0:
448,192,152023,1,0,0:0:0:0:
192,192,152109,128,0,152279:0:0:0:0:
64,192,152109,128,0,152449:0:0:0:0:
320,192,152109,128,0,152194:0:0:0:0:
448,192,152194,1,0,0:0:0:0:
320,192,152279,1,0,0:0:0:0:
192,192,152364,1,0,0:0:0:0:
448,192,152449,128,0,152705:0:0:0:0:
64,192,152535,1,0,0:0:0:0:
192,192,152620,128,0,152705:0:0:0:0:
320,192,152705,128,0,153046:0:0:0:0:
64,192,152790,128,0,152876:0:0:0:0:
192,192,152790,128,0,153131:0:0:0:0:
448,192,152790,128,0,152961:0:0:0:0:
64,192,152961,1,0,0:0:0:0:
448,192,153046,1,0,0:0:0:0:
320,192,153131,128,0,153472:0:0:0:0:
64,192,153131,128,0,153216:0:0:0:0:
64,192,153302,128,0,153643:0:0:0:0:
192,192,153302,128,0,153387:0:0:0:0:
448,192,153302,128,0,153472:0:0:0:0:
192,192,153472,128,0,153643:0:0:0:0:
320,192,153557,1,0,0:0:0:0:
448,192,153643,128,0,153728:0:0:0:0:
320,192,153728,128,0,153984:0:0:0:0:
448,192,153813,128,0,154069:0:0:0:0:
192,192,153813,128,0,153984:0:0:0:0:
64,192,153813,128,0,153898:0:0:0:0:
64,192,153984,128,0,154097:0:0:0:0:
192,192,154069,1,0,0:0:0:0:
320,192,154154,1,0,0:0:0:0:
64,192,154154,128,0,154324:0:0:0:0:
448,192,154154,128,0,154239:0:0:0:0:
192,192,154197,128,0,154367:0:0:0:0:
320,192,154239,128,0,154410:0:0:0:0:
448,192,154324,1,0,0:0:0:0:
64,192,154495,128,0,154751:0:0:0:0:
320,192,154495,128,0,154637:0:0:0:0:
192,192,154495,128,0,154580:0:0:0:0:
448,192,154495,128,0,154694:0:0:0:0:
192,192,154665,128,0,154751:0:0:0:0:
320,192,154751,1,0,0:0:0:0:
448,192,154836,128,0,154921:0:0:0:0:
64,192,154836,128,0,155177:0:0:0:0:
192,192,154836,128,0,155006:0:0:0:0:
320,192,154921,1,0,0:0:0:0:
448,192,155006,1,0,0:0:0:0:
192,192,155091,1,0,0:0:0:0:
320,192,155177,128,0,155432:0:0:0:0:
64,192,155262,1,0,0:0:0:0:
192,192,155347,128,0,155432:0:0:0:0:
448,192,155432,1,0,0:0:0:0:
64,192,155518,128,0,155859:0:0:0:0:
320,192,155518,128,0,155603:0:0:0:0:
192,192,155518,128,0,155688:0:0:0:0:
448,192,155603,1,0,0:0:0:0:
320,192,155688,1,0,0:0:0:0:
192,192,155773,1,0,0:0:0:0:
448,192,155859,128,0,156029:0:0:0:0:
64,192,155944,1,0,0:0:0:0:
192,192,156029,128,0,156114:0:0:0:0:
320,192,156029,128,0,156285:0:0:0:0:
448,192,156114,1,0,0:0:0:0:
192,192,156199,128,0,156370:0:0:0:0:
64,192,156285,1,0,0:0:0:0:
320,192,156370,128,0,156540:0:0:0:0:
192,192,156455,1,0,0:0:0:0:
64,192,156540,128,0,156711:0:0:0:0:
448,192,156540,128,0,156626:0:0:0:0:
192,192,156626,1,0,0:0:0:0:
448,192,156711,1,0,0:0:0:0:
64,192,156768,1,0,0:0:0:0:
320,192,156824,1,0,0:0:0:0:
64,192,156881,128,0,157222:0:0:0:0:
448,192,156881,128,0,156966:0:0:0:0:
192,192,156881,1,0,0:0:0:0:
320,192,156938,1,0,0:0:0:0:
192,192,156995,1,0,0:0:0:0:
448,192,157052,1,0,0:0:0:0:
320,192,157137,1,0,0:0:0:0:
448,192,157222,128,0,157478:0:0:0:0:
64,192,157307,1,0,0:0:0:0:
192,192,157393,128,0,157563:0:0:0:0:
64,192,157478,1,0,0:0:0:0:
320,192,157563,128,0,157734:0:0:0:0:
448,192,157563,128,0,157904:0:0:0:0:
192,192,157648,1,0,0:0:0:0:
64,192,157734,1,0,0:0:0:0:
320,192,157819,1,0,0:0:0:0:
192,192,157904,128,0,158160:0:0:0:0:
448,192,157989,1,0,0:0:0:0:
320,192,158074,128,0,158160:0:0:0:0:
64,192,158160,1,0,0:0:0:0:
320,192,158245,128,0,158415:0:0:0:0:
448,192,158245,128,0,158586:0:0:0:0:
192,192,158245,128,0,158330:0:0:0:0:
64,192,158330,1,0,0:0:0:0:
192,192,158415,1,0,0:0:0:0:
320,192,158501,1,0,0:0:0:0:
64,192,158586,128,0,158756:0:0:0:0:
448,192,158671,1,0,0:0:0:0:
320,192,158756,128,0,158841:0:0:0:0:
192,192,158756,128,0,159012:0:0:0:0:
64,192,158841,1,0,0:0:0:0:
320,192,158927,128,0,159097:0:0:0:0:
448,192,159012,1,0,0:0:0:0:
192,192,159097,128,0,159268:0:0:0:0:
320,192,159182,1,0,0:0:0:0:
448,192,159268,128,0,159438:0:0:0:0:
64,192,159268,128,0,159353:0:0:0:0:
192,192,159353,1,0,0:0:0:0:
64,192,159438,1,0,0:0:0:0:
448,192,159523,1,0,0:0:0:0:
64,192,159609,128,0,159779:0:0:0:0:
192,192,159609,128,0,159694:0:0:0:0:
320,192,159609,1,0,0:0:0:0:
448,192,159665,1,0,0:0:0:0:
320,192,159722,1,0,0:0:0:0:
192,192,159779,1,0,0:0:0:0:
64,192,159864,1,0,0:0:0:0:
448,192,159949,128,0,160205:0:0:0:0:
320,192,159949,128,0,160120:0:0:0:0:
192,192,160035,1,0,0:0:0:0:
64,192,160120,128,0,160290:0:0:0:0:
320,192,160205,1,0,0:0:0:0:
448,192,160290,128,0,160461:0:0:0:0:
192,192,160290,128,0,160631:0:0:0:0:
64,192,160376,1,0,0:0:0:0:
320,192,160461,1,0,0:0:0:0:
448,192,160546,1,0,0:0:0:0:
320,192,160631,128,0,160887:0:0:0:0:
192,192,160716,1,0,0:0:0:0:
64,192,160802,128,0,160887:0:0:0:0:
448,192,160887,1,0,0:0:0:0:
320,192,160972,128,0,161057:0:0:0:0:
64,192,160972,128,0,161143:0:0:0:0:
192,192,160972,128,0,161313:0:0:0:0:
448,192,161057,1,0,0:0:0:0:
320,192,161143,1,0,0:0:0:0:
64,192,161228,1,0,0:0:0:0:
320,192,161313,128,0,161484:0:0:0:0:
192,192,161398,1,0,0:0:0:0:
448,192,161484,128,0,161739:0:0:0:0:
64,192,161484,128,0,161569:0:0:0:0:
320,192,161569,1,0,0:0:0:0:
64,192,161654,128,0,161824:0:0:0:0:
192,192,161739,1,0,0:0:0:0:
448,192,161824,128,0,161995:0:0:0:0:
64,192,161910,1,0,0:0:0:0:
192,192,161995,128,0,162165:0:0:0:0:
320,192,161995,128,0,162080:0:0:0:0:
448,192,162080,1,0,0:0:0:0:
320,192,162165,1,0,0:0:0:0:
192,192,162251,1,0,0:0:0:0:
448,192,162336,128,0,162421:0:0:0:0:
320,192,162336,128,0,162506:0:0:0:0:
64,192,162336,1,0,0:0:0:0:
192,192,162421,1,0,0:0:0:0:
448,192,162506,1,0,0:0:0:0:
320,192,162591,1,0,0:0:0:0:
192,192,162677,128,0,162932:0:0:0:0:
64,192,162762,1,0,0:0:0:0:
320,192,162847,128,0,163018:0:0:0:0:
448,192,162932,1,0,0:0:0:0:
192,192,163018,128,0,163359:0:0:0:0:
64,192,163018,128,0,163188:0:0:0:0:
320,192,163103,1,0,0:0:0:0:
448,192,163188,1,0,0:0:0:0:
64,192,163273,1,0,0:0:0:0:
320,192,163359,128,0,163614:0:0:0:0:
192,192,163444,1,0,0:0:0:0:
448,192,163529,128,0,163614:0:0:0:0:
64,192,163614,1,0,0:0:0:0:
320,192,163699,128,0,164040:0:0:0:0:
192,192,163699,128,0,163785:0:0:0:0:
448,192,163699,128,0,163870:0:0:0:0:
64,192,163785,1,0,0:0:0:0:
192,192,163870,1,0,0:0:0:0:
448,192,163955,1,0,0:0:0:0:
192,192,164040,128,0,164211:0:0:0:0:
320,192,164126,1,0,0:0:0:0:
64,192,164211,128,0,164466:0:0:0:0:
448,192,164211,128,0,164296:0:0:0:0:
192,192,164296,1,0,0:0:0:0:
448,192,164381,128,0,164552:0:0:0:0:
320,192,164466,1,0,0:0:0:0:
64,192,164552,128,0,164722:0:0:0:0:
448,192,164637,1,0,0:0:0:0:
192,192,164722,128,0,164807:0:0:0:0:
320,192,164722,128,0,164893:0:0:0:0:
64,192,164807,1,0,0:0:0:0:
192,192,164893,128,0,165063:0:0:0:0:
320,192,164978,1,0,0:0:0:0:
448,192,165063,128,0,165234:0:0:0:0:
64,192,165063,1,0,0:0:0:0:
320,192,165106,128,0,165276:0:0:0:0:
192,192,165148,128,0,165319:0:0:0:0:
64,192,165234,1,0,0:0:0:0:
64,192,165404,128,0,165603:0:0:0:0:
320,192,165404,128,0,165489:0:0:0:0:
192,192,165404,128,0,165546:0:0:0:0:
448,192,165404,128,0,165660:0:0:0:0:
320,192,165574,128,0,165660:0:0:0:0:
192,192,165660,1,0,0:0:0:0:
448,192,165745,128,0,165830:0:0:0:0:
320,192,165745,128,0,165915:0:0:0:0:
64,192,165745,128,0,166086:0:0:0:0:
192,192,165830,1,0,0:0:0:0:
448,192,165915,1,0,0:0:0:0:
320,192,166001,1,0,0:0:0:0:
448,192,166086,128,0,166341:0:0:0:0:
64,192,166171,1,0,0:0:0:0:
192,192,166256,128,0,166341:0:0:0:0:
320,192,166341,1,0,0:0:0:0:
192,192,166427,128,0,166768:0:0:0:0:
64,192,166427,128,0,166597:0:0:0:0:
448,192,166427,128,0,166512:0:0:0:0:
320,192,166512,1,0,0:0:0:0:
448,192,166597,1,0,0:0:0:0:
64,192,166682,1,0,0:0:0:0:
320,192,166768,128,0,166938:0:0:0:0:
192,192,166853,1,0,0:0:0:0:
448,192,166938,128,0,167023:0:0:0:0:
64,192,166938,128,0,167194:0:0:0:0:
320,192,167023,1,0,0:0:0:0:
448,192,167109,128,0,167279:0:0:0:0:
192,192,167194,1,0,0:0:0:0:
64,192,167279,128,0,167449:0:0:0:0:
448,192,167364,1,0,0:0:0:0:
192,192,167449,128,0,167535:0:0:0:0:
320,192,167449,128,0,167620:0:0:0:0:
448,192,167535,1,0,0:0:0:0:
192,192,167620,1,0,0:0:0:0:
320,192,167677,1,0,0:0:0:0:
64,192,167734,1,0,0:0:0:0:
192,192,167790,1,0,0:0:0:0:
448,192,167790,128,0,168131:0:0:0:0:
320,192,167790,128,0,167876:0:0:0:0:
64,192,167847,1,0,0:0:0:0:
192,192,167904,1,0,0:0:0:0:
320,192,167961,1,0,0:0:0:0:
64,192,168046,1,0,0:0:0:0:
192,192,168131,128,0,168387:0:0:0:0:
448,192,168216,1,0,0:0:0:0:
64,192,168302,128,0,168472:0:0:0:0:
320,192,168387,1,0,0:0:0:0:
448,192,168472,128,0,168813:0:0:0:0:
192,192,168472,128,0,168643:0:0:0:0:
64,192,168557,1,0,0:0:0:0:
320,192,168643,1,0,0:0:0:0:
192,192,168728,1,0,0:0:0:0:
64,192,168813,128,0,169069:0:0:0:0:
448,192,168898,1,0,0:0:0:0:
320,192,168984,128,0,169069:0:0:0:0:
192,192,169069,1,0,0:0:0:0:
64,192,169154,128,0,169239:0:0:0:0:
448,192,169154,128,0,169324:0:0:0:0:
320,192,169154,128,0,169495:0:0:0:0:
192,192,169239,1,0,0:0:0:0:
64,192,169324,1,0,0:0:0:0:
448,192,169410,1,0,0:0:0:0:
192,192,169495,128,0,169665:0:0:0:0:
320,192,169580,1,0,0:0:0:0:
64,192,169665,128,0,169751:0:0:0:0:
448,192,169665,128,0,169921:0:0:0:0:
192,192,169751,1,0,0:0:0:0:
64,192,169836,128,0,170006:0:0:0:0:
320,192,169921,1,0,0:0:0:0:
448,192,170006,128,0,170177:0:0:0:0:
64,192,170091,1,0,0:0:0:0:
192,192,170177,128,0,170347:0:0:0:0:
320,192,170177,128,0,170262:0:0:0:0:
448,192,170262,1,0,0:0:0:0:
320,192,170347,1,0,0:0:0:0:
192,192,170432,1,0,0:0:0:0:
448,192,170518,128,0,170603:0:0:0:0:
320,192,170518,128,0,170688:0:0:0:0:
64,192,170518,1,0,0:0:0:0:
192,192,170574,1,0,0:0:0:0:
64,192,170631,1,0,0:0:0:0:
448,192,170688,1,0,0:0:0:0:
320,192,170773,1,0,0:0:0:0:
64,192,170859,128,0,171114:0:0:0:0:
192,192,170859,128,0,171029:0:0:0:0:
320,192,170944,1,0,0:0:0:0:
448,192,171029,128,0,171199:0:0:0:0:
192,192,171114,1,0,0:0:0:0:
320,192,171199,128,0,171370:0:0:0:0:
64,192,171199,128,0,171540:0:0:0:0:
448,192,171285,1,0,0:0:0:0:
192,192,171370,1,0,0:0:0:0:
320,192,171455,1,0,0:0:0:0:
448,192,171540,128,0,171796:0:0:0:0:
64,192,171626,1,0,0:0:0:0:
192,192,171711,128,0,171796:0:0:0:0:
320,192,171796,1,0,0:0:0:0:
448,192,171881,128,0,171966:0:0:0:0:
192,192,171881,128,0,172052:0:0:0:0:
64,192,171881,128,0,172222:0:0:0:0:
320,192,171966,1,0,0:0:0:0:
448,192,172052,1,0,0:0:0:0:
192,192,172137,1,0,0:0:0:0:
448,192,172222,128,0,172393:0:0:0:0:
64,192,172307,1,0,0:0:0:0:
320,192,172393,128,0,172478:0:0:0:0:
192,192,172393,128,0,172648:0:0:0:0:
448,192,172478,1,0,0:0:0:0:
320,192,172563,128,0,172734:0:0:0:0:
64,192,172648,1,0,0:0:0:0:
192,192,172734,128,0,172904:0:0:0:0:
320,192,172819,1,0,0:0:0:0:
64,192,172904,128,0,172989:0:0:0:0:
448,192,172904,128,0,173074:0:0:0:0:
192,192,172989,1,0,0:0:0:0:
64,192,173074,1,0,0:0:0:0:
448,192,173160,1,0,0:0:0:0:
320,192,173245,1,0,0:0:0:0:
192,192,173245,128,0,173330:0:0:0:0:
64,192,173245,128,0,173415:0:0:0:0:
448,192,173330,1,0,0:0:0:0:
192,192,173415,1,0,0:0:0:0:
64,192,173501,1,0,0:0:0:0:
448,192,173586,128,0,173841:0:0:0:0:
320,192,173671,1,0,0:0:0:0:
64,192,173756,128,0,173927:0:0:0:0:
192,192,173841,1,0,0:0:0:0:
448,192,173927,128,0,174268:0:0:0:0:
320,192,173927,128,0,174097:0:0:0:0:
64,192,174012,1,0,0:0:0:0:
192,192,174097,1,0,0:0:0:0:
320,192,174182,1,0,0:0:0:0:
64,192,174268,128,0,174523:0:0:0:0:
448,192,174353,1,0,0:0:0:0:
320,192,174438,128,0,174523:0:0:0:0:
192,192,174523,1,0,0:0:0:0:
64,192,174609,128,0,174694:0:0:0:0:
320,192,174609,128,0,174779:0:0:0:0:
448,192,174609,128,0,174949:0:0:0:0:
192,192,174694,1,0,0:0:0:0:
64,192,174779,1,0,0:0:0:0:
320,192,174864,1,0,0:0:0:0:
64,192,174949,128,0,175120:0:0:0:0:
448,192,175035,1,0,0:0:0:0:
192,192,175120,128,0,175205:0:0:0:0:
320,192,175120,128,0,175376:0:0:0:0:
64,192,175205,1,0,0:0:0:0:
192,192,175290,128,0,175461:0:0:0:0:
448,192,175376,1,0,0:0:0:0:
320,192,175461,128,0,175631:0:0:0:0:
192,192,175546,1,0,0:0:0:0:
64,192,175631,128,0,175802:0:0:0:0:
448,192,175631,128,0,175716:0:0:0:0:
320,192,175716,1,0,0:0:0:0:
448,192,175802,128,0,175972:0:0:0:0:
64,192,175887,1,0,0:0:0:0:
192,192,175972,128,0,176143:0:0:0:0:
320,192,175972,1,0,0:0:0:0:
64,192,176015,128,0,176185:0:0:0:0:
448,192,176057,128,0,176228:0:0:0:0:
320,192,176143,1,0,0:0:0:0:
64,192,176313,128,0,176512:0:0:0:0:
192,192,176313,128,0,176398:0:0:0:0:
320,192,176313,128,0,176455:0:0:0:0:
448,192,176313,128,0,176569:0:0:0:0:
192,192,176484,1,0,0:0:0:0:
320,192,176569,1,0,0:0:0:0:
192,192,176654,1,0,0:0:0:0:
64,192,176654,128,0,176824:0:0:0:0:
448,192,176654,128,0,176824:0:0:0:0:
320,192,176995,128,0,177165:0:0:0:0:
192,192,177165,128,0,177336:0:0:0:0:
64,192,177336,128,0,177506:0:0:0:0:
448,192,177336,128,0,177506:0:0:0:0:
320,192,177677,128,0,177847:0:0:0:0:
448,192,177847,128,0,178046:0:0:0:0:
192,192,178046,128,0,178131:0:0:0:0:
64,192,178046,128,0,178131:0:0:0:0:
320,192,178188,128,0,178359:0:0:0:0:
192,192,178359,128,0,178529:0:0:0:0:
64,192,178529,128,0,178614:0:0:0:0:
448,192,178572,128,0,178657:0:0:0:0:
320,192,178614,128,0,178699:0:0:0:0:
192,192,178699,128,0,178870:0:0:0:0:
320,192,179040,128,0,179211:0:0:0:0:
192,192,179211,128,0,179381:0:0:0:0:
448,192,179381,128,0,179552:0:0:0:0:
64,192,179381,128,0,179552:0:0:0:0:
192,192,179722,128,0,179893:0:0:0:0:
320,192,179893,128,0,180063:0:0:0:0:
448,192,180063,128,0,180234:0:0:0:0:
64,192,180063,128,0,180234:0:0:0:0:
192,192,180404,128,0,180574:0:0:0:0:
64,192,180574,128,0,180773:0:0:0:0:
320,192,180773,128,0,180859:0:0:0:0:
448,192,180773,128,0,180859:0:0:0:0:
192,192,180915,128,0,181086:0:0:0:0:
320,192,181086,128,0,181256:0:0:0:0:
448,192,181256,128,0,181427:0:0:0:0:
64,192,181427,128,0,181597:0:0:0:0:
64,192,182109,128,0,182280:0:0:0:0:
448,192,182109,128,0,182280:0:0:0:0:
192,192,182451,128,0,182623:0:0:0:0:
320,192,182623,128,0,182794:0:0:0:0:
64,192,182794,128,0,182966:0:0:0:0:
448,192,182794,128,0,182966:0:0:0:0:
320,192,183137,128,0,183309:0:0:0:0:
64,192,183309,128,0,183501:0:0:0:0:
448,192,183501,128,0,183587:0:0:0:0:
192,192,183501,128,0,183587:0:0:0:0:
320,192,183651,128,0,183823:0:0:0:0:
448,192,183823,128,0,183994:0:0:0:0:
64,192,183994,128,0,184080:0:0:0:0:
192,192,184037,128,0,184123:0:0:0:0:
448,192,184080,128,0,184166:0:0:0:0:
320,192,184166,128,0,184337:0:0:0:0:
192,192,184509,128,0,184680:0:0:0:0:
320,192,184680,128,0,184851:0:0:0:0:
448,192,184851,128,0,185023:0:0:0:0:
64,192,184851,128,0,185023:0:0:0:0:
320,192,185194,128,0,185366:0:0:0:0:
192,192,185366,128,0,185537:0:0:0:0:
448,192,185537,128,0,185709:0:0:0:0:
64,192,185537,128,0,185709:0:0:0:0:
192,192,185880,128,0,186051:0:0:0:0:
448,192,186051,128,0,186223:0:0:0:0:
64,192,186223,128,0,186309:0:0:0:0:
320,192,186223,128,0,186309:0:0:0:0:
192,192,186394,128,0,186566:0:0:0:0:
448,192,186566,128,0,186737:0:0:0:0:
64,192,186737,128,0,186909:0:0:0:0:
320,192,186909,128,0,187080:0:0:0:0:
192,192,187594,128,0,187768:0:0:0:0:
320,192,187594,128,0,187768:0:0:0:0:
64,192,187942,128,0,188117:0:0:0:0:
448,192,188117,128,0,188291:0:0:0:0:
320,192,188291,128,0,188466:0:0:0:0:
192,192,188291,128,0,188466:0:0:0:0:
448,192,188640,128,0,188814:0:0:0:0:
320,192,188814,128,0,188989:0:0:0:0:
64,192,188989,128,0,189076:0:0:0:0:
192,192,188989,128,0,189076:0:0:0:0:
320,192,189163,128,0,189338:0:0:0:0:
192,192,189338,128,0,189512:0:0:0:0:
64,192,189512,128,0,189599:0:0:0:0:
448,192,189556,128,0,189643:0:0:0:0:
320,192,189599,128,0,189687:0:0:0:0:
192,192,189687,128,0,189861:0:0:0:0:
448,192,190035,128,0,190210:0:0:0:0:
64,192,190210,128,0,190384:0:0:0:0:
192,192,190384,128,0,190561:0:0:0:0:
320,192,190384,128,0,190561:0:0:0:0:
64,192,190739,128,0,190916:0:0:0:0:
448,192,190916,128,0,191094:0:0:0:0:
320,192,191094,128,0,191271:0:0:0:0:
192,192,191094,128,0,191271:0:0:0:0:
64,192,191449,128,0,191626:0:0:0:0:
192,192,191626,128,0,191804:0:0:0:0:
320,192,191804,128,0,191892:0:0:0:0:
448,192,191804,128,0,191892:0:0:0:0:
192,192,191981,128,0,192159:0:0:0:0:
320,192,192159,128,0,192336:0:0:0:0:
448,192,192336,128,0,192514:0:0:0:0:
64,192,192514,128,0,192691:0:0:0:0:
192,192,193224,128,0,193406:0:0:0:0:
320,192,193224,128,0,193406:0:0:0:0:
64,192,193589,128,0,193772:0:0:0:0:
448,192,193772,128,0,193955:0:0:0:0:
320,192,193955,128,0,194143:0:0:0:0:
192,192,193955,128,0,194143:0:0:0:0:
448,192,194332,128,0,194521:0:0:0:0:
192,192,194521,128,0,194709:0:0:0:0:
64,192,194709,128,0,194803:0:0:0:0:
320,192,194709,128,0,194803:0:0:0:0:
448,192,194897,128,0,195086:0:0:0:0:
64,192,195086,128,0,195275:0:0:0:0:
320,192,195275,128,0,195369:0:0:0:0:
448,192,195322,128,0,195416:0:0:0:0:
192,192,195369,128,0,195463:0:0:0:0:
64,192,195463,128,0,195663:0:0:0:0:
448,192,195863,128,0,196063:0:0:0:0:
64,192,196063,128,0,196263:0:0:0:0:
192,192,196263,128,0,196463:0:0:0:0:
320,192,196263,128,0,196463:0:0:0:0:
64,192,196663,128,0,196863:0:0:0:0:
448,192,196863,128,0,197063:0:0:0:0:
192,192,197063,128,0,197274:0:0:0:0:
320,192,197063,128,0,197274:0:0:0:0:
448,192,197485,128,0,197696:0:0:0:0:
64,192,197696,128,0,197907:0:0:0:0:
192,192,197696,128,0,197907:0:0:0:0:
320,192,198118,128,0,198329:0:0:0:0:
192,192,198329,128,0,198556:0:0:0:0:
64,192,198556,128,0,198783:0:0:0:0:
448,192,198783,128,0,200601:0:0:0:0:
