osu file format v14

[General]
AudioFilename: audio.mp3
AudioLeadIn: 0
PreviewTime: 132975
Countdown: 0
SampleSet: Drum
StackLeniency: 0.7
Mode: 2
LetterboxInBreaks: 0
WidescreenStoryboard: 1

[Editor]
DistanceSpacing: 1
BeatDivisor: 8
GridSize: 32
TimelineZoom: 2.3

[Metadata]
Title:wasurena feat. Sennzai
TitleUnicode:勿忘 feat. Sennzai
Artist:tokiwa
ArtistUnicode:常盤
Creator:Sanyi
Version:Souvenir's Overdose
Source:
Tags:souvenir jbhyperion jbh hyperion fa featured artist mg mappers' guild japanese electronic
BeatmapID:3344286
BeatmapSetID:1638487

[Difficulty]
HPDrainRate:6
CircleSize:3
OverallDifficulty:9.5
ApproachRate:9.5
SliderMultiplier:2.16
SliderTickRate:2

[Events]
//Background and Video events
0,0,"bg.jpg",0,0
//Break Periods
//Storyboard Layer 0 (Background)
//Storyboard Layer 1 (Fail)
//Storyboard Layer 2 (Pass)
//Storyboard Layer 3 (Foreground)
//Storyboard Layer 4 (Overlay)
//Storyboard Sound Samples

[TimingPoints]
2109,340.909090909091,4,2,1,40,1,0
12847,-100,4,2,1,5,0,0
13018,-100,4,2,1,40,0,0
17790,-100,4,2,7,40,0,0
18131,-100,4,2,1,40,0,0
23245,-100,4,3,1,50,0,0
23586,-100,4,2,7,60,0,0
23927,-100,4,2,2,60,0,0
24097,-100,4,2,1,60,0,0
25120,-100,4,2,7,60,0,0
25290,-100,4,2,1,60,0,0
25972,-100,4,2,1,80,0,0
26143,-100,4,2,1,60,0,0
27847,-100,4,2,7,60,0,0
28017,-100,4,2,1,60,0,0
28699,-100,4,2,1,80,0,0
28870,-100,4,2,1,60,0,0
30574,-100,4,2,7,60,0,0
30744,-100,4,2,1,60,0,0
31427,-100,4,2,7,60,0,0
31597,-100,4,2,1,60,0,0
32109,-100,4,2,1,80,0,0
32280,-100,4,2,1,60,0,0
33302,-100,4,2,7,60,0,0
33472,-100,4,2,1,60,0,0
34154,-100,4,2,1,80,0,0
34325,-100,4,2,1,60,0,0
34836,-100,4,2,2,60,0,0
44381,-100,4,3,2,60,0,0
45404,-45.4545454545455,4,2,7,60,0,0
45745,-90.9090909090909,4,2,3,70,0,1
46768,-90.9090909090909,4,2,1,80,0,1
46938,-90.9090909090909,4,2,3,70,0,1
46959,-66.6666666666667,4,2,3,70,0,1
47279,-90.9090909090909,4,2,3,70,0,1
47471,-35.7142857142857,4,2,3,70,0,1
47620,-90.9090909090909,4,2,3,70,0,1
48131,-90.9090909090909,4,2,3,80,0,1
48301,-90.9090909090909,4,2,3,70,0,1
48493,-66.6666666666667,4,2,3,70,0,1
48813,-90.9090909090909,4,2,3,70,0,1
49495,-90.9090909090909,4,2,1,80,0,1
49665,-90.9090909090909,4,2,3,70,0,1
49687,-66.6666666666667,4,2,3,70,0,1
50198,-35.7142857142857,4,2,3,70,0,1
50518,-90.9090909090909,4,2,3,70,0,1
51221,-66.6666666666667,4,2,3,70,0,1
51540,-90.9090909090909,4,2,3,70,0,1
52222,-90.9090909090909,4,2,1,80,0,1
52392,-90.9090909090909,4,2,3,70,0,1
52414,-66.6666666666667,4,2,3,70,0,1
52734,-90.9090909090909,4,2,3,70,0,1
52925,-35.7142857142857,4,2,3,70,0,1
53074,-90.9090909090909,4,2,1,80,0,1
53244,-90.9090909090909,4,2,3,70,0,1
53586,-90.9090909090909,4,2,1,80,0,1
53756,-90.9090909090909,4,2,3,70,0,1
53948,-66.6666666666667,4,2,3,70,0,1
54268,-90.9090909090909,4,2,1,80,0,1
54438,-90.9090909090909,4,2,3,70,0,1
54949,-90.9090909090909,4,2,1,80,0,1
55119,-90.9090909090909,4,2,3,70,0,1
55141,-66.6666666666667,4,2,3,70,0,1
55461,-90.9090909090909,4,2,3,70,0,1
55653,-35.7142857142857,4,2,3,70,0,1
55802,-90.9090909090909,4,2,3,70,0,1
56313,-90.9090909090909,4,2,7,70,0,0
56654,-90.9090909090909,4,2,3,70,0,1
56675,-66.6666666666667,4,2,3,70,0,1
56995,-90.9090909090909,4,2,3,70,0,1
57677,-90.9090909090909,4,2,1,80,0,1
57847,-90.9090909090909,4,2,3,70,0,1
57868,-66.6666666666667,4,2,3,70,0,1
58188,-90.9090909090909,4,2,3,70,0,1
59040,-90.9090909090909,4,2,1,80,0,1
59210,-90.9090909090909,4,2,3,70,0,1
59403,-66.6666666666667,4,2,3,70,0,1
59722,-90.9090909090909,4,2,3,70,0,1
60404,-90.9090909090909,4,2,1,80,0,1
60574,-90.9090909090909,4,2,3,70,0,1
60596,-66.6666666666667,4,2,3,70,0,1
60915,-90.9090909090909,4,2,3,70,0,1
62109,-66.6666666666667,4,2,3,70,0,1
62449,-90.9090909090909,4,2,3,70,0,1
63131,-90.9090909090909,4,2,1,80,0,1
63302,-66.6666666666667,4,2,3,70,0,1
63643,-90.9090909090909,4,2,3,70,0,1
63984,-90.9090909090909,4,2,1,80,0,1
64154,-90.9090909090909,4,2,3,70,0,1
64495,-90.9090909090909,4,2,1,80,0,1
64665,-90.9090909090909,4,2,3,70,0,1
64857,-66.6666666666667,4,2,3,70,0,1
65177,-90.9090909090909,4,2,1,80,0,1
65347,-90.9090909090909,4,2,3,70,0,1
65859,-90.9090909090909,4,2,1,80,0,1
66029,-90.9090909090909,4,2,3,70,0,1
66050,-66.6666666666667,4,2,3,70,0,1
66370,-90.9090909090909,4,2,3,70,0,1
67222,-90.9090909090909,4,2,7,70,0,1
67563,-100,4,3,2,80,0,0
67734,-100,4,2,1,40,0,0
77279,-100,4,2,1,25,0,0
78472,-100,4,2,1,50,0,0
79154,-100,4,3,2,50,0,0
79324,-100,4,2,1,50,0,0
80518,-100,4,3,2,50,0,0
80688,-100,4,2,1,50,0,0
81881,-100,4,3,2,50,0,0
82051,-100,4,2,1,50,0,0
83245,-100,4,3,2,50,0,0
83415,-100,4,2,1,50,0,0
85290,-100,4,3,2,50,0,0
85460,-100,4,2,1,50,0,0
88018,-100,4,3,2,50,0,0
88188,-100,4,2,1,35,0,0
89211,-100,4,2,1,5,0,0
89381,-100,4,2,1,50,0,0
99438,-100,4,2,1,50,0,0
99609,-100,4,2,1,35,0,0
100120,-100,4,2,1,5,0,0
100290,-100,4,2,1,50,0,0
110518,-100,4,3,1,50,0,0
110859,-100,4,2,7,60,0,0
111200,-100,4,2,2,60,0,0
111370,-100,4,2,1,60,0,0
112393,-100,4,2,7,60,0,0
112563,-100,4,2,1,60,0,0
113245,-100,4,2,1,80,0,0
113416,-100,4,2,1,60,0,0
115120,-100,4,2,7,60,0,0
115290,-100,4,2,1,60,0,0
115972,-100,4,2,1,80,0,0
116143,-100,4,2,1,60,0,0
117847,-100,4,2,7,60,0,0
118017,-100,4,2,1,60,0,0
118700,-100,4,2,7,60,0,0
118870,-100,4,2,1,60,0,0
119382,-100,4,2,1,80,0,0
119553,-100,4,2,1,60,0,0
120575,-100,4,2,7,60,0,0
120745,-100,4,2,1,60,0,0
121427,-100,4,2,1,80,0,0
121598,-100,4,2,1,60,0,0
122109,-100,4,2,2,70,0,0
131654,-100,4,3,2,60,0,0
132677,-45.4545454545455,4,2,7,60,0,0
133018,-90.9090909090909,4,2,3,80,0,1
134040,-90.9090909090909,4,2,1,90,0,1
134210,-90.9090909090909,4,2,3,80,0,1
134232,-66.6666666666667,4,2,3,80,0,1
134552,-90.9090909090909,4,2,3,80,0,1
134744,-35.7142857142857,4,2,3,80,0,1
134893,-90.9090909090909,4,2,3,80,0,1
135403,-90.9090909090909,4,2,1,90,0,1
135573,-90.9090909090909,4,2,3,80,0,1
135766,-66.6666666666667,4,2,3,80,0,1
136086,-90.9090909090909,4,2,3,80,0,1
136767,-90.9090909090909,4,2,1,90,0,1
136937,-90.9090909090909,4,2,3,80,0,1
136960,-66.6666666666667,4,2,3,80,0,1
137471,-35.7142857142857,4,2,3,80,0,1
137791,-90.9090909090909,4,2,3,80,0,1
138494,-66.6666666666667,4,2,3,80,0,1
138813,-90.9090909090909,4,2,3,80,0,1
139494,-90.9090909090909,4,2,1,90,0,1
139664,-90.9090909090909,4,2,3,80,0,1
139687,-66.6666666666667,4,2,3,80,0,1
140007,-90.9090909090909,4,2,3,80,0,1
140198,-35.7142857142857,4,2,3,80,0,1
140347,-90.9090909090909,4,2,1,90,0,1
140516,-90.9090909090909,4,2,3,80,0,1
140858,-90.9090909090909,4,2,1,90,0,1
141028,-90.9090909090909,4,2,3,80,0,1
141221,-66.6666666666667,4,2,3,80,0,1
141541,-90.9090909090909,4,2,3,80,0,1
142221,-90.9090909090909,4,2,1,90,0,1
142391,-90.9090909090909,4,2,3,80,0,1
142414,-66.6666666666667,4,2,3,80,0,1
142734,-90.9090909090909,4,2,3,80,0,1
142926,-35.7142857142857,4,2,3,80,0,1
143075,-90.9090909090909,4,2,3,80,0,1
143586,-90.9090909090909,4,2,7,80,0,0
143927,-90.9090909090909,4,2,3,80,0,1
143948,-66.6666666666667,4,2,3,80,0,1
144268,-90.9090909090909,4,2,3,80,0,1
144949,-90.9090909090909,4,2,1,90,0,1
145119,-90.9090909090909,4,2,3,80,0,1
145141,-66.6666666666667,4,2,3,80,0,1
145461,-90.9090909090909,4,2,3,80,0,1
146313,-90.9090909090909,4,2,1,90,0,1
146484,-90.9090909090909,4,2,3,80,0,1
146676,-66.6666666666667,4,2,3,80,0,1
146995,-90.9090909090909,4,2,3,80,0,1
147676,-90.9090909090909,4,2,1,90,0,1
147846,-90.9090909090909,4,2,3,80,0,1
147869,-66.6666666666667,4,2,3,80,0,1
148188,-90.9090909090909,4,2,3,80,0,1
149382,-66.6666666666667,4,2,3,80,0,1
149722,-90.9090909090909,4,2,3,80,0,1
150403,-90.9090909090909,4,2,1,90,0,1
150575,-66.6666666666667,4,2,3,80,0,1
150916,-90.9090909090909,4,2,3,80,0,1
151256,-90.9090909090909,4,2,1,90,0,1
151426,-90.9090909090909,4,2,3,80,0,1
151767,-90.9090909090909,4,2,1,90,0,1
151937,-90.9090909090909,4,2,3,80,0,1
152130,-66.6666666666667,4,2,3,80,0,1
152450,-90.9090909090909,4,2,3,80,0,1
153131,-90.9090909090909,4,2,1,90,0,1
153301,-90.9090909090909,4,2,3,80,0,1
153323,-66.6666666666667,4,2,3,80,0,1
153643,-90.9090909090909,4,2,3,80,0,1
154495,-90.9090909090909,4,2,7,80,0,0
154836,-90.9090909090909,4,2,3,80,0,1
155859,-90.9090909090909,4,2,1,90,0,1
156029,-90.9090909090909,4,2,3,80,0,1
156199,-90.9090909090909,4,2,1,90,0,1
156370,-90.9090909090909,4,2,3,80,0,1
157222,-90.9090909090909,4,2,1,90,0,1
157392,-90.9090909090909,4,2,3,80,0,1
158586,-90.9090909090909,4,2,1,90,0,1
158756,-90.9090909090909,4,2,3,80,0,1
158927,-90.9090909090909,4,2,1,90,0,1
159097,-90.9090909090909,4,2,3,80,0,1
161313,-90.9090909090909,4,2,1,90,0,1
161483,-90.9090909090909,4,2,3,80,0,1
161654,-90.9090909090909,4,2,1,90,0,1
161824,-90.9090909090909,4,2,3,80,0,1
162165,-90.9090909090909,4,2,1,90,0,1
162335,-90.9090909090909,4,2,3,80,0,1
162677,-90.9090909090909,4,2,1,90,0,1
162847,-90.9090909090909,4,2,3,80,0,1
163359,-90.9090909090909,4,2,1,90,0,1
163529,-90.9090909090909,4,2,3,80,0,1
164040,-90.9090909090909,4,2,1,90,0,1
164210,-90.9090909090909,4,2,3,80,0,1
164381,-90.9090909090909,4,2,1,90,0,1
164552,-90.9090909090909,4,2,3,80,0,1
165404,-90.9090909090909,4,3,2,80,0,0
165745,-90.9090909090909,4,2,3,80,0,1
166768,-90.9090909090909,4,2,1,90,0,1
166938,-90.9090909090909,4,2,3,80,0,1
167108,-90.9090909090909,4,2,1,90,0,1
167279,-90.9090909090909,4,2,3,80,0,1
168131,-90.9090909090909,4,2,1,90,0,1
168472,-90.9090909090909,4,2,3,80,0,1
168813,-90.9090909090909,4,2,1,90,0,1
168984,-90.9090909090909,4,2,3,80,0,1
169495,-90.9090909090909,4,2,1,90,0,1
169665,-90.9090909090909,4,2,3,80,0,1
169836,-90.9090909090909,4,2,1,90,0,1
170006,-90.9090909090909,4,2,3,80,0,1
172222,-90.9090909090909,4,2,1,90,0,1
172392,-90.9090909090909,4,2,3,80,0,1
172563,-90.9090909090909,4,2,1,90,0,1
172733,-90.9090909090909,4,2,3,80,0,1
173074,-90.9090909090909,4,2,1,90,0,1
173244,-90.9090909090909,4,2,3,80,0,1
173586,-90.9090909090909,4,2,1,90,0,1
173756,-90.9090909090909,4,2,3,80,0,1
174268,-90.9090909090909,4,2,1,90,0,1
174609,-90.9090909090909,4,2,3,80,0,1
174949,-90.9090909090909,4,2,1,90,0,1
175119,-90.9090909090909,4,2,3,80,0,1
175290,-90.9090909090909,4,2,1,90,0,1
175461,-90.9090909090909,4,2,3,80,0,1
176313,-90.9090909090909,4,3,2,80,0,1
176654,-90.9090909090909,4,2,1,80,0,0

[Colours]
Combo1 : 159,159,159
Combo2 : 0,128,192

[HitObjects]
90,273,2109,5,4,0:0:0:0:
255,261,2790,1,2,0:0:0:0:
422,273,3472,1,2,0:0:0:0:
422,273,4836,5,4,0:0:0:0:
257,261,5517,1,2,0:0:0:0:
90,273,6199,1,2,0:0:0:0:
88,272,7563,5,4,0:0:0:0:
256,260,8245,1,2,0:0:0:0:
85,270,8927,1,2,0:0:0:0:
424,272,10290,5,4,0:0:0:0:
256,260,10972,1,2,0:0:0:0:
427,270,11654,1,2,0:0:0:0:
256,192,12165,12,0,12847,0:0:0:0:
424,272,13018,6,0,L|424:39,1,216,4|0,0:0|0:0,0:0:0:0:
256,38,13699,2,0,L|256:271,1,216,2|8,0:0|0:0,0:0:0:0:
88,384,14381,2,0,B|88:136|88:136|88:328,1,432,2|0,0:0|0:0,0:0:0:0:
256,192,15404,1,2,0:0:0:0:
88,272,15745,6,0,L|88:39,1,216,4|0,0:0|0:0,0:0:0:0:
256,38,16427,2,0,L|256:288,1,216,2|8,0:0|0:0,0:0:0:0:
424,384,17108,2,0,B|424:136|424:136|424:336,1,432,2|4,0:0|0:0,0:0:0:0:
256,192,18131,1,0,0:0:0:0:
424,232,18472,6,0,L|424:0,1,216,4|0,0:0|0:0,0:0:0:0:
256,192,19154,2,0,L|472:192,1,216,2|8,0:0|0:0,0:0:0:0:
192,320,19836,2,0,P|96:304|208:96,1,432,2|2,0:0|0:0,0:0:0:0:
352,88,20859,1,0,0:0:0:0:
88,232,21199,6,0,L|88:0,1,216,4|0,0:0|0:0,0:0:0:0:
256,192,21881,2,0,L|40:192,1,216,2|8,0:0|0:0,0:0:0:0:
328,320,22563,2,0,P|400:280|320:208,1,216,2|8,0:0|0:0,0:0:0:0:
56,200,23245,2,0,L|40:144,2,36,2|0|0,0:0|0:0|0:0,0:0:0:0:
104,200,23415,1,0,0:0:0:0:
264,200,23586,2,0,L|144:200,1,108,10|0,0:0|0:0,0:0:0:0:
416,192,23927,5,6,0:0:0:0:
416,192,24268,2,0,L|416:80,1,108
256,80,24609,2,0,L|120:80,1,108,2|0,0:0|0:0,0:0:0:0:
304,192,24949,1,0,0:0:0:0:
144,80,25120,2,0,P|72:152|160:200,1,216,4|0,0:0|0:0,0:0:0:0:
304,192,25631,2,0,L|184:192,1,108
352,240,25972,1,2,0:0:0:0:
368,240,25993,1,0,0:0:0:0:
360,272,26313,2,0,L|240:272,1,108,2|0,0:0|0:0,0:0:0:0:
88,320,26654,5,2,0:0:0:0:
88,320,26995,2,0,L|88:208,1,108
248,200,27336,2,0,L|128:200,1,108,2|0,0:0|0:0,0:0:0:0:
296,128,27677,1,0,0:0:0:0:
144,200,27847,2,0,P|160:104|280:72,1,216,4|0,0:0|0:0,0:0:0:0:
424,80,28359,2,0,L|312:80,1,108,2|0,0:0|0:0,0:0:0:0:
160,80,28699,1,2,0:0:0:0:
144,80,28720,1,0,0:0:0:0:
152,168,29040,2,0,L|280:168,1,108
424,304,29381,5,2,0:0:0:0:
424,304,29722,2,0,L|304:304,1,108
144,304,30063,2,0,L|144:184,1,108,2|0,0:0|0:0,0:0:0:0:
312,192,30404,1,0,0:0:0:0:
144,160,30574,2,0,L|392:160,1,216,4|0,0:0|0:0,0:0:0:0:
192,88,31086,2,0,L|64:88,1,108,2|0,0:0|0:0,0:0:0:0:
352,240,31427,1,4,0:0:0:0:
368,240,31448,1,0,0:0:0:0:
360,352,31768,2,0,L|488:352,1,108
184,344,32109,5,2,0:0:0:0:
184,344,32449,2,0,L|48:344,1,108
248,280,32790,2,0,L|248:152,1,108,2|0,0:0|0:0,0:0:0:0:
80,168,33131,1,0,0:0:0:0:
248,72,33302,2,0,L|16:72,1,216,4|0,0:0|0:0,0:0:0:0:
208,176,33813,2,0,L|336:176,1,108
48,328,34154,1,2,0:0:0:0:
32,328,34175,2,0,L|32:120,1,202.5
136,120,34665,1,0,0:0:0:0:
472,288,34836,6,0,L|472:168,1,108,6|0,0:0|0:0,0:0:0:0:
304,192,35177,2,0,L|304:64,1,108,2|0,0:0|0:0,0:0:0:0:
472,288,35518,2,0,L|472:168,1,108,2|0,0:0|0:0,0:0:0:0:
388,192,35773,1,0,0:0:0:0:
304,192,35859,2,0,L|416:192,1,108,2|0,0:0|0:0,0:0:0:0:
136,288,36199,6,0,L|136:168,1,108,2|0,0:0|0:0,0:0:0:0:
304,192,36540,2,0,L|304:64,1,108,2|0,0:0|0:0,0:0:0:0:
136,288,36881,2,0,L|16:288,1,108,2|0,0:0|0:0,0:0:0:0:
112,224,37136,1,0,0:0:0:0:
196,224,37222,2,0,L|84:224,1,108,2|0,0:0|0:0,0:0:0:0:
352,320,37563,6,0,L|480:320,1,108,2|0,0:0|0:0,0:0:0:0:
376,280,37819,1,0,0:0:0:0:
292,276,37904,2,0,L|292:168,1,108,2|0,0:0|0:0,0:0:0:0:
376,168,38160,1,0,0:0:0:0:
292,168,38245,2,0,L|160:168,1,108,2|0,0:0|0:0,0:0:0:0:
100,168,38501,1,0,0:0:0:0:
16,164,38586,2,0,L|140:164,1,108,2|0,0:0|0:0,0:0:0:0:
208,164,38841,1,0,0:0:0:0:
392,256,38927,6,0,L|392:136,1,108,2|0,0:0|0:0,0:0:0:0:
312,144,39182,1,0,0:0:0:0:
392,148,39268,1,2,0:0:0:0:
232,144,39438,1,0,0:0:0:0:
312,144,39523,1,0,0:0:0:0:
232,144,39609,2,0,L|112:144,1,108,2|0,0:0|0:0,0:0:0:0:
208,80,39864,1,0,0:0:0:0:
296,80,39949,2,0,L|416:80,1,108,2|0,0:0|0:0,0:0:0:0:
64,320,40290,6,0,L|64:208,1,108,2|0,0:0|0:0,0:0:0:0:
152,208,40546,1,0,0:0:0:0:
240,208,40631,2,0,L|88:208,1,108,2|0,0:0|0:0,0:0:0:0:
216,152,40887,1,0,0:0:0:0:
304,144,40972,2,0,L|416:144,1,108,2|0,0:0|0:0,0:0:0:0:
328,104,41228,1,0,0:0:0:0:
240,96,41313,2,0,L|120:96,1,108,2|0,0:0|0:0,0:0:0:0:
48,96,41569,1,0,0:0:0:0:
232,296,41654,6,0,L|360:296,1,108,2|0,0:0|0:0,0:0:0:0:
256,256,41910,1,0,0:0:0:0:
168,248,41995,2,0,L|48:248,1,108,2|0,0:0|0:0,0:0:0:0:
144,208,42251,1,0,0:0:0:0:
232,200,42336,2,0,L|232:80,1,108,2|0,0:0|0:0,0:0:0:0:
152,88,42591,1,0,0:0:0:0:
72,88,42677,2,0,L|72:208,1,108,2|0,0:0|0:0,0:0:0:0:
152,88,42932,1,0,0:0:0:0:
368,256,43018,6,0,L|368:184,1,54,2|0,0:0|0:0,0:0:0:0:
280,200,43188,2,0,L|280:136,1,54,2|0,0:0|0:0,0:0:0:0:
464,168,43359,2,0,L|488:112,2,54,2|0|2,0:0|0:0|0:0,0:0:0:0:
392,168,43614,1,0,0:0:0:0:
208,336,43699,6,0,L|208:264,1,54,2|0,0:0|0:0,0:0:0:0:
296,280,43869,2,0,L|296:216,1,54,2|0,0:0|0:0,0:0:0:0:
112,248,44040,2,0,L|88:192,2,54,2|0|2,0:0|0:0|0:0,0:0:0:0:
184,248,44295,1,0,0:0:0:0:
408,248,44381,5,4,0:0:0:0:
296,264,44552,1,0,0:0:0:0:
456,168,44722,2,0,L|472:126,2,27,2|2|2,0:0|0:0|0:0,0:0:0:0:
408,248,44893,1,0,0:0:0:0:
248,184,45063,2,0,L|232:136,2,36,8|0|0,0:0|0:0|0:0,0:0:0:0:
296,264,45234,1,0,0:0:0:0:
16,296,45404,6,0,B|276:296|276:296|504:296,1,475.200014501954,10|6,0:0|0:0,0:0:0:0:
472,296,45766,1,0,0:0:0:0:
194,223,46086,1,0,0:0:0:0:
344,224,46256,1,0,0:0:0:0:
104,192,46427,1,8,0:0:0:0:
16,192,46448,2,0,L|16:80,1,103.950003172302
288,88,46768,1,2,0:0:0:0:
40,40,46938,5,2,0:0:0:0:
24,40,46959,2,0,L|344:40,1,303.750011587143
88,224,47449,1,2,0:0:0:0:
104,224,47471,2,0,L|384:224,1,264.599991925049
128,256,47790,1,8,0:0:0:0:
32,256,47812,2,0,L|32:152,1,103.950003172302
192,144,48131,2,0,L|56:144,1,118.800003625488,2|0,0:0|0:0,0:0:0:0:
144,104,48387,1,0,0:0:0:0:
384,224,48472,5,2,0:0:0:0:
368,232,48493,2,0,B|48:232,1,303.750011587143
168,296,48984,1,0,0:0:0:0:
408,304,49154,1,8,0:0:0:0:
496,304,49175,2,0,L|496:192,1,103.950003172302
328,192,49495,1,2,0:0:0:0:
80,80,49665,5,2,0:0:0:0:
64,80,49687,2,0,P|64:200|232:240,1,303.750011587143
392,176,50177,1,2,0:0:0:0:
376,176,50198,2,0,L|112:176,1,264.599991925049
376,312,50518,1,8,0:0:0:0:
464,312,50539,2,0,L|464:200,1,103.950003172302
304,208,50859,1,2,0:0:0:0:
288,208,50880,1,0,0:0:0:0:
432,112,51029,2,0,L|360:112,1,59.4000018127442
128,240,51199,5,2,0:0:0:0:
144,240,51221,2,0,L|456:240,1,303.750011587143
352,176,51711,1,0,0:0:0:0:
112,160,51881,1,8,0:0:0:0:
16,160,51903,2,0,L|16:272,1,103.950003172302
256,256,52222,1,2,0:0:0:0:
496,256,52393,5,2,0:0:0:0:
480,256,52414,2,0,L|176:256,1,303.750011587143
472,128,52904,1,2,0:0:0:0:
456,128,52925,2,0,L|168:128,1,264.599991925049,0|2,0:0|0:0,0:0:0:0:
184,72,53117,1,0,0:0:0:0:
191,128,53160,1,0,0:0:0:0:
360,233,53245,1,8,0:0:0:0:
448,233,53266,2,0,P|472:185|448:134,1,103.950003172302
216,288,53586,2,0,L|216:216,1,59.4000018127442,2|0,0:0|0:0,0:0:0:0:
312,160,53756,2,0,L|240:160,1,59.4000018127442
16,176,53927,5,2,0:0:0:0:
32,176,53948,2,0,P|144:240|32:296,1,303.750011587143,0|2,0:0|0:0,0:0:0:0:
144,304,54438,1,0,0:0:0:0:
384,312,54609,1,8,0:0:0:0:
472,312,54630,2,0,L|472:200,1,103.950003172302
224,200,54949,1,2,0:0:0:0:
480,88,55120,5,2,0:0:0:0:
464,88,55141,2,0,B|480:248|480:248|320:264,1,303.750011587143
80,296,55631,1,2,0:0:0:0:
96,296,55653,2,0,L|376:296,1,264.599991925049
112,208,55972,1,8,0:0:0:0:
24,208,55993,2,0,L|24:96,1,103.950003172302
296,208,56313,1,10,0:0:0:0:
312,208,56334,2,0,L|312:104,1,103.950003172302
216,96,56569,1,0,0:0:0:0:
456,328,56654,5,6,0:0:0:0:
440,328,56675,2,0,L|128:328,1,303.750011587143
320,232,57165,2,0,L|320:160,1,59.4000018127442
128,160,57336,1,8,0:0:0:0:
40,160,57357,2,0,L|40:264,1,103.950003172302
320,272,57677,2,0,L|256:272,1,59.4000018127442,2|0,0:0|0:0,0:0:0:0:
64,232,57847,5,2,0:0:0:0:
80,232,57868,2,0,L|384:232,1,303.750011587143
328,200,58273,1,0,0:0:0:0:
136,120,58359,2,0,L|216:120,1,59.4000018127442,2|0,0:0|0:0,0:0:0:0:
384,64,58529,2,0,L|320:64,1,59.4000018127442
144,272,58699,5,8,0:0:0:0:
48,272,58721,2,0,L|48:168,1,103.950003172302
120,152,58955,1,0,0:0:0:0:
240,184,59040,2,0,L|256:104,1,59.4000018127442,2|0,0:0|0:0,0:0:0:0:
152,104,59211,2,0,L|80:104,1,59.4000018127442
344,272,59381,5,2,0:0:0:0:
328,272,59403,2,0,L|24:272,1,303.750011587143
16,240,59807,1,0,0:0:0:0:
48,200,59893,1,0,0:0:0:0:
120,176,59978,1,0,0:0:0:0:
320,176,60063,1,8,0:0:0:0:
408,184,60084,2,0,L|408:72,1,103.950003172302
232,104,60404,2,0,L|160:104,1,59.4000018127442,2|0,0:0|0:0,0:0:0:0:
352,320,60574,5,2,0:0:0:0:
368,320,60596,2,0,P|464:272|344:192,1,303.750011587143
288,192,61001,1,0,0:0:0:0:
88,264,61086,2,0,L|160:264,1,59.4000018127442,2|0,0:0|0:0,0:0:0:0:
344,256,61256,2,0,L|416:256,1,59.4000018127442
192,304,61427,5,8,0:0:0:0:
104,304,61448,2,0,L|104:200,1,103.950003172302
184,192,61682,1,0,0:0:0:0:
304,192,61768,2,0,L|384:192,1,59.4000018127442,2|0,0:0|0:0,0:0:0:0:
304,192,61938,2,0,L|376:192,1,59.4000018127442
112,280,62109,5,2,0:0:0:0:
128,280,62131,2,0,L|440:280,1,303.750011587143
360,248,62535,1,0,0:0:0:0:
431,280,62620,1,0,0:0:0:0:
360,248,62705,1,0,0:0:0:0:
152,192,62790,5,8,0:0:0:0:
64,192,62811,2,0,L|64:88,1,103.950003172302
136,80,63046,1,0,0:0:0:0:
360,88,63131,1,2,0:0:0:0:
104,280,63302,5,2,0:0:0:0:
120,280,63324,2,0,L|432:280,1,303.750011587143
424,232,63728,1,0,0:0:0:0:
232,168,63813,2,0,L|136:168,1,59.4000018127442,2|0,0:0|0:0,0:0:0:0:
360,152,63984,2,0,L|368:120,2,29.7000009063721,2|0|0,0:0|0:0|0:0,0:0:0:0:
152,192,64154,5,8,0:0:0:0:
64,192,64175,2,0,L|64:88,1,103.950003172302
312,264,64495,2,0,L|240:256,1,59.4000018127442,2|0,0:0|0:0,0:0:0:0:
160,232,64665,2,0,L|232:224,1,59.4000018127442
456,352,64836,5,2,0:0:0:0:
472,352,64857,2,0,L|160:352,1,303.750011587143,0|2,0:0|0:0,0:0:0:0:
128,280,65262,1,0,0:0:0:0:
168,352,65347,1,0,0:0:0:0:
248,352,65432,1,0,0:0:0:0:
408,160,65518,1,8,0:0:0:0:
496,160,65539,2,0,L|496:48,1,103.950003172302
424,56,65773,1,0,0:0:0:0:
200,56,65858,1,2,0:0:0:0:
464,272,66029,5,2,0:0:0:0:
448,272,66050,2,0,L|136:272,1,303.750011587143
200,240,66455,1,0,0:0:0:0:
416,160,66540,2,0,L|336:160,1,59.4000018127442,2|0,0:0|0:0,0:0:0:0:
136,112,66711,2,0,L|208:112,1,59.4000018127442
404,101,66881,5,8,0:0:0:0:
496,104,66903,1,0,0:0:0:0:
424,176,67052,1,0,0:0:0:0:
368,189,67137,1,0,0:0:0:0:
343,241,67222,1,10,0:0:0:0:
368,292,67307,1,0,0:0:0:0:
424,306,67392,1,0,0:0:0:0:
88,200,67563,5,8,0:0:0:0:
256,192,68245,1,2,0:0:0:0:
424,200,68927,1,2,0:0:0:0:
424,200,70290,5,2,0:0:0:0:
256,192,70972,1,2,0:0:0:0:
88,200,71654,1,2,0:0:0:0:
80,200,73018,5,4,0:0:0:0:
256,184,73699,1,2,0:0:0:0:
80,200,74381,1,2,0:0:0:0:
432,200,75745,5,4,0:0:0:0:
256,184,76426,1,0,0:0:0:0:
432,200,77108,1,2,0:0:0:0:
256,192,77279,12,4,78472,0:0:0:0:
256,152,78813,5,0,0:0:0:0:
312,112,78984,1,0,0:0:0:0:
424,112,79154,1,8,0:0:0:0:
424,112,79495,5,8,0:0:0:0:
312,112,79665,1,2,0:0:0:0:
424,112,80006,1,0,0:0:0:0:
312,112,80177,1,0,0:0:0:0:
424,112,80347,1,0,0:0:0:0:
455,129,80390,1,0,0:0:0:0:
474,159,80432,1,0,0:0:0:0:
478,194,80517,1,8,0:0:0:0:
478,194,80859,1,2,0:0:0:0:
424,216,81029,1,0,0:0:0:0:
312,256,81199,5,8,0:0:0:0:
312,256,81540,1,2,0:0:0:0:
256,208,81711,1,0,0:0:0:0:
144,208,81881,1,8,0:0:0:0:
144,208,82222,5,8,0:0:0:0:
256,208,82393,1,2,0:0:0:0:
144,208,82734,1,0,0:0:0:0:
256,208,82904,1,8,0:0:0:0:
144,208,83074,1,0,0:0:0:0:
400,304,83245,2,0,L|400:88,1,216,4|0,0:0|0:0,0:0:0:0:
96,312,83927,6,0,L|96:96,1,216,2|0,0:0|0:0,0:0:0:0:
312,288,84609,2,0,L|72:288,1,216,8|0,0:0|0:0,0:0:0:0:
312,248,85290,2,0,P|320:88|88:48,1,432,8|2,0:0|0:0,0:0:0:0:
312,48,86313,1,0,0:0:0:0:
24,304,86654,6,0,L|240:304,1,216,8|0,0:0|0:0,0:0:0:0:
464,296,87336,2,0,L|232:296,1,216,2|8,0:0|0:0,0:0:0:0:
464,256,88018,1,4,0:0:0:0:
256,192,88188,12,0,89211,0:0:0:0:
256,192,89381,5,4,0:0:0:0:
424,200,90063,1,2,0:0:0:0:
256,192,90745,1,2,0:0:0:0:
256,192,92109,5,4,0:0:0:0:
88,192,92790,1,2,0:0:0:0:
256,192,93472,1,2,0:0:0:0:
88,192,94836,5,4,0:0:0:0:
256,192,95518,1,2,0:0:0:0:
424,200,96199,1,2,0:0:0:0:
424,192,97563,5,4,0:0:0:0:
256,192,98245,1,2,0:0:0:0:
88,200,98926,1,2,0:0:0:0:
256,192,99438,12,0,100120,0:0:0:0:
88,272,100290,6,0,L|88:39,1,216,4|0,0:0|0:0,0:0:0:0:
256,38,100972,2,0,L|256:280,1,216,2|8,0:0|0:0,0:0:0:0:
424,384,101654,2,0,B|424:136|424:136|424:336,1,432,2|0,0:0|0:0,0:0:0:0:
256,192,102676,1,2,0:0:0:0:
424,272,103018,6,0,L|424:32,1,216,4|0,0:0|0:0,0:0:0:0:
256,38,103699,2,0,L|256:288,1,216,2|8,0:0|0:0,0:0:0:0:
88,384,104381,2,0,B|88:136|88:136|88:336,1,432,2|2,0:0|0:0,0:0:0:0:
256,192,105403,1,0,0:0:0:0:
88,232,105745,6,0,L|88:0,1,216,4|0,0:0|0:0,0:0:0:0:
256,192,106427,2,0,L|32:192,1,216,2|8,0:0|0:0,0:0:0:0:
320,320,107109,2,0,P|392:288|296:240,2,216,2|0|2,0:0|0:0|0:0,0:0:0:0:
160,88,108131,1,0,0:0:0:0:
424,232,108472,6,0,L|424:-8,1,216,4|0,0:0|0:0,0:0:0:0:
256,192,109154,2,0,L|480:192,1,216,2|8,0:0|0:0,0:0:0:0:
184,320,109836,2,0,P|112:280|200:208,1,216,2|8,0:0|0:0,0:0:0:0:
456,200,110518,2,0,L|472:144,2,36,2|0|0,0:0|0:0|0:0,0:0:0:0:
408,200,110687,1,0,0:0:0:0:
248,200,110859,2,0,L|376:200,1,108,10|0,0:0|0:0,0:0:0:0:
96,192,111199,5,6,0:0:0:0:
96,192,111540,2,0,L|96:72,1,108
256,80,111881,2,0,L|136:80,1,108,2|0,0:0|0:0,0:0:0:0:
304,192,112221,1,0,0:0:0:0:
144,80,112393,2,0,P|72:152|160:200,1,216,4|0,0:0|0:0,0:0:0:0:
304,312,112904,2,0,L|176:312,1,108
352,240,113244,1,2,0:0:0:0:
368,240,113265,1,0,0:0:0:0:
360,152,113586,2,0,L|472:152,1,108
312,64,113926,5,2,0:0:0:0:
312,172,114268,2,0,L|312:52,1,108
152,232,114609,2,0,L|264:232,1,108,2|0,0:0|0:0,0:0:0:0:
104,144,114949,1,0,0:0:0:0:
256,120,115120,2,0,L|472:96,1,216,4|0,0:0|0:0,0:0:0:0:
312,304,115631,2,0,L|432:304,1,108
264,240,115971,1,2,0:0:0:0:
248,240,115992,1,0,0:0:0:0:
256,144,116313,2,0,L|120:144,1,108
304,72,116653,5,2,0:0:0:0:
304,72,116995,2,0,L|176:72,1,108
368,304,117336,2,0,L|368:176,1,108,2|0,0:0|0:0,0:0:0:0:
200,192,117676,1,0,0:0:0:0:
368,160,117847,2,0,L|112:160,1,216,4|0,0:0|0:0,0:0:0:0:
320,88,118359,2,0,L|456:88,1,108
160,240,118699,1,4,0:0:0:0:
144,240,118720,1,0,0:0:0:0:
152,352,119040,2,0,L|16:352,1,108
328,344,119381,5,2,0:0:0:0:
328,344,119722,2,0,L|472:344,1,108
264,280,120063,2,0,L|264:152,1,108,2|0,0:0|0:0,0:0:0:0:
432,168,120403,1,0,0:0:0:0:
264,72,120574,2,0,L|504:72,1,216,4|0,0:0|0:0,0:0:0:0:
304,176,121086,2,0,L|168:176,1,108
464,328,121426,1,2,0:0:0:0:
480,328,121448,2,0,L|480:120,1,202.5
376,120,121937,1,0,0:0:0:0:
40,288,122109,6,0,L|40:160,1,108,6|0,0:0|0:0,0:0:0:0:
208,192,122449,2,0,L|208:64,1,108,2|0,0:0|0:0,0:0:0:0:
376,160,122790,2,0,L|376:40,1,108,2|0,0:0|0:0,0:0:0:0:
292,56,123046,1,0,0:0:0:0:
208,192,123131,2,0,L|320:192,1,108,2|0,0:0|0:0,0:0:0:0:
40,296,123472,6,0,L|40:176,1,108,2|0,0:0|0:0,0:0:0:0:
208,192,123813,2,0,L|208:64,1,108,2|0,0:0|0:0,0:0:0:0:
376,288,124154,2,0,L|496:288,1,108,2|0,0:0|0:0,0:0:0:0:
400,224,124409,1,0,0:0:0:0:
316,224,124495,2,0,L|184:224,1,108,2|0,0:0|0:0,0:0:0:0:
476,168,124836,6,0,L|476:60,1,108,2|0,0:0|0:0,0:0:0:0:
392,64,125092,1,0,0:0:0:0:
308,64,125177,2,0,L|184:64,1,108,2|0,0:0|0:0,0:0:0:0:
116,168,125433,1,0,0:0:0:0:
200,168,125518,2,0,L|332:168,1,108,2|0,0:0|0:0,0:0:0:0:
396,168,125774,1,0,0:0:0:0:
312,272,125859,2,0,L|436:272,1,108,2|0,0:0|0:0,0:0:0:0:
336,212,126114,1,0,0:0:0:0:
152,312,126199,6,0,L|32:312,1,108,2|0,0:0|0:0,0:0:0:0:
128,240,126455,1,0,0:0:0:0:
44,208,126541,1,2,0:0:0:0:
200,144,126711,1,0,0:0:0:0:
280,144,126796,1,0,0:0:0:0:
200,144,126881,2,0,L|200:24,1,108,2|0,0:0|0:0,0:0:0:0:
284,36,127137,1,0,0:0:0:0:
372,40,127222,2,0,L|508:40,1,108,2|0,0:0|0:0,0:0:0:0:
204,316,127563,6,0,L|204:204,1,108,2|0,0:0|0:0,0:0:0:0:
116,204,127819,1,0,0:0:0:0:
204,188,127904,2,0,L|356:188,1,108,2|0,0:0|0:0,0:0:0:0:
228,116,128160,1,0,0:0:0:0:
140,108,128245,2,0,L|28:108,1,108,2|0,0:0|0:0,0:0:0:0:
116,68,128501,1,0,0:0:0:0:
204,60,128586,2,0,L|324:60,1,108,2|0,0:0|0:0,0:0:0:0:
396,60,128842,1,0,0:0:0:0:
172,360,128927,6,0,L|172:248,1,108,2|0,0:0|0:0,0:0:0:0:
256,256,129183,1,0,0:0:0:0:
344,248,129268,2,0,L|464:248,1,108,2|0,0:0|0:0,0:0:0:0:
368,208,129524,1,0,0:0:0:0:
280,200,129609,2,0,L|280:80,1,108,2|0,0:0|0:0,0:0:0:0:
360,88,129864,1,0,0:0:0:0:
440,88,129949,2,0,L|440:208,1,108,2|0,0:0|0:0,0:0:0:0:
360,88,130205,1,0,0:0:0:0:
144,256,130290,6,0,L|144:184,1,54,2|0,0:0|0:0,0:0:0:0:
232,200,130461,2,0,L|232:136,1,54,2|0,0:0|0:0,0:0:0:0:
48,168,130631,2,0,L|24:112,2,54,2|0|2,0:0|0:0|0:0,0:0:0:0:
120,168,130887,1,0,0:0:0:0:
304,336,130972,6,0,L|304:264,1,54,2|0,0:0|0:0,0:0:0:0:
216,280,131143,2,0,L|216:216,1,54,2|0,0:0|0:0,0:0:0:0:
400,100,131313,1,2,0:0:0:0:
336,96,131398,1,0,0:0:0:0:
272,88,131484,1,2,0:0:0:0:
208,80,131568,1,0,0:0:0:0:
480,264,131654,5,4,0:0:0:0:
208,208,131825,1,0,0:0:0:0:
56,168,131995,2,0,L|40:121,2,27,2|2|2,0:0|0:0|0:0,0:0:0:0:
104,248,132166,1,0,0:0:0:0:
264,184,132336,2,0,L|280:136,2,36,8|0|0,0:0|0:0|0:0,0:0:0:0:
216,264,132507,1,0,0:0:0:0:
496,296,132677,6,0,B|236:296|236:296|8:296,1,475.200014501954,10|6,0:0|0:0,0:0:0:0:
40,296,133039,1,0,0:0:0:0:
328,224,133359,1,0,0:0:0:0:
168,224,133529,1,0,0:0:0:0:
408,192,133700,1,8,0:0:0:0:
496,192,133721,2,0,L|496:80,1,103.950003172302
224,88,134041,1,2,0:0:0:0:
472,40,134211,5,2,0:0:0:0:
488,40,134232,2,0,P|388:116|504:200,1,303.750011587143
204,316,134722,1,2,0:0:0:0:
220,316,134744,2,0,L|500:316,1,264.599991925049
208,236,135063,1,8,0:0:0:0:
112,236,135085,2,0,L|112:132,1,103.950003172302
280,52,135404,2,0,L|144:52,1,118.800003625488,2|0,0:0|0:0,0:0:0:0:
88,52,135660,1,0,0:0:0:0:
348,176,135745,5,2,0:0:0:0:
332,184,135766,2,0,B|12:184,1,303.750011587143
132,112,136257,1,0,0:0:0:0:
408,304,136427,1,8,0:0:0:0:
496,304,136448,2,0,L|496:192,1,103.950003172302
332,192,136768,1,2,0:0:0:0:
80,80,136938,5,2,0:0:0:0:
64,80,136960,2,0,L|376:80,1,303.750011587143
188,176,137450,1,2,0:0:0:0:
204,176,137471,2,0,L|468:176,1,264.599991925049
136,312,137791,1,8,0:0:0:0:
48,312,137812,2,0,L|48:200,1,103.950003172302
208,208,138132,1,2,0:0:0:0:
224,208,138153,1,0,0:0:0:0:
80,112,138302,2,0,L|152:112,1,59.4000018127442
384,240,138472,5,2,0:0:0:0:
368,240,138494,2,0,L|56:240,1,303.750011587143
160,160,138984,1,0,0:0:0:0:
400,160,139154,1,8,0:0:0:0:
496,160,139176,2,0,L|496:272,1,103.950003172302
256,256,139495,1,2,0:0:0:0:
16,256,139666,5,2,0:0:0:0:
32,256,139687,2,0,L|336:256,1,303.750011587143
16,160,140177,1,2,0:0:0:0:
32,160,140198,2,0,L|320:160,1,264.599991925049,0|2,0:0|0:0,0:0:0:0:
284,100,140390,1,0,0:0:0:0:
248,72,140433,1,0,0:0:0:0:
400,236,140518,1,8,0:0:0:0:
488,236,140539,2,0,P|508:206|497:141,1,103.950003172302
248,304,140859,2,0,L|248:232,1,59.4000018127442,2|0,0:0|0:0,0:0:0:0:
340,216,141029,2,0,L|340:148,1,59.4000018127442
88,100,141200,5,2,0:0:0:0:
104,100,141221,2,0,B|75:255|75:255|237:256,1,303.750011587143,0|2,0:0|0:0,0:0:0:0:
128,196,141711,1,0,0:0:0:0:
384,312,141882,1,8,0:0:0:0:
472,312,141903,2,0,L|472:200,1,103.950003172302
204,200,142222,1,2,0:0:0:0:
480,88,142393,5,2,0:0:0:0:
464,88,142414,2,0,B|144:88,1,303.750011587143
432,296,142904,1,2,0:0:0:0:
416,296,142926,2,0,L|136:296,1,264.599991925049
400,208,143245,1,8,0:0:0:0:
488,208,143266,2,0,L|488:96,1,103.950003172302
216,208,143586,1,10,0:0:0:0:
200,208,143607,2,0,L|200:104,1,103.950003172302
296,96,143842,1,0,0:0:0:0:
56,328,143927,5,6,0:0:0:0:
72,328,143948,2,0,P|152:248|72:96,1,303.750011587143
228,80,144438,2,0,L|152:80,1,59.4000018127442
384,160,144609,1,8,0:0:0:0:
472,160,144630,2,0,L|472:264,1,103.950003172302
192,272,144950,2,0,L|104:272,1,59.4000018127442,2|0,0:0|0:0,0:0:0:0:
336,200,145120,5,2,0:0:0:0:
320,200,145141,2,0,L|16:200,1,303.750011587143
72,140,145546,1,0,0:0:0:0:
288,120,145632,2,0,L|368:120,1,59.4000018127442,2|0,0:0|0:0,0:0:0:0:
128,64,145802,2,0,L|192:64,1,59.4000018127442
368,272,145972,5,8,0:0:0:0:
464,272,145994,2,0,L|464:168,1,103.950003172302
392,152,146228,1,0,0:0:0:0:
276,180,146313,2,0,L|337:180,1,59.4000018127442,2|0,0:0|0:0,0:0:0:0:
239,53,146484,2,0,L|239:134,1,59.4000018127442
464,336,146654,5,2,0:0:0:0:
448,336,146676,2,0,L|144:336,1,303.750011587143
84,336,147080,1,0,0:0:0:0:
144,336,147166,1,0,0:0:0:0:
84,336,147251,1,0,0:0:0:0:
284,232,147336,1,8,0:0:0:0:
372,240,147357,2,0,L|372:128,1,103.950003172302
192,88,147677,2,0,L|120:88,1,59.4000018127442,2|0,0:0|0:0,0:0:0:0:
364,284,147847,5,2,0:0:0:0:
380,284,147869,2,0,L|72:284,1,303.750011587143
136,232,148274,1,0,0:0:0:0:
352,92,148359,2,0,L|280:92,1,59.4000018127442,2|0,0:0|0:0,0:0:0:0:
80,136,148529,2,0,L|8:136,1,59.4000018127442
228,288,148700,5,8,0:0:0:0:
316,288,148721,2,0,L|316:184,1,103.950003172302
240,144,148955,1,0,0:0:0:0:
360,116,149041,2,0,L|360:44,1,59.4000018127442,2|0,0:0|0:0,0:0:0:0:
264,68,149211,2,0,L|264:4,1,59.4000018127442
16,232,149382,5,2,0:0:0:0:
32,232,149404,2,0,L|344:232,1,303.750011587143
268,196,149808,1,0,0:0:0:0:
200,188,149893,1,0,0:0:0:0:
132,180,149978,1,0,0:0:0:0:
336,192,150063,5,8,0:0:0:0:
424,192,150084,2,0,L|424:88,1,103.950003172302
352,80,150319,1,0,0:0:0:0:
128,88,150404,1,2,0:0:0:0:
408,280,150575,5,2,0:0:0:0:
392,280,150597,2,0,L|80:280,1,303.750011587143
88,232,151001,1,0,0:0:0:0:
280,168,151086,2,0,L|376:168,1,59.4000018127442,2|0,0:0|0:0,0:0:0:0:
152,152,151257,2,0,L|120:152,1,29.7000009063721,2|0,0:0|0:0,0:0:0:0:
92,152,151341,1,0,0:0:0:0:
304,144,151427,5,8,0:0:0:0:
392,144,151448,2,0,L|392:40,1,103.950003172302
156,256,151768,2,0,L|84:256,1,59.4000018127442,2|0,0:0|0:0,0:0:0:0:
192,184,151938,2,0,L|128:184,1,59.4000018127442
376,40,152109,5,2,0:0:0:0:
392,40,152130,2,0,L|80:40,1,303.750011587143,0|2,0:0|0:0,0:0:0:0:
48,92,152535,1,0,0:0:0:0:
88,40,152620,1,0,0:0:0:0:
168,40,152705,1,0,0:0:0:0:
376,228,152791,1,8,0:0:0:0:
464,228,152812,2,0,L|464:116,1,103.950003172302
392,124,153046,1,0,0:0:0:0:
168,124,153131,1,2,0:0:0:0:
464,272,153302,5,2,0:0:0:0:
448,272,153323,2,0,L|136:272,1,303.750011587143
84,272,153728,1,0,0:0:0:0:
280,212,153813,2,0,L|280:140,1,59.4000018127442,2|0,0:0|0:0,0:0:0:0:
484,84,153984,2,0,L|412:84,1,59.4000018127442
216,56,154154,5,8,0:0:0:0:
128,56,154175,1,0,0:0:0:0:
174,159,154325,1,0,0:0:0:0:
115,183,154410,1,0,0:0:0:0:
174,223,154495,1,10,0:0:0:0:
115,269,154580,1,0,0:0:0:0:
174,289,154665,1,0,0:0:0:0:
444,208,154836,6,0,L|443:149,2,59.4000018127442,6|0|0,0:0|0:0|0:0,0:0:0:0:
292,208,155177,1,0,0:0:0:0:
444,208,155347,1,0,0:0:0:0:
196,288,155518,1,8,0:0:0:0:
108,288,155539,2,0,L|108:176,1,103.950003172302
172,168,155773,1,0,0:0:0:0:
404,168,155859,1,2,0:0:0:0:
164,88,156029,1,2,0:0:0:0:
180,88,156050,1,0,0:0:0:0:
404,88,156199,6,0,L|404:216,1,118.800003625488,4|0,0:0|0:0,0:0:0:0:
324,208,156455,1,0,0:0:0:0:
100,316,156540,2,0,L|100:188,1,118.800003625488,2|0,0:0|0:0,0:0:0:0:
172,168,156796,1,0,0:0:0:0:
380,328,156881,1,8,0:0:0:0:
476,328,156903,2,0,L|476:216,1,103.950003172302
408,196,157137,1,0,0:0:0:0:
200,192,157222,2,0,L|200:112,1,59.4000018127442,2|0,0:0|0:0,0:0:0:0:
296,128,157393,2,0,L|296:48,1,59.4000018127442
44,256,157563,6,0,L|44:128,1,118.800003625488,2|0,0:0|0:0,0:0:0:0:
116,96,157819,1,0,0:0:0:0:
308,200,157904,2,0,L|428:200,1,118.800003625488
348,132,158160,1,0,0:0:0:0:
136,328,158245,1,8,0:0:0:0:
40,328,158267,2,0,L|40:216,1,103.950003172302
112,188,158501,1,0,0:0:0:0:
348,64,158586,1,2,0:0:0:0:
108,72,158756,1,2,0:0:0:0:
124,72,158777,1,0,0:0:0:0:
348,148,158927,6,0,L|348:288,1,118.800003625488,2|0,0:0|0:0,0:0:0:0:
276,264,159182,1,0,0:0:0:0:
472,332,159268,2,0,L|344:332,1,118.800003625488,2|0,0:0|0:0,0:0:0:0:
424,268,159523,1,0,0:0:0:0:
212,180,159609,1,8,0:0:0:0:
116,180,159631,2,0,L|116:68,1,103.950003172302
192,56,159864,1,0,0:0:0:0:
408,80,159949,1,2,0:0:0:0:
392,80,159970,1,0,0:0:0:0:
164,280,160120,1,0,0:0:0:0:
420,308,160290,6,0,L|492:308,2,59.4000018127442,2|0|0,0:0|0:0|0:0,0:0:0:0:
272,292,160631,1,0,0:0:0:0:
124,276,160802,1,0,0:0:0:0:
384,208,160972,1,8,0:0:0:0:
472,208,160993,2,0,L|472:96,1,103.950003172302
408,88,161227,1,0,0:0:0:0:
176,88,161313,1,2,0:0:0:0:
420,208,161484,1,2,0:0:0:0:
404,208,161505,1,0,0:0:0:0:
168,212,161654,6,0,L|28:212,1,118.800003625488,4|0,0:0|0:0,0:0:0:0:
124,152,161910,1,0,0:0:0:0:
328,328,161995,2,0,L|204:328,1,118.800003625488,2|2,0:0|0:0,0:0:0:0:
136,328,162251,1,0,0:0:0:0:
344,144,162336,1,8,0:0:0:0:
440,144,162358,2,0,L|440:32,1,103.950003172302
364,40,162591,1,0,0:0:0:0:
156,88,162677,1,2,0:0:0:0:
120,128,162762,1,0,0:0:0:0:
156,88,162847,1,0,0:0:0:0:
236,80,162932,1,0,0:0:0:0:
476,336,163018,6,0,L|348:336,1,118.800003625488,2|0,0:0|0:0,0:0:0:0:
428,280,163273,1,0,0:0:0:0:
224,248,163359,2,0,L|84:248,1,118.800003625488,2|0,0:0|0:0,0:0:0:0:
184,192,163614,1,0,0:0:0:0:
392,184,163699,1,8,0:0:0:0:
488,184,163721,2,0,L|488:72,1,103.950003172302
412,64,163955,1,0,0:0:0:0:
180,56,164040,1,2,0:0:0:0:
424,124,164211,1,2,0:0:0:0:
408,124,164232,1,0,0:0:0:0:
168,152,164381,6,0,L|32:152,1,118.800003625488,2|0,0:0|0:0,0:0:0:0:
332,56,164722,2,0,L|468:56,1,118.800003625488,2|0,0:0|0:0,0:0:0:0:
140,288,165063,1,8,0:0:0:0:
44,288,165085,2,0,L|44:176,1,103.950003172302
120,164,165319,1,0,0:0:0:0:
360,212,165404,1,8,0:0:0:0:
484,208,165447,1,0,0:0:0:0:
44,324,165745,6,0,L|44:256,2,59.4000018127442,6|0|0,0:0|0:0|0:0,0:0:0:0:
192,224,166086,1,0,0:0:0:0:
44,324,166256,1,0,0:0:0:0:
320,272,166427,1,8,0:0:0:0:
408,272,166448,2,0,L|408:160,1,103.950003172302
344,152,166682,1,0,0:0:0:0:
112,152,166768,1,2,0:0:0:0:
364,64,166938,1,2,0:0:0:0:
348,64,166959,1,0,0:0:0:0:
100,192,167109,6,0,L|100:324,1,118.800003625488,4|0,0:0|0:0,0:0:0:0:
172,308,167364,1,0,0:0:0:0:
380,228,167449,1,2,0:0:0:0:
412,168,167535,1,0,0:0:0:0:
380,228,167620,1,0,0:0:0:0:
308,228,167705,1,0,0:0:0:0:
116,156,167790,1,8,0:0:0:0:
28,156,167811,2,0,L|28:44,1,103.950003172302
104,40,168046,1,0,0:0:0:0:
304,168,168131,2,0,L|304:96,1,59.4000018127442,2|2,0:0|0:0,0:0:0:0:
208,104,168302,2,0,L|208:28,1,59.4000018127442,2|2,0:0|0:0,0:0:0:0:
444,312,168472,6,0,L|444:180,1,118.800003625488,2|0,0:0|0:0,0:0:0:0:
372,160,168728,1,0,0:0:0:0:
124,256,168813,2,0,L|248:256,1,118.800003625488,2|0,0:0|0:0,0:0:0:0:
176,196,169069,1,0,0:0:0:0:
356,328,169154,1,8,0:0:0:0:
444,328,169175,2,0,L|444:216,1,103.950003172302
368,212,169410,1,0,0:0:0:0:
144,136,169495,2,0,L|228:136,1,59.4000018127442,2|0,0:0|0:0,0:0:0:0:
400,80,169665,1,2,0:0:0:0:
384,80,169686,1,0,0:0:0:0:
104,100,169836,6,0,L|104:236,1,118.800003625488,4|0,0:0|0:0,0:0:0:0:
180,224,170091,1,0,0:0:0:0:
388,336,170177,2,0,L|264:336,1,118.800003625488,2|0,0:0|0:0,0:0:0:0:
336,268,170432,1,0,0:0:0:0:
128,272,170518,1,8,0:0:0:0:
40,272,170539,2,0,L|40:160,1,103.950003172302
112,140,170773,1,0,0:0:0:0:
316,112,170859,2,0,L|396:112,1,59.4000018127442,2|0,0:0|0:0,0:0:0:0:
172,64,171029,2,0,L|92:64,1,59.4000018127442
368,296,171199,6,0,L|500:296,1,118.800003625488,2|0,0:0|0:0,0:0:0:0:
412,252,171455,1,0,0:0:0:0:
192,216,171540,2,0,L|48:216,1,118.800003625488
148,164,171796,1,0,0:0:0:0:
364,140,171881,1,8,0:0:0:0:
452,140,171902,2,0,L|452:28,1,103.950003172302
376,24,172137,1,0,0:0:0:0:
172,80,172222,2,0,L|88:80,1,59.4000018127442,2|0,0:0|0:0,0:0:0:0:
336,256,172393,1,2,0:0:0:0:
352,256,172414,1,0,0:0:0:0:
112,336,172563,6,0,L|240:336,1,118.800003625488,4|0,0:0|0:0,0:0:0:0:
156,284,172819,1,0,0:0:0:0:
368,336,172904,2,0,L|368:196,1,118.800003625488,2|0,0:0|0:0,0:0:0:0:
292,208,173160,1,0,0:0:0:0:
112,176,173245,1,8,0:0:0:0:
24,176,173266,2,0,L|24:64,1,103.950003172302
96,52,173501,1,0,0:0:0:0:
308,80,173586,2,0,L|380:80,1,59.4000018127442,2|0,0:0|0:0,0:0:0:0:
308,80,173756,2,0,L|380:80,1,59.4000018127442,2|0,0:0|0:0,0:0:0:0:
140,260,173927,6,0,L|12:260,1,118.800003625488,2|0,0:0|0:0,0:0:0:0:
92,200,174182,1,0,0:0:0:0:
332,320,174268,2,0,L|200:320,1,118.800003625488,2|2,0:0|0:0,0:0:0:0:
144,316,174523,1,2,0:0:0:0:
400,176,174609,1,8,0:0:0:0:
488,176,174630,2,0,L|488:64,1,103.950003172302
416,48,174864,1,0,0:0:0:0:
204,120,174949,2,0,L|276:120,1,59.4000018127442,2|0,0:0|0:0,0:0:0:0:
40,196,175120,1,2,0:0:0:0:
24,196,175141,1,0,0:0:0:0:
284,336,175290,6,0,L|352:336,1,59.4000018127442,4|0,0:0|0:0,0:0:0:0:
256,252,175461,2,0,L|176:252,1,59.4000018127442
440,104,175631,1,2,0:0:0:0:
472,40,175716,1,0,0:0:0:0:
440,104,175802,1,0,0:0:0:0:
356,104,175887,1,0,0:0:0:0:
140,96,175972,1,8,0:0:0:0:
20,96,175993,1,0,0:0:0:0:
320,312,176143,2,0,L|396:312,1,59.4000018127442
156,208,176313,2,0,L|64:208,1,59.4000018127442,4|0,0:0|0:0,0:0:0:0:
348,140,176484,2,0,L|424:140,1,59.4000018127442
124,40,176654,5,2,0:0:0:0:
