osu file format v14

[General]
AudioFilename: audio.mp3
AudioLeadIn: 0
PreviewTime: 132975
Countdown: 0
SampleSet: Soft
StackLeniency: 0.7
Mode: 2
LetterboxInBreaks: 0
WidescreenStoryboard: 1

[Editor]
Bookmarks: 2109,13018,23927,34836,45745,56654,67563,78472,89381,100290,111199,122109,133018,143927,154836,165745,176654
DistanceSpacing: 1
BeatDivisor: 2
GridSize: 4
TimelineZoom: 2.4

[Metadata]
Title:wasurena feat. Sennzai
TitleUnicode:勿忘 feat. Sennzai
Artist:tokiwa
ArtistUnicode:常盤
Creator:Sanyi
Version:Souvenir's Cup
Source:
Tags:souvenir jbhyperion jbh hyperion fa featured artist mg mappers' guild japanese electronic
BeatmapID:3344285
BeatmapSetID:1638487

[Difficulty]
HPDrainRate:2
CircleSize:2.6
OverallDifficulty:6
ApproachRate:6
SliderMultiplier:1.26
SliderTickRate:1

[Events]
//Background and Video events
0,0,"bg.jpg",0,0
//Break Periods
2,67763,71968
//Storyboard Layer 0 (Background)
//Storyboard Layer 1 (Fail)
//Storyboard Layer 2 (Pass)
//Storyboard Layer 3 (Foreground)
//Storyboard Layer 4 (Overlay)
//Storyboard Sound Samples

[TimingPoints]
2109,340.909090909091,4,2,1,40,1,0
12677,-100,4,2,1,5,0,0
13018,-100,4,2,1,40,0,0
17790,-100,4,2,7,40,0,0
18131,-100,4,2,1,40,0,0
23245,-100,4,3,1,50,0,0
23586,-100,4,2,7,60,0,0
23927,-100,4,2,2,60,0,0
24097,-100,4,2,1,60,0,0
25120,-100,4,2,7,60,0,0
25290,-100,4,2,1,60,0,0
25972,-100,4,2,1,80,0,0
26143,-100,4,2,1,60,0,0
27847,-100,4,2,7,60,0,0
28017,-100,4,2,1,60,0,0
28699,-100,4,2,1,80,0,0
28870,-100,4,2,1,60,0,0
30574,-100,4,2,7,60,0,0
30744,-100,4,2,1,60,0,0
31427,-100,4,2,7,60,0,0
31597,-100,4,2,1,60,0,0
32109,-100,4,2,1,80,0,0
32280,-100,4,2,1,60,0,0
33302,-100,4,2,7,60,0,0
33472,-100,4,2,1,60,0,0
34154,-100,4,2,1,80,0,0
34325,-100,4,2,1,60,0,0
34836,-100,4,2,2,60,0,0
44381,-100,4,3,2,60,0,0
45404,-100,4,2,7,60,0,0
45745,-100,4,2,3,70,0,1
46768,-100,4,2,1,80,0,1
46938,-100,4,2,3,70,0,1
48131,-100,4,2,1,80,0,1
48301,-100,4,2,3,70,0,1
49495,-100,4,2,1,80,0,1
49665,-100,4,2,3,70,0,1
52222,-100,4,2,1,80,0,1
52392,-100,4,2,3,70,0,1
53074,-100,4,2,1,80,0,1
53244,-100,4,2,3,70,0,1
53586,-100,4,2,1,80,0,1
53756,-100,4,2,3,70,0,1
54268,-100,4,2,1,80,0,1
54438,-100,4,2,3,70,0,1
54949,-100,4,2,1,80,0,1
55119,-100,4,2,3,70,0,1
56313,-100,4,2,7,70,0,0
56654,-100,4,2,3,70,0,1
57677,-100,4,2,1,80,0,1
57847,-100,4,2,3,70,0,1
59040,-100,4,2,1,80,0,1
59210,-100,4,2,3,70,0,1
60404,-100,4,2,1,80,0,1
60574,-100,4,2,3,70,0,1
63131,-100,4,2,1,80,0,1
63301,-100,4,2,3,70,0,1
63984,-100,4,2,1,80,0,1
64154,-100,4,2,3,70,0,1
64495,-100,4,2,1,80,0,1
64665,-100,4,2,3,70,0,1
65177,-100,4,2,1,80,0,1
65347,-100,4,2,3,70,0,1
65859,-100,4,2,1,80,0,1
66029,-100,4,2,3,70,0,1
67222,-100,4,2,7,70,0,1
67563,-100,4,3,2,80,0,0
67734,-100,4,2,1,40,0,0
73018,-100,4,2,1,35,0,0
78472,-100,4,2,1,50,0,0
79154,-100,4,3,2,50,0,0
79324,-100,4,2,1,50,0,0
80518,-100,4,3,2,50,0,0
80688,-100,4,2,1,50,0,0
81881,-100,4,3,2,50,0,0
82051,-100,4,2,1,50,0,0
83245,-100,4,3,2,50,0,0
83415,-100,4,2,1,50,0,0
85290,-100,4,3,2,50,0,0
85460,-100,4,2,1,50,0,0
88018,-100,4,3,2,50,0,0
88188,-100,4,2,1,50,0,0
99949,-100,4,2,1,5,0,0
100290,-100,4,2,1,50,0,0
110518,-100,4,3,1,50,0,0
110859,-100,4,2,7,60,0,0
111200,-100,4,2,2,60,0,0
111370,-100,4,2,1,60,0,0
112393,-100,4,2,7,60,0,0
112563,-100,4,2,1,60,0,0
113245,-100,4,2,1,80,0,0
113416,-100,4,2,1,60,0,0
115120,-100,4,2,7,60,0,0
115290,-100,4,2,1,60,0,0
115972,-100,4,2,1,80,0,0
116143,-100,4,2,1,60,0,0
117847,-100,4,2,7,60,0,0
118017,-100,4,2,1,60,0,0
118700,-100,4,2,7,60,0,0
118870,-100,4,2,1,60,0,0
119382,-100,4,2,1,80,0,0
119553,-100,4,2,1,60,0,0
120575,-100,4,2,7,60,0,0
120745,-100,4,2,1,60,0,0
121427,-100,4,2,1,80,0,0
121598,-100,4,2,1,60,0,0
122109,-100,4,2,2,70,0,0
131654,-100,4,3,2,60,0,0
132677,-100,4,2,7,60,0,0
133018,-100,4,2,3,80,0,1
134040,-100,4,2,1,90,0,1
134210,-100,4,2,3,80,0,1
135403,-100,4,2,1,90,0,1
135573,-100,4,2,3,80,0,1
136767,-100,4,2,1,90,0,1
136937,-100,4,2,3,80,0,1
139494,-100,4,2,1,90,0,1
139664,-100,4,2,3,80,0,1
140346,-100,4,2,1,90,0,1
140516,-100,4,2,3,80,0,1
140858,-100,4,2,1,90,0,1
141028,-100,4,2,3,80,0,1
141540,-100,4,2,1,90,0,1
141710,-100,4,2,3,80,0,1
142221,-100,4,2,1,90,0,1
142391,-100,4,2,3,80,0,1
143586,-100,4,2,7,80,0,0
143927,-100,4,2,3,80,0,1
144949,-100,4,2,1,90,0,1
145119,-100,4,2,3,80,0,1
146312,-100,4,2,1,90,0,1
146482,-100,4,2,3,80,0,1
147676,-100,4,2,1,90,0,1
147846,-100,4,2,3,80,0,1
150403,-100,4,2,1,90,0,1
150573,-100,4,2,3,80,0,1
151256,-100,4,2,1,90,0,1
151426,-100,4,2,3,80,0,1
151767,-100,4,2,1,90,0,1
151937,-100,4,2,3,80,0,1
152449,-100,4,2,1,90,0,1
152619,-100,4,2,3,80,0,1
153131,-100,4,2,1,90,0,1
153301,-100,4,2,3,80,0,1
154495,-100,4,2,7,80,0,0
154836,-100,4,2,3,80,0,1
155859,-100,4,2,1,90,0,1
156029,-100,4,2,3,80,0,1
156199,-100,4,2,1,90,0,1
156370,-100,4,2,3,80,0,1
157222,-100,4,2,1,90,0,1
157392,-100,4,2,3,80,0,1
158586,-100,4,2,1,90,0,1
158756,-100,4,2,3,80,0,1
158927,-100,4,2,1,90,0,1
159097,-100,4,2,3,80,0,1
161313,-100,4,2,1,90,0,1
161483,-100,4,2,3,80,0,1
161654,-100,4,2,1,90,0,1
161824,-100,4,2,3,80,0,1
162165,-100,4,2,1,90,0,1
162335,-100,4,2,3,80,0,1
162677,-100,4,2,1,90,0,1
162847,-100,4,2,3,80,0,1
163359,-100,4,2,1,90,0,1
163529,-100,4,2,3,80,0,1
164040,-100,4,2,1,90,0,1
164210,-100,4,2,3,80,0,1
164381,-100,4,2,1,90,0,1
164552,-100,4,2,3,80,0,1
165404,-100,4,3,2,80,0,0
165745,-100,4,2,3,80,0,1
166768,-100,4,2,1,90,0,1
166938,-100,4,2,3,80,0,1
167108,-100,4,2,1,90,0,1
167279,-100,4,2,3,80,0,1
168131,-100,4,2,1,90,0,1
168472,-100,4,2,3,80,0,1
168813,-100,4,2,1,90,0,1
168984,-100,4,2,3,80,0,1
169495,-100,4,2,1,90,0,1
169665,-100,4,2,3,80,0,1
169836,-100,4,2,1,90,0,1
170006,-100,4,2,3,80,0,1
172222,-100,4,2,1,90,0,1
172392,-100,4,2,3,80,0,1
172563,-100,4,2,1,90,0,1
172733,-100,4,2,3,80,0,1
173074,-100,4,2,1,90,0,1
173244,-100,4,2,3,80,0,1
173586,-100,4,2,1,90,0,1
173756,-100,4,2,3,80,0,1
174268,-100,4,2,1,90,0,1
174609,-100,4,2,3,80,0,1
174949,-100,4,2,1,90,0,1
175119,-100,4,2,3,80,0,1
175290,-100,4,2,1,90,0,1
175461,-100,4,2,3,80,0,1
176313,-100,4,3,2,80,0,1
176654,-100,4,2,1,80,0,0

[Colours]
Combo1 : 159,159,159
Combo2 : 0,128,192

[HitObjects]
144,176,2109,5,4,0:0:0:0:
256,176,2790,1,2,0:0:0:0:
368,176,3472,6,0,P|432:192|352:304,1,252,2|0,0:0|0:0,0:0:0:0:
256,288,4495,1,0,0:0:0:0:
368,176,4836,5,4,0:0:0:0:
256,288,5518,1,2,0:0:0:0:
144,176,6199,6,0,P|80:192|160:304,1,252,2|0,0:0|0:0,0:0:0:0:
368,192,7563,5,4,0:0:0:0:
256,176,8245,1,2,0:0:0:0:
368,192,8927,6,0,L|128:64,1,252,2|0,0:0|0:0,0:0:0:0:
256,64,9949,1,0,0:0:0:0:
144,192,10290,5,4,0:0:0:0:
256,64,10972,1,2,0:0:0:0:
144,192,11654,6,0,L|384:64,1,252,2|0,0:0|0:0,0:0:0:0:
96,96,13018,6,0,L|96:240,1,126,4|0,0:0|0:0,0:0:0:0:
224,192,13699,2,0,L|224:336,1,126,2|8,0:0|0:0,0:0:0:0:
368,336,14381,6,0,P|384:240|240:192,1,252,2|0,0:0|0:0,0:0:0:0:
256,80,15404,1,2,0:0:0:0:
400,64,15745,6,0,L|400:208,1,126,4|0,0:0|0:0,0:0:0:0:
272,176,16427,2,0,L|272:320,1,126,2|8,0:0|0:0,0:0:0:0:
128,304,17109,6,0,L|256:288,1,126,2|8,0:0|0:0,0:0:0:0:
128,256,17790,2,0,L|128:112,1,126,4|0,0:0|0:0,0:0:0:0:
272,64,18472,5,4,0:0:0:0:
336,80,18813,1,0,0:0:0:0:
272,64,19154,1,2,0:0:0:0:
128,64,19495,1,8,0:0:0:0:
288,112,19836,6,0,L|296:264,1,126,2|0,0:0|0:0,0:0:0:0:
152,208,20518,2,0,L|144:368,1,126,2|0,0:0|0:0,0:0:0:0:
304,312,21199,5,4,0:0:0:0:
240,264,21540,1,0,0:0:0:0:
304,312,21881,1,2,0:0:0:0:
440,312,22222,1,8,0:0:0:0:
288,256,22563,6,0,B|280:128|280:128|424:128,1,252,2|2,0:0|0:0,0:0:0:0:
408,80,23415,1,0,0:0:0:0:
412,32,23586,1,10,0:0:0:0:
248,32,23927,6,0,L|240:168,1,126,6|0,0:0|0:0,0:0:0:0:
336,184,24609,1,2,0:0:0:0:
488,248,24949,2,0,L|488:176,1,63,0|4,0:0|0:0,0:0:0:0:
360,160,25461,5,0,0:0:0:0:
328,104,25631,1,0,0:0:0:0:
360,160,25802,1,0,0:0:0:0:
432,160,25972,1,2,0:0:0:0:
432,160,26313,1,2,0:0:0:0:
272,256,26654,6,0,L|128:248,1,126,2|0,0:0|0:0,0:0:0:0:
240,200,27336,1,2,0:0:0:0:
88,168,27677,2,0,L|88:104,1,63,0|4,0:0|0:0,0:0:0:0:
216,96,28188,6,0,L|296:88,1,63,0|2,0:0|0:0,0:0:0:0:
216,56,28529,2,0,L|144:48,1,63,0|2,0:0|0:0,0:0:0:0:
152,48,29040,1,0,0:0:0:0:
304,136,29381,6,0,L|312:272,1,126,2|0,0:0|0:0,0:0:0:0:
216,288,30063,1,2,0:0:0:0:
64,272,30404,2,0,L|144:272,1,63,0|4,0:0|0:0,0:0:0:0:
272,200,30915,5,0,0:0:0:0:
304,144,31086,1,2,0:0:0:0:
272,200,31256,1,0,0:0:0:0:
200,200,31427,1,4,0:0:0:0:
200,200,31768,1,0,0:0:0:0:
352,320,32109,6,0,L|496:312,1,126,2|0,0:0|0:0,0:0:0:0:
352,264,32790,1,2,0:0:0:0:
496,168,33131,2,0,L|496:80,1,63,0|4,0:0|0:0,0:0:0:0:
368,88,33643,6,0,L|288:80,2,63
448,96,34154,1,2,0:0:0:0:
448,96,34495,1,0,0:0:0:0:
288,160,34836,6,0,L|288:304,1,126,6|2,0:0|0:0,0:0:0:0:
152,232,35518,2,0,L|152:360,1,126,2|2,0:0|0:0,0:0:0:0:
228,360,36029,1,0,0:0:0:0:
304,356,36199,6,0,L|152:344,1,126,2|2,0:0|0:0,0:0:0:0:
40,304,36881,2,0,L|40:164,1,126,2|2,0:0|0:0,0:0:0:0:
200,180,37563,6,0,L|352:176,1,126,2|2,0:0|0:0,0:0:0:0:
192,96,38245,2,0,L|60:84,1,126,2|2,0:0|0:0,0:0:0:0:
216,40,38927,6,0,P|304:88|208:144,1,252,2|2,0:0|0:0,0:0:0:0:
76,136,39949,1,2,0:0:0:0:
232,256,40290,6,0,L|368:240,1,126,2|2,0:0|0:0,0:0:0:0:
492,216,40972,2,0,L|344:200,1,126,2|2,0:0|0:0,0:0:0:0:
212,184,41654,6,0,P|220:128|304:120,1,126,2|2,0:0|0:0,0:0:0:0:
416,324,42336,2,0,L|420:188,1,126,2|2,0:0|0:0,0:0:0:0:
260,208,43018,5,2,0:0:0:0:
188,204,43188,1,2,0:0:0:0:
152,168,43359,1,2,0:0:0:0:
280,120,43699,1,2,0:0:0:0:
352,116,43869,1,2,0:0:0:0:
388,80,44040,1,2,0:0:0:0:
224,68,44381,6,0,P|136:96|236:296,1,378,4|10,0:0|0:0,0:0:0:0:
388,328,45745,6,0,L|392:200,1,126,6|0,0:0|0:0,0:0:0:0:
360,152,46256,1,0,0:0:0:0:
292,144,46427,1,8,0:0:0:0:
444,84,46768,1,2,0:0:0:0:
476,104,46938,6,0,L|480:244,1,126,2|0,0:0|0:0,0:0:0:0:
472,260,47449,1,2,0:0:0:0:
440,292,47620,1,0,0:0:0:0:
364,304,47790,1,8,0:0:0:0:
236,248,48131,1,2,0:0:0:0:
64,240,48472,6,0,L|60:100,1,126,2|0,0:0|0:0,0:0:0:0:
92,60,48984,1,0,0:0:0:0:
160,56,49154,1,8,0:0:0:0:
312,88,49495,1,2,0:0:0:0:
280,108,49665,6,0,L|128:100,1,126,2|0,0:0|0:0,0:0:0:0:
124,52,50177,1,2,0:0:0:0:
156,96,50347,1,0,0:0:0:0:
232,96,50518,1,8,0:0:0:0:
360,92,50859,1,2,0:0:0:0:
188,192,51199,6,0,L|184:340,1,126,2|0,0:0|0:0,0:0:0:0:
220,328,51711,1,0,0:0:0:0:
292,328,51881,1,8,0:0:0:0:
136,272,52222,1,2,0:0:0:0:
104,272,52393,6,0,L|100:136,1,126,2|0,0:0|0:0,0:0:0:0:
104,108,52904,1,2,0:0:0:0:
140,68,53074,1,2,0:0:0:0:
216,60,53245,1,8,0:0:0:0:
368,140,53586,1,2,0:0:0:0:
336,96,53756,1,0,0:0:0:0:
248,88,53927,6,0,L|244:224,1,126,2|2,0:0|0:0,0:0:0:0:
320,216,54438,1,0,0:0:0:0:
396,216,54609,1,8,0:0:0:0:
270,209,54949,1,2,0:0:0:0:
184,204,55120,6,0,L|176:68,1,126,2|0,0:0|0:0,0:0:0:0:
256,64,55631,1,2,0:0:0:0:
332,56,55802,1,0,0:0:0:0:
256,64,55972,1,8,0:0:0:0:
128,76,56313,1,10,0:0:0:0:
300,144,56654,6,0,L|304:272,1,126,6|0,0:0|0:0,0:0:0:0:
272,316,57165,1,0,0:0:0:0:
196,336,57336,1,8,0:0:0:0:
348,336,57677,1,2,0:0:0:0:
412,332,57847,6,0,L|416:184,1,126,2|0,0:0|0:0,0:0:0:0:
436,156,58359,1,2,0:0:0:0:
396,112,58529,1,0,0:0:0:0:
320,104,58699,1,8,0:0:0:0:
448,72,59040,1,2,0:0:0:0:
276,160,59381,6,0,L|124:152,1,126,2|0,0:0|0:0,0:0:0:0:
184,100,59893,1,0,0:0:0:0:
260,80,60063,1,8,0:0:0:0:
136,48,60404,1,2,0:0:0:0:
72,56,60574,6,0,L|68:204,1,126,2|0,0:0|0:0,0:0:0:0:
100,216,61086,1,2,0:0:0:0:
176,244,61256,1,0,0:0:0:0:
100,216,61427,1,8,0:0:0:0:
224,192,61768,1,2,0:0:0:0:
52,352,62109,6,0,L|48:220,1,126,2|0,0:0|0:0,0:0:0:0:
80,180,62620,1,0,0:0:0:0:
152,176,62790,1,8,0:0:0:0:
304,176,63131,1,2,0:0:0:0:
368,152,63302,6,0,L|220:136,1,126,2|0,0:0|0:0,0:0:0:0:
208,76,63813,1,2,0:0:0:0:
244,136,63984,1,2,0:0:0:0:
320,216,64154,1,8,0:0:0:0:
168,292,64495,1,2,0:0:0:0:
200,244,64665,1,0,0:0:0:0:
288,320,64836,6,0,L|428:300,1,126,2|2,0:0|0:0,0:0:0:0:
412,248,65347,1,0,0:0:0:0:
336,224,65518,1,8,0:0:0:0:
210,212,65858,1,2,0:0:0:0:
292,184,66029,6,0,L|296:48,1,126,2|0,0:0|0:0,0:0:0:0:
216,52,66540,1,2,0:0:0:0:
140,60,66711,1,0,0:0:0:0:
216,52,66881,1,8,0:0:0:0:
348,56,67222,1,10,0:0:0:0:
184,144,67563,5,8,0:0:0:0:
256,192,73018,12,4,78472,0:0:0:0:
360,184,78813,6,0,L|384:116,2,63,0|0|8,0:0|0:0|0:0,0:0:0:0:
224,184,79495,2,0,L|220:100,1,63,8|2,0:0|0:0,0:0:0:0:
84,128,80006,6,0,L|76:40,1,63
220,56,80518,1,8,0:0:0:0:
220,56,80859,1,2,0:0:0:0:
372,56,81199,5,8,0:0:0:0:
248,152,81540,2,0,L|216:216,2,63,2|0|8,0:0|0:0|0:0,0:0:0:0:
384,236,82222,2,0,L|392:324,1,63,8|2,0:0|0:0,0:0:0:0:
252,296,82734,6,0,L|240:376,1,63,0|8,0:0|0:0,0:0:0:0:
396,356,83245,1,4,0:0:0:0:
128,356,83927,6,0,P|52:320|140:220,2,252,2|8|8,0:0|0:0|0:0,0:0:0:0:
256,188,86313,1,0,0:0:0:0:
384,356,86654,6,0,B|496:304|496:304|372:220,2,252,8|2|4,0:0|0:0|0:0,0:0:0:0:
256,192,88359,12,4,89381,0:0:0:0:
256,92,90063,5,2,0:0:0:0:
144,176,90745,6,0,P|80:192|160:304,1,252,2|0,0:0|0:0,0:0:0:0:
256,288,91768,1,0,0:0:0:0:
144,176,92109,5,4,0:0:0:0:
256,288,92791,1,2,0:0:0:0:
368,176,93472,6,0,P|432:192|352:304,1,252,2|0,0:0|0:0,0:0:0:0:
144,192,94836,5,4,0:0:0:0:
256,176,95518,1,2,0:0:0:0:
144,192,96200,6,0,L|384:64,1,252,2|0,0:0|0:0,0:0:0:0:
256,64,97222,1,0,0:0:0:0:
368,192,97563,5,4,0:0:0:0:
256,64,98245,1,2,0:0:0:0:
368,192,98927,6,0,L|128:64,1,252,2|0,0:0|0:0,0:0:0:0:
416,328,100290,6,0,L|416:184,1,126,4|0,0:0|0:0,0:0:0:0:
284,160,100972,2,0,L|420:160,1,126,2|8,0:0|0:0,0:0:0:0:
260,64,101654,6,0,P|180:92|280:176,1,252,2|0,0:0|0:0,0:0:0:0:
384,180,102677,1,2,0:0:0:0:
231,287,103018,6,0,L|83:287,1,126,4|0,0:0|0:0,0:0:0:0:
240,208,103699,2,0,L|240:76,1,126,2|8,0:0|0:0,0:0:0:0:
88,212,104381,6,0,L|88:56,1,126,2|8,0:0|0:0,0:0:0:0:
240,72,105063,1,2,0:0:0:0:
116,68,105404,1,0,0:0:0:0:
276,180,105745,6,0,L|280:324,1,126,4|0,0:0|0:0,0:0:0:0:
140,303,106427,2,0,L|3:299,1,126,2|8,0:0|0:0,0:0:0:0:
169,195,107109,5,2,0:0:0:0:
232,151,107449,1,0,0:0:0:0:
169,195,107790,1,2,0:0:0:0:
45,197,108131,1,0,0:0:0:0:
207,285,108472,6,0,L|339:276,1,126,4|0,0:0|0:0,0:0:0:0:
190,195,109154,2,0,L|187:65,1,126,2|8,0:0|0:0,0:0:0:0:
351,60,109836,6,0,P|433:91|338:178,1,252,2|2,0:0|0:0,0:0:0:0:
277,174,110688,1,0,0:0:0:0:
355,185,110859,1,10,0:0:0:0:
196,285,111199,6,0,L|193:154,1,126,6|0,0:0|0:0,0:0:0:0:
286,113,111881,1,2,0:0:0:0:
135,121,112222,2,0,L|132:49,1,63,0|4,0:0|0:0,0:0:0:0:
261,223,112734,6,0,L|336:212,1,63
260,177,113074,2,0,L|179:162,1,63,0|2,0:0|0:0,0:0:0:0:
199,165,113586,1,0,0:0:0:0:
359,330,113927,6,0,L|362:194,1,126,2|0,0:0|0:0,0:0:0:0:
264,172,114609,1,2,0:0:0:0:
115,191,114949,2,0,L|33:188,1,63,0|4,0:0|0:0,0:0:0:0:
178,306,115461,5,0,0:0:0:0:
208,249,115631,1,0,0:0:0:0:
178,306,115802,1,0,0:0:0:0:
102,305,115972,1,2,0:0:0:0:
102,305,116313,1,0,0:0:0:0:
263,278,116654,6,0,L|413:269,1,126,2|0,0:0|0:0,0:0:0:0:
390,273,117336,1,2,0:0:0:0:
240,359,117677,2,0,L|237:282,1,63,0|4,0:0|0:0,0:0:0:0:
364,343,118188,6,0,L|445:334,1,63
491,326,118529,2,0,L|423:316,1,63,0|4,0:0|0:0,0:0:0:0:
433,317,119040,1,0,0:0:0:0:
270,346,119381,6,0,L|268:198,1,126,2|0,0:0|0:0,0:0:0:0:
411,198,120063,2,0,L|261:182,1,126,2|0,0:0|0:0,0:0:0:0:
279,125,120574,1,4,0:0:0:0:
405,103,120915,5,0,0:0:0:0:
436,53,121086,1,0,0:0:0:0:
405,103,121256,1,0,0:0:0:0:
333,103,121427,1,2,0:0:0:0:
333,103,121768,1,0,0:0:0:0:
168,82,122109,6,0,L|164:226,1,126,6|2,0:0|0:0,0:0:0:0:
299,216,122790,2,0,L|300:359,1,126,2|2,0:0|0:0,0:0:0:0:
376,338,123302,1,0,0:0:0:0:
452,332,123472,6,0,L|303:320,1,126,2|2,0:0|0:0,0:0:0:0:
191,286,124154,2,0,L|189:147,1,126,2|2,0:0|0:0,0:0:0:0:
340,136,124836,6,0,L|484:132,1,126,2|2,0:0|0:0,0:0:0:0:
335,243,125518,2,0,L|184:235,1,126,2|2,0:0|0:0,0:0:0:0:
361,343,126199,6,0,P|379:249|234:239,1,252,2|2,0:0|0:0,0:0:0:0:
379,128,127222,1,2,0:0:0:0:
218,74,127563,6,0,L|395:70,1,126,2|2,0:0|0:0,0:0:0:0:
212,186,128245,2,0,L|69:180,1,126,2|2,0:0|0:0,0:0:0:0:
241,131,128927,6,0,P|245:83|175:50,1,126,2|2,0:0|0:0,0:0:0:0:
49,175,129609,2,0,L|45:36,1,126,2|2,0:0|0:0,0:0:0:0:
204,144,130290,5,2,0:0:0:0:
276,133,130461,1,2,0:0:0:0:
310,85,130631,1,2,0:0:0:0:
179,242,130972,1,2,0:0:0:0:
211,186,131143,1,2,0:0:0:0:
283,174,131313,1,2,0:0:0:0:
447,304,131654,6,0,P|472:257|271:105,1,378,4|10,0:0|0:0,0:0:0:0:
97,120,133018,6,0,L|87:261,1,126,6|0,0:0|0:0,0:0:0:0:
121,283,133529,1,0,0:0:0:0:
189,285,133699,1,8,0:0:0:0:
338,268,134040,1,2,0:0:0:0:
371,248,134211,6,0,L|375:108,1,126,2|0,0:0|0:0,0:0:0:0:
371,73,134722,1,2,0:0:0:0:
336,38,134893,1,0,0:0:0:0:
259,30,135063,1,8,0:0:0:0:
131,38,135404,1,2,0:0:0:0:
297,114,135745,6,0,L|301:254,1,126,2|0,0:0|0:0,0:0:0:0:
269,272,136256,1,0,0:0:0:0:
197,281,136427,1,8,0:0:0:0:
45,250,136768,1,2,0:0:0:0:
77,231,136938,6,0,L|224:218,1,126,2|0,0:0|0:0,0:0:0:0:
236,164,137449,1,2,0:0:0:0:
202,219,137620,1,0,0:0:0:0:
129,173,137790,1,8,0:0:0:0:
255,98,138131,1,2,0:0:0:0:
429,129,138472,6,0,L|430:266,1,126,2|0,0:0|0:0,0:0:0:0:
396,294,138984,1,0,0:0:0:0:
324,299,139154,1,8,0:0:0:0:
171,303,139495,1,2,0:0:0:0:
139,296,139665,6,0,L|268:285,1,126,2|0,0:0|0:0,0:0:0:0:
328,229,140177,1,2,0:0:0:0:
265,167,140347,1,2,0:0:0:0:
189,138,140518,1,8,0:0:0:0:
37,135,140859,1,2,0:0:0:0:
68,99,141029,1,0,0:0:0:0:
155,69,141199,6,0,L|299:68,1,126,2|2,0:0|0:0,0:0:0:0:
207,113,141711,1,0,0:0:0:0:
131,133,141881,1,8,0:0:0:0:
124,258,142221,1,2,0:0:0:0:
201,263,142393,6,0,L|344:259,1,126,2|0,0:0|0:0,0:0:0:0:
400,233,142904,1,2,0:0:0:0:
326,207,143074,1,0,0:0:0:0:
246,194,143245,1,8,0:0:0:0:
371,117,143586,1,10,0:0:0:0:
200,78,143927,6,0,L|196:235,1,126,6|0,0:0|0:0,0:0:0:0:
228,253,144438,1,0,0:0:0:0:
303,263,144609,1,8,0:0:0:0:
151,316,144949,1,2,0:0:0:0:
89,320,145120,6,0,L|83:176,1,126,2|0,0:0|0:0,0:0:0:0:
92,139,145631,1,2,0:0:0:0:
127,100,145802,1,0,0:0:0:0:
201,90,145972,1,8,0:0:0:0:
331,84,146313,1,2,0:0:0:0:
170,222,146654,6,0,L|312:214,1,126,2|0,0:0|0:0,0:0:0:0:
266,146,147165,1,0,0:0:0:0:
196,135,147336,1,8,0:0:0:0:
45,131,147677,1,2,0:0:0:0:
108,124,147847,6,0,L|114:272,1,126,2|0,0:0|0:0,0:0:0:0:
144,282,148359,1,2,0:0:0:0:
113,249,148529,1,0,0:0:0:0:
37,240,148699,1,8,0:0:0:0:
165,208,149040,1,2,0:0:0:0:
329,235,149381,6,0,L|331:103,1,126,2|0,0:0|0:0,0:0:0:0:
301,53,149893,1,0,0:0:0:0:
229,40,150063,1,8,0:0:0:0:
382,68,150404,1,2,0:0:0:0:
446,57,150574,6,0,L|317:40,1,126,2|0,0:0|0:0,0:0:0:0:
291,182,151086,1,2,0:0:0:0:
321,137,151256,1,2,0:0:0:0:
397,133,151427,1,8,0:0:0:0:
246,261,151768,1,2,0:0:0:0:
214,213,151938,1,0,0:0:0:0:
302,198,152109,6,0,L|449:190,1,126,2|2,0:0|0:0,0:0:0:0:
352,123,152620,1,0,0:0:0:0:
277,108,152790,1,8,0:0:0:0:
277,233,153130,1,2,0:0:0:0:
196,232,153302,6,0,L|36:226,1,126,2|0,0:0|0:0,0:0:0:0:
146,157,153813,1,2,0:0:0:0:
223,129,153984,1,0,0:0:0:0:
146,157,154154,1,8,0:0:0:0:
19,132,154495,1,10,0:0:0:0:
189,229,154836,6,0,L|342:222,1,126,6|0,0:0|0:0,0:0:0:0:
390,164,155347,1,0,0:0:0:0:
314,223,155518,1,8,0:0:0:0:
164,302,155859,1,2,0:0:0:0:
195,257,156029,1,2,0:0:0:0:
272,251,156199,6,0,L|281:117,1,126,4|2,0:0|0:0,0:0:0:0:
144,108,156881,2,0,L|13:103,1,126,8|2,0:0|0:0,0:0:0:0:
176,201,157563,6,0,L|320:197,1,126,2|0,0:0|0:0,0:0:0:0:
442,279,158245,2,0,L|290:264,1,126,8|2,0:0|0:0,0:0:0:0:
469,209,158927,6,0,P|486:104|336:116,1,252,2|8,0:0|0:0,0:0:0:0:
493,71,159949,1,2,0:0:0:0:
326,137,160290,6,0,L|321:278,1,126,2|0,0:0|0:0,0:0:0:0:
395,270,160802,1,0,0:0:0:0:
322,263,160972,1,8,0:0:0:0:
171,252,161313,1,2,0:0:0:0:
103,235,161484,1,2,0:0:0:0:
69,198,161654,6,0,L|200:178,2,126,4|2|8,0:0|0:0|0:0,0:0:0:0:
69,198,162677,1,2,0:0:0:0:
239,294,163018,6,0,L|387:288,1,126,2|2,0:0|0:0,0:0:0:0:
233,186,163699,2,0,L|84:178,1,126,8|2,0:0|0:0,0:0:0:0:
265,70,164381,6,0,P|356:126|249:179,1,252,2|8,0:0|0:0,0:0:0:0:
121,174,165404,1,8,0:0:0:0:
293,270,165745,6,0,L|441:262,1,126,6|0,0:0|0:0,0:0:0:0:
344,203,166256,1,0,0:0:0:0:
268,186,166427,1,8,0:0:0:0:
417,149,166768,1,2,0:0:0:0:
387,93,166938,1,2,0:0:0:0:
310,82,167109,6,0,L|171:71,1,126,4|2,0:0|0:0,0:0:0:0:
319,174,167790,2,0,L|322:305,1,126,8|2,0:0|0:0,0:0:0:0:
156,327,168472,5,2,0:0:0:0:
317,300,168813,2,0,L|441:270,2,126,2|8|2,0:0|0:0|0:0,0:0:0:0:
159,322,169836,6,0,P|72:259|172:242,1,252,4|8,0:0|0:0,0:0:0:0:
291,206,170859,1,2,0:0:0:0:
121,148,171199,5,2,0:0:0:0:
291,206,171540,2,0,L|144:191,1,126,0|8,0:0|0:0,0:0:0:0:
167,192,172222,1,2,0:0:0:0:
331,145,172563,5,4,0:0:0:0:
167,192,172904,2,0,L|301:186,1,126,2|8,0:0|0:0,0:0:0:0:
293,184,173586,1,2,0:0:0:0:
132,114,173927,5,2,0:0:0:0:
293,184,174268,1,2,0:0:0:0:
453,246,174609,1,8,0:0:0:0:
293,184,174949,1,2,0:0:0:0:
134,118,175290,6,0,P|61:154|144:264,2,252,4|8|2,0:0|0:0|0:0,0:0:0:0:
