osu file format v14

[General]
AudioFilename: audio.mp3
AudioLeadIn: 0
PreviewTime: 132975
Countdown: 0
SampleSet: Soft
StackLeniency: 0.7
Mode: 2
LetterboxInBreaks: 0
WidescreenStoryboard: 1

[Editor]
Bookmarks: 2109,13018,23927,34836,45745,56654,67563,78472,89381,100290,111199,122109,133018,143927,154836,165745,176654
DistanceSpacing: 1
BeatDivisor: 4
GridSize: 8
TimelineZoom: 2.4

[Metadata]
Title:wasurena feat. Sennzai
TitleUnicode:勿忘 feat. Sennzai
Artist:tokiwa
ArtistUnicode:常盤
Creator:Sanyi
Version:Salad
Source:
Tags:souvenir jbhyperion jbh hyperion fa featured artist mg mappers' guild japanese electronic
BeatmapID:3354640
BeatmapSetID:1638487

[Difficulty]
HPDrainRate:3
CircleSize:3
OverallDifficulty:7
ApproachRate:7
SliderMultiplier:1.45
SliderTickRate:1

[Events]
//Background and Video events
0,0,"bg.jpg",0,0
//Break Periods
2,67763,72118
//Storyboard Layer 0 (Background)
//Storyboard Layer 1 (Fail)
//Storyboard Layer 2 (Pass)
//Storyboard Layer 3 (Foreground)
//Storyboard Layer 4 (Overlay)
//Storyboard Sound Samples

[TimingPoints]
2109,340.909090909091,4,2,1,40,1,0
12677,-100,4,2,1,5,0,0
13018,-100,4,2,1,40,0,0
17790,-100,4,2,7,40,0,0
18131,-100,4,2,1,40,0,0
23245,-100,4,3,1,50,0,0
23586,-100,4,2,7,60,0,0
23927,-100,4,2,2,60,0,0
24097,-100,4,2,1,60,0,0
25120,-100,4,2,7,60,0,0
25290,-100,4,2,1,60,0,0
25972,-100,4,2,1,80,0,0
26143,-100,4,2,1,60,0,0
27847,-100,4,2,7,60,0,0
28017,-100,4,2,1,60,0,0
28699,-100,4,2,1,80,0,0
28870,-100,4,2,1,60,0,0
30574,-100,4,2,7,60,0,0
30744,-100,4,2,1,60,0,0
31427,-100,4,2,7,60,0,0
31597,-100,4,2,1,60,0,0
32109,-100,4,2,1,80,0,0
32280,-100,4,2,1,60,0,0
33302,-100,4,2,7,60,0,0
33472,-100,4,2,1,60,0,0
34154,-100,4,2,1,80,0,0
34325,-100,4,2,1,60,0,0
34836,-100,4,2,2,60,0,0
43018,-100,4,2,2,60,0,0
44381,-100,4,3,2,60,0,0
45404,-100,4,2,7,60,0,0
45745,-100,4,2,3,70,0,1
46768,-100,4,2,1,80,0,1
46938,-100,4,2,3,70,0,1
48131,-100,4,2,1,80,0,1
48301,-100,4,2,3,70,0,1
49495,-100,4,2,1,80,0,1
49665,-100,4,2,3,70,0,1
52222,-100,4,2,1,80,0,1
52392,-100,4,2,3,70,0,1
53074,-100,4,2,1,80,0,1
53244,-100,4,2,3,70,0,1
53586,-100,4,2,1,80,0,1
53756,-100,4,2,3,70,0,1
54268,-100,4,2,1,80,0,1
54438,-100,4,2,3,70,0,1
54949,-100,4,2,1,80,0,1
55119,-100,4,2,3,70,0,1
55972,-100,4,2,3,70,0,1
56313,-100,4,2,7,70,0,0
56654,-100,4,2,3,70,0,1
57677,-100,4,2,1,80,0,1
57847,-100,4,2,3,70,0,1
59040,-100,4,2,1,80,0,1
59210,-100,4,2,3,70,0,1
60404,-100,4,2,1,80,0,1
60574,-100,4,2,3,70,0,1
63131,-100,4,2,1,80,0,1
63301,-100,4,2,3,70,0,1
63984,-100,4,2,1,80,0,1
64154,-100,4,2,3,70,0,1
64495,-100,4,2,1,80,0,1
64665,-100,4,2,3,70,0,1
65177,-100,4,2,1,80,0,1
65347,-100,4,2,3,70,0,1
65859,-100,4,2,1,80,0,1
66029,-100,4,2,3,70,0,1
67222,-100,4,2,7,70,0,1
67563,-100,4,3,2,80,0,0
67734,-100,4,2,1,40,0,0
78472,-100,4,2,1,50,0,0
79154,-100,4,3,2,50,0,0
79324,-100,4,2,1,50,0,0
80518,-100,4,3,2,50,0,0
80688,-100,4,2,1,50,0,0
81881,-100,4,3,2,50,0,0
82051,-100,4,2,1,50,0,0
83245,-100,4,3,2,50,0,0
83415,-100,4,2,1,50,0,0
85290,-100,4,3,2,50,0,0
85460,-100,4,2,1,50,0,0
88018,-100,4,3,2,50,0,0
88188,-100,4,2,1,50,0,0
89040,-100,4,2,1,5,0,0
89381,-100,4,2,1,50,0,0
99949,-100,4,2,1,5,0,0
100290,-100,4,2,1,50,0,0
110518,-100,4,3,1,50,0,0
110859,-100,4,2,7,60,0,0
111200,-100,4,2,2,60,0,0
111370,-100,4,2,1,60,0,0
112393,-100,4,2,7,60,0,0
112563,-100,4,2,1,60,0,0
113245,-100,4,2,1,80,0,0
113416,-100,4,2,1,60,0,0
115120,-100,4,2,7,60,0,0
115290,-100,4,2,1,60,0,0
115972,-100,4,2,1,80,0,0
116143,-100,4,2,1,60,0,0
117847,-100,4,2,7,60,0,0
118017,-100,4,2,1,60,0,0
118700,-100,4,2,7,60,0,0
118870,-100,4,2,1,60,0,0
119382,-100,4,2,1,80,0,0
119553,-100,4,2,1,60,0,0
120575,-100,4,2,7,60,0,0
120745,-100,4,2,1,60,0,0
121427,-100,4,2,1,80,0,0
121598,-100,4,2,1,60,0,0
122109,-100,4,2,2,70,0,0
130290,-100,4,2,2,70,0,0
131654,-100,4,3,2,60,0,0
132677,-100,4,2,7,60,0,0
133018,-100,4,2,3,80,0,1
134040,-100,4,2,1,90,0,1
134210,-100,4,2,3,80,0,1
135403,-100,4,2,1,90,0,1
135573,-100,4,2,3,80,0,1
136767,-100,4,2,1,90,0,1
136937,-100,4,2,3,80,0,1
139494,-100,4,2,1,90,0,1
139664,-100,4,2,3,80,0,1
140346,-100,4,2,1,90,0,1
140516,-100,4,2,3,80,0,1
140858,-100,4,2,1,90,0,1
141028,-100,4,2,3,80,0,1
141540,-100,4,2,1,90,0,1
141710,-100,4,2,3,80,0,1
142221,-100,4,2,1,90,0,1
142391,-100,4,2,3,80,0,1
143244,-100,4,2,3,80,0,1
143586,-100,4,2,7,80,0,0
143927,-100,4,2,3,80,0,1
144949,-100,4,2,1,90,0,1
145119,-100,4,2,3,80,0,1
146312,-100,4,2,1,90,0,1
146482,-100,4,2,3,80,0,1
147676,-100,4,2,1,90,0,1
147846,-100,4,2,3,80,0,1
150403,-100,4,2,1,90,0,1
150573,-100,4,2,3,80,0,1
151256,-100,4,2,1,90,0,1
151426,-100,4,2,3,80,0,1
151767,-100,4,2,1,90,0,1
151937,-100,4,2,3,80,0,1
152449,-100,4,2,1,90,0,1
152619,-100,4,2,3,80,0,1
153131,-100,4,2,1,90,0,1
153301,-100,4,2,3,80,0,1
154495,-100,4,2,7,80,0,0
154836,-100,4,2,3,80,0,1
155859,-100,4,2,1,90,0,1
156029,-100,4,2,3,80,0,1
156199,-100,4,2,1,90,0,1
156370,-100,4,2,3,80,0,1
157222,-100,4,2,1,90,0,1
157392,-100,4,2,3,80,0,1
158586,-100,4,2,1,90,0,1
158756,-100,4,2,3,80,0,1
158927,-100,4,2,1,90,0,1
159097,-100,4,2,3,80,0,1
161313,-100,4,2,1,90,0,1
161483,-100,4,2,3,80,0,1
161654,-100,4,2,1,90,0,1
161824,-100,4,2,3,80,0,1
162165,-100,4,2,1,90,0,1
162335,-100,4,2,3,80,0,1
162677,-100,4,2,1,90,0,1
162847,-100,4,2,3,80,0,1
163359,-100,4,2,1,90,0,1
163529,-100,4,2,3,80,0,1
164040,-100,4,2,1,90,0,1
164210,-100,4,2,3,80,0,1
164381,-100,4,2,1,90,0,1
164552,-100,4,2,3,80,0,1
165063,-100,4,2,3,80,0,1
165404,-100,4,3,2,80,0,0
165745,-100,4,2,3,80,0,1
166768,-100,4,2,1,90,0,1
166938,-100,4,2,3,80,0,1
167108,-100,4,2,1,90,0,1
167279,-100,4,2,3,80,0,1
168131,-100,4,2,1,90,0,1
168472,-100,4,2,3,80,0,1
168813,-100,4,2,1,90,0,1
168984,-100,4,2,3,80,0,1
169495,-100,4,2,1,90,0,1
169665,-100,4,2,3,80,0,1
169836,-100,4,2,1,90,0,1
170006,-100,4,2,3,80,0,1
172222,-100,4,2,1,90,0,1
172392,-100,4,2,3,80,0,1
172563,-100,4,2,1,90,0,1
172733,-100,4,2,3,80,0,1
173074,-100,4,2,1,90,0,1
173244,-100,4,2,3,80,0,1
173586,-100,4,2,1,90,0,1
173756,-100,4,2,3,80,0,1
174268,-100,4,2,1,90,0,1
174609,-100,4,2,3,80,0,1
174949,-100,4,2,1,90,0,1
175119,-100,4,2,3,80,0,1
175290,-100,4,2,1,90,0,1
175461,-100,4,2,3,80,0,1
175972,-100,4,2,3,80,0,1
176313,-100,4,3,2,80,0,1
176654,-100,4,2,1,80,0,0

[Colours]
Combo1 : 159,159,159
Combo2 : 0,128,192

[HitObjects]
80,304,2109,5,4,0:0:0:0:
256,304,2790,1,2,0:0:0:0:
432,304,3472,1,2,0:0:0:0:
432,304,4836,5,4,0:0:0:0:
256,304,5518,1,2,0:0:0:0:
80,304,6199,1,2,0:0:0:0:
432,304,7563,5,4,0:0:0:0:
256,304,8245,1,2,0:0:0:0:
432,304,8927,1,2,0:0:0:0:
80,304,10290,5,4,0:0:0:0:
256,304,10972,1,2,0:0:0:0:
80,304,11654,1,2,0:0:0:0:
256,192,11995,12,0,12677,0:0:0:0:
144,304,13018,6,0,L|144:152,1,145,4|0,0:0|0:0,0:0:0:0:
288,176,13699,2,0,L|432:176,1,145,2|8,0:0|0:0,0:0:0:0:
288,304,14381,1,2,0:0:0:0:
432,128,15404,1,2,0:0:0:0:
288,256,15745,6,0,L|136:256,1,145,4|0,0:0|0:0,0:0:0:0:
288,128,16427,2,0,L|432:128,1,145,2|8,0:0|0:0,0:0:0:0:
288,320,17109,1,2,0:0:0:0:
144,320,17449,2,0,L|144:176,2,145,8|4|0,0:0|0:0|0:0,0:0:0:0:
296,192,18472,6,0,L|456:192,1,145,4|0,0:0|0:0,0:0:0:0:
296,104,19154,2,0,L|440:104,1,145,2|8,0:0|0:0,0:0:0:0:
296,296,19836,2,0,L|136:296,1,145,2|0,0:0|0:0,0:0:0:0:
296,192,20518,2,0,L|440:192,1,145,2|0,0:0|0:0,0:0:0:0:
296,352,21199,6,0,L|296:192,1,145,4|0,0:0|0:0,0:0:0:0:
152,352,21881,2,0,L|152:208,1,145,2|8,0:0|0:0,0:0:0:0:
296,168,22563,1,2,0:0:0:0:
480,352,23245,2,0,L|480:272,1,72.5,2|0,0:0|0:0,0:0:0:0:
408,272,23586,1,10,0:0:0:0:
136,272,23927,6,0,B|64:272|64:272|144:272,1,145,6|0,0:0|0:0,0:0:0:0:
208,272,24438,1,0,0:0:0:0:
280,272,24609,1,2,0:0:0:0:
424,192,24949,1,0,0:0:0:0:
352,192,25120,6,0,L|208:192,1,145,4|0,0:0|0:0,0:0:0:0:
280,112,25631,1,0,0:0:0:0:
352,112,25802,1,0,0:0:0:0:
280,112,25972,1,2,0:0:0:0:
136,328,26313,2,0,L|216:328,1,72.5,2|0,0:0|0:0,0:0:0:0:
280,328,26654,5,2,0:0:0:0:
424,320,26995,2,0,L|424:224,1,72.5,0|0,0:0|0:0,0:0:0:0:
352,248,27336,1,2,0:0:0:0:
208,248,27677,1,0,0:0:0:0:
280,152,27847,6,0,L|424:152,1,145,4|0,0:0|0:0,0:0:0:0:
352,80,28359,1,2,0:0:0:0:
280,80,28529,1,0,0:0:0:0:
208,80,28699,1,2,0:0:0:0:
352,256,29040,2,0,L|272:256,1,72.5,0|0,0:0|0:0,0:0:0:0:
208,256,29381,6,0,L|64:256,1,145,2|0,0:0|0:0,0:0:0:0:
136,168,29893,1,0,0:0:0:0:
208,168,30063,1,2,0:0:0:0:
64,280,30404,1,0,0:0:0:0:
136,280,30574,6,0,B|208:280|208:280|128:280,1,145,4|0,0:0|0:0,0:0:0:0:
64,208,31086,1,2,0:0:0:0:
136,208,31256,1,0,0:0:0:0:
208,208,31427,2,0,L|352:208,1,145,4|0,0:0|0:0,0:0:0:0:
280,160,31938,1,0,0:0:0:0:
208,160,32109,5,2,0:0:0:0:
64,336,32449,2,0,L|64:256,1,72.5,0|0,0:0|0:0,0:0:0:0:
136,264,32790,1,2,0:0:0:0:
280,264,33131,1,0,0:0:0:0:
352,152,33302,6,0,L|208:152,1,145,4|0,0:0|0:0,0:0:0:0:
280,80,33813,1,0,0:0:0:0:
352,80,33984,1,0,0:0:0:0:
280,80,34154,1,2,0:0:0:0:
136,240,34495,2,0,L|136:160,1,72.5,0|0,0:0|0:0,0:0:0:0:
296,320,34836,6,0,L|448:320,2,145,6|2|2,0:0|0:0|0:0,0:0:0:0:
152,232,35859,2,0,L|80:232,1,72.5,2|0,0:0|0:0,0:0:0:0:
232,144,36199,6,0,L|384:144,1,145,2|2,0:0|0:0,0:0:0:0:
232,56,36881,2,0,L|384:56,1,145,2|2,0:0|0:0,0:0:0:0:
104,352,37563,6,0,L|104:200,1,145,2|2,0:0|0:0,0:0:0:0:
248,112,38245,2,0,L|104:112,1,145,2|2,0:0|0:0,0:0:0:0:
376,344,38927,6,0,B|448:344|448:344|368:344,1,145,2|2,0:0|0:0,0:0:0:0:
232,224,39609,2,0,L|384:224,1,145,2|2,0:0|0:0,0:0:0:0:
104,336,40290,6,0,L|256:336,1,145,2|2,0:0|0:0,0:0:0:0:
392,240,40972,2,0,B|442:290|442:290|386:234,1,145,2|2,0:0|0:0,0:0:0:0:
248,144,41654,6,0,L|400:144,2,145,2|2|2,0:0|0:0|0:0,0:0:0:0:
104,304,42677,1,2,0:0:0:0:
376,304,43018,5,2,0:0:0:0:
448,304,43188,1,2,0:0:0:0:
376,304,43359,1,2,0:0:0:0:
232,200,43699,1,2,0:0:0:0:
159,200,43870,1,2,0:0:0:0:
87,200,44040,1,2,0:0:0:0:
360,120,44381,5,4,0:0:0:0:
216,296,44722,2,0,L|136:296,1,72.5,2|0,0:0|0:0,0:0:0:0:
216,216,45063,1,8,0:0:0:0:
360,336,45404,2,0,L|360:264,1,72.5,10|0,0:0|0:0,0:0:0:0:
200,192,45745,6,0,L|48:192,1,145,6|0,0:0|0:0,0:0:0:0:
128,112,46256,1,0,0:0:0:0:
200,112,46427,1,8,0:0:0:0:
344,112,46768,1,2,0:0:0:0:
184,320,46938,6,0,B|112:320|112:320|192:320,1,145,2|0,0:0|0:0,0:0:0:0:
256,320,47449,1,2,0:0:0:0:
328,320,47620,1,0,0:0:0:0:
256,320,47790,1,8,0:0:0:0:
112,272,48131,2,0,L|112:192,1,72.5,2|0,0:0|0:0,0:0:0:0:
272,192,48472,5,2,0:0:0:0:
416,272,48813,2,0,L|416:192,1,72.5,0|0,0:0|0:0,0:0:0:0:
256,192,49154,1,8,0:0:0:0:
112,96,49495,1,2,0:0:0:0:
184,96,49665,6,0,B|256:96|256:96|176:96,1,145,2|0,0:0|0:0,0:0:0:0:
112,192,50177,2,0,L|192:192,1,72.5,2|0,0:0|0:0,0:0:0:0:
344,192,50518,2,0,L|488:192,1,145,8|2,0:0|0:0,0:0:0:0:
416,128,51029,1,0,0:0:0:0:
256,328,51199,6,0,B|184:328|184:328|264:328,1,145,2|0,0:0|0:0,0:0:0:0:
328,328,51711,1,0,0:0:0:0:
256,240,51881,1,8,0:0:0:0:
112,240,52222,1,2,0:0:0:0:
272,160,52393,6,0,B|344:160|344:160|256:160,1,145,2|0,0:0|0:0,0:0:0:0:
192,160,52904,1,2,0:0:0:0:
112,160,53074,1,2,0:0:0:0:
272,296,53245,2,0,L|416:296,1,145,8|2,0:0|0:0,0:0:0:0:
344,224,53756,1,0,0:0:0:0:
184,224,53927,6,0,B|112:224|112:224|192:224,1,145,2|2,0:0|0:0,0:0:0:0:
256,224,54438,1,0,0:0:0:0:
328,224,54609,1,8,0:0:0:0:
184,328,54949,1,2,0:0:0:0:
344,328,55120,6,0,B|416:328|416:328|336:328,1,145,2|0,0:0|0:0,0:0:0:0:
272,328,55631,1,2,0:0:0:0:
200,328,55802,1,0,0:0:0:0:
352,112,55972,2,0,L|504:112,1,145,8|10,0:0|0:0,0:0:0:0:
176,176,56654,6,0,L|320:176,1,145,6|0,0:0|0:0,0:0:0:0:
248,104,57165,1,0,0:0:0:0:
176,104,57336,1,8,0:0:0:0:
320,232,57677,1,2,0:0:0:0:
160,336,57847,6,0,L|16:336,1,145,2|0,0:0|0:0,0:0:0:0:
88,256,58359,1,2,0:0:0:0:
160,256,58529,1,0,0:0:0:0:
233,256,58699,1,8,0:0:0:0:
376,256,59040,2,0,L|376:160,1,72.5,2|0,0:0|0:0,0:0:0:0:
216,168,59381,5,2,0:0:0:0:
72,256,59722,2,0,L|72:176,1,72.5,0|0,0:0|0:0,0:0:0:0:
232,168,60063,1,8,0:0:0:0:
376,72,60404,1,2,0:0:0:0:
304,72,60574,6,0,B|232:72|232:72|320:72,1,145,2|0,0:0|0:0,0:0:0:0:
376,152,61086,1,2,0:0:0:0:
448,152,61256,1,0,0:0:0:0:
288,304,61427,2,0,L|128:304,1,145,8|2,0:0|0:0,0:0:0:0:
216,224,61938,1,0,0:0:0:0:
376,224,62109,6,0,B|448:224|448:224|368:224,1,145,2|0,0:0|0:0,0:0:0:0:
304,224,62620,1,0,0:0:0:0:
232,224,62790,1,8,0:0:0:0:
376,144,63131,1,2,0:0:0:0:
216,328,63302,6,0,B|144:328|144:328|224:328,1,145,2|0,0:0|0:0,0:0:0:0:
296,328,63813,1,2,0:0:0:0:
376,328,63984,1,2,0:0:0:0:
216,224,64154,6,0,L|64:224,1,145,8|2,0:0|0:0,0:0:0:0:
144,152,64665,1,0,0:0:0:0:
304,152,64836,6,0,B|376:152|376:152|296:152,1,145,2|2,0:0|0:0,0:0:0:0:
232,72,65347,1,0,0:0:0:0:
304,72,65518,1,8,0:0:0:0:
448,224,65859,1,2,0:0:0:0:
288,224,66029,6,0,B|216:224|216:224|296:224,1,145,2|0,0:0|0:0,0:0:0:0:
360,144,66540,1,2,0:0:0:0:
287,144,66711,1,0,0:0:0:0:
128,352,66881,2,0,L|128:192,1,145,8|10,0:0|0:0,0:0:0:0:
408,352,67563,5,8,0:0:0:0:
296,320,73018,6,0,L|296:144,1,145,4|0,0:0|0:0,0:0:0:0:
152,320,73699,2,0,L|152:168,1,145,2|0,0:0|0:0,0:0:0:0:
296,320,74381,2,0,P|440:192|288:64,1,435,2|0,0:0|0:0,0:0:0:0:
152,320,75745,6,0,L|152:176,1,145,4|0,0:0|0:0,0:0:0:0:
296,320,76427,2,0,L|296:176,1,145,2|0,0:0|0:0,0:0:0:0:
440,192,77109,1,2,0:0:0:0:
176,336,78131,2,0,L|176:256,1,72.5,0|0,0:0|0:0,0:0:0:0:
248,264,78472,5,4,0:0:0:0:
392,192,78813,1,0,0:0:0:0:
464,192,78984,1,0,0:0:0:0:
392,192,79154,1,8,0:0:0:0:
248,136,79495,1,8,0:0:0:0:
176,136,79665,5,2,0:0:0:0:
320,320,80006,1,0,0:0:0:0:
392,320,80177,1,0,0:0:0:0:
320,248,80347,1,0,0:0:0:0:
248,248,80518,1,8,0:0:0:0:
104,248,80859,1,2,0:0:0:0:
104,176,81029,1,0,0:0:0:0:
176,176,81199,5,8,0:0:0:0:
320,248,81540,1,2,0:0:0:0:
320,176,81711,1,0,0:0:0:0:
248,176,81881,1,8,0:0:0:0:
104,88,82222,1,8,0:0:0:0:
176,88,82393,5,2,0:0:0:0:
320,336,82734,1,0,0:0:0:0:
392,336,82904,1,8,0:0:0:0:
320,256,83074,1,0,0:0:0:0:
248,256,83245,2,0,B|176:256|176:256|256:256,1,145,4|0,0:0|0:0,0:0:0:0:
400,256,83927,6,0,L|400:112,1,145,2|0,0:0|0:0,0:0:0:0:
256,112,84609,2,0,L|112:112,1,145,8|0,0:0|0:0,0:0:0:0:
256,320,85290,2,0,P|400:192|248:64,1,435,8|0,0:0|0:0,0:0:0:0:
112,320,86654,6,0,L|112:176,1,145,8|0,0:0|0:0,0:0:0:0:
256,184,87336,2,0,L|400:184,1,145,2|8,0:0|0:0,0:0:0:0:
256,280,88018,5,4,0:0:0:0:
256,192,88359,12,0,89040,0:0:0:0:
256,192,89381,5,4,0:0:0:0:
432,192,90063,1,2,0:0:0:0:
256,192,90745,1,2,0:0:0:0:
80,192,92109,5,4,0:0:0:0:
256,192,92790,1,2,0:0:0:0:
432,192,93472,1,2,0:0:0:0:
256,192,94836,5,4,0:0:0:0:
80,192,95518,1,2,0:0:0:0:
256,192,96199,1,2,0:0:0:0:
432,192,97563,5,4,0:0:0:0:
256,192,98245,1,2,0:0:0:0:
80,192,98927,1,2,0:0:0:0:
256,192,99268,12,0,99949,0:0:0:0:
256,192,100290,6,0,L|424:192,1,145,4|0,0:0|0:0,0:0:0:0:
256,104,100972,2,0,L|104:104,1,145,2|8,0:0|0:0,0:0:0:0:
256,288,101654,1,2,0:0:0:0:
112,272,102677,1,2,0:0:0:0:
256,272,103018,6,0,L|416:272,1,145,4|0,0:0|0:0,0:0:0:0:
256,152,103699,2,0,L|112:152,1,145,2|8,0:0|0:0,0:0:0:0:
256,64,104381,1,2,0:0:0:0:
400,296,104722,2,0,L|400:152,2,145,8|2|0,0:0|0:0|0:0,0:0:0:0:
256,192,105745,6,0,L|80:192,1,145,4|0,0:0|0:0,0:0:0:0:
256,88,106427,2,0,L|112:88,1,145,2|8,0:0|0:0,0:0:0:0:
256,296,107109,2,0,L|416:296,1,145,2|0,0:0|0:0,0:0:0:0:
256,192,107790,2,0,L|96:192,1,145,2|0,0:0|0:0,0:0:0:0:
256,336,108472,6,0,L|256:176,1,145,4|0,0:0|0:0,0:0:0:0:
400,64,109154,2,0,L|256:64,1,145,2|8,0:0|0:0,0:0:0:0:
112,64,109836,1,2,0:0:0:0:
296,296,110518,2,0,L|208:296,1,72.5,2|0,0:0|0:0,0:0:0:0:
152,296,110859,1,10,0:0:0:0:
424,192,111199,6,0,B|496:192|496:192|416:192,1,145,6|0,0:0|0:0,0:0:0:0:
352,192,111711,1,0,0:0:0:0:
280,192,111881,1,2,0:0:0:0:
136,96,112222,1,0,0:0:0:0:
208,96,112393,6,0,B|280:96|280:96|200:96,1,145,4|0,0:0|0:0,0:0:0:0:
136,176,112904,1,0,0:0:0:0:
64,176,113074,1,0,0:0:0:0:
136,176,113245,1,2,0:0:0:0:
280,336,113586,2,0,L|280:264,1,72.5,0|0,0:0|0:0,0:0:0:0:
208,208,113927,5,2,0:0:0:0:
64,336,114268,2,0,L|64:264,1,72.5,0|0,0:0|0:0,0:0:0:0:
136,208,114609,1,2,0:0:0:0:
280,120,114949,1,0,0:0:0:0:
352,48,115120,6,0,L|192:48,1,145,4|0,0:0|0:0,0:0:0:0:
136,48,115631,1,0,0:0:0:0:
136,120,115802,1,0,0:0:0:0:
208,120,115972,1,2,0:0:0:0:
352,256,116313,2,0,L|248:256,1,72.5,0|0,0:0|0:0,0:0:0:0:
208,256,116654,6,0,B|136:256|136:256|216:256,1,145,2|0,0:0|0:0,0:0:0:0:
280,184,117165,2,0,L|368:184,1,72.5,0|2,0:0|0:0,0:0:0:0:
208,104,117677,1,0,0:0:0:0:
136,40,117847,6,0,L|280:40,1,145,4|0,0:0|0:0,0:0:0:0:
352,40,118359,1,0,0:0:0:0:
280,112,118529,1,0,0:0:0:0:
208,112,118699,2,0,L|64:112,1,145,4|0,0:0|0:0,0:0:0:0:
64,192,119211,1,0,0:0:0:0:
136,256,119381,5,2,0:0:0:0:
280,256,119722,2,0,L|280:184,1,72.5,0|0,0:0|0:0,0:0:0:0:
208,120,120063,1,2,0:0:0:0:
64,120,120404,1,0,0:0:0:0:
136,48,120574,6,0,L|280:48,1,145,4|0,0:0|0:0,0:0:0:0:
352,120,121086,1,0,0:0:0:0:
280,120,121256,1,0,0:0:0:0:
208,120,121427,1,2,0:0:0:0:
64,272,121768,2,0,L|136:272,1,72.5,0|0,0:0|0:0,0:0:0:0:
296,272,122109,6,0,L|440:272,2,145,6|2|2,0:0|0:0|0:0,0:0:0:0:
152,192,123131,2,0,L|224:192,1,72.5,2|0,0:0|0:0,0:0:0:0:
384,120,123472,6,0,B|456:120|456:120|376:120,1,145,2|2,0:0|0:0,0:0:0:0:
240,232,124154,2,0,L|392:232,1,145,2|2,0:0|0:0,0:0:0:0:
112,232,124836,6,0,L|112:88,1,145,2|2,0:0|0:0,0:0:0:0:
256,80,125518,2,0,L|400:80,1,145,2|2,0:0|0:0,0:0:0:0:
128,328,126199,6,0,L|288:328,1,145,2|2,0:0|0:0,0:0:0:0:
128,232,126881,2,0,B|56:232|56:232|136:232,1,145,2|2,0:0|0:0,0:0:0:0:
400,232,127563,5,2,0:0:0:0:
256,232,127904,2,0,L|256:88,1,145,2|2,0:0|0:0,0:0:0:0:
400,88,128586,1,2,0:0:0:0:
128,320,128927,6,0,L|280:320,2,145,2|2|2,0:0|0:0|0:0,0:0:0:0:
128,176,129949,1,2,0:0:0:0:
400,176,130290,5,2,0:0:0:0:
472,176,130461,1,2,0:0:0:0:
400,176,130631,1,2,0:0:0:0:
256,296,130972,1,2,0:0:0:0:
183,296,131143,1,2,0:0:0:0:
111,296,131313,1,2,0:0:0:0:
384,72,131654,5,4,0:0:0:0:
240,184,131995,2,0,L|152:184,1,72.5,2|0,0:0|0:0,0:0:0:0:
240,104,132336,1,8,0:0:0:0:
384,176,132677,2,0,L|384:96,1,72.5,10|0,0:0|0:0,0:0:0:0:
224,328,133018,6,0,L|64:328,1,145,6|0,0:0|0:0,0:0:0:0:
152,256,133529,1,0,0:0:0:0:
224,256,133699,1,8,0:0:0:0:
368,192,134040,1,2,0:0:0:0:
208,192,134211,6,0,B|136:192|136:192|216:192,1,145,2|0,0:0|0:0,0:0:0:0:
280,192,134722,1,2,0:0:0:0:
280,120,134893,1,0,0:0:0:0:
208,120,135063,1,8,0:0:0:0:
64,288,135404,2,0,L|136:288,1,72.5,2|0,0:0|0:0,0:0:0:0:
296,288,135745,5,2,0:0:0:0:
440,184,136086,2,0,L|352:184,1,72.5,0|0,0:0|0:0,0:0:0:0:
208,184,136427,1,8,0:0:0:0:
64,328,136768,1,2,0:0:0:0:
136,328,136938,6,0,L|288:328,1,145,2|0,0:0|0:0,0:0:0:0:
352,256,137449,2,0,L|280:256,1,72.5,2|0,0:0|0:0,0:0:0:0:
120,192,137790,2,0,B|48:192|48:192|128:192,1,145,8|2,0:0|0:0,0:0:0:0:
192,192,138302,1,0,0:0:0:0:
352,104,138472,6,0,B|424:104|424:104|336:104,1,145,2|0,0:0|0:0,0:0:0:0:
280,104,138984,1,0,0:0:0:0:
208,104,139154,1,8,0:0:0:0:
352,208,139495,1,2,0:0:0:0:
192,208,139665,6,0,L|48:208,1,145,2|0,0:0|0:0,0:0:0:0:
120,136,140177,1,2,0:0:0:0:
192,136,140347,1,2,0:0:0:0:
352,136,140518,2,0,B|424:136|424:136|344:136,1,145,8|2,0:0|0:0,0:0:0:0:
280,136,141029,1,0,0:0:0:0:
120,304,141199,5,2,0:0:0:0:
240,304,141540,2,0,L|312:304,1,72.5,2|0,0:0|0:0,0:0:0:0:
472,304,141881,1,8,0:0:0:0:
352,208,142222,1,2,0:0:0:0:
280,208,142393,6,0,B|208:208|208:208|288:208,1,145,2|0,0:0|0:0,0:0:0:0:
352,128,142904,1,2,0:0:0:0:
424,128,143074,1,0,0:0:0:0:
264,320,143245,2,0,L|120:320,1,145,8|10,0:0|0:0,0:0:0:0:
392,232,143927,6,0,B|464:232|464:232|384:232,1,145,6|0,0:0|0:0,0:0:0:0:
320,232,144438,1,0,0:0:0:0:
248,232,144609,1,8,0:0:0:0:
392,144,144949,1,2,0:0:0:0:
232,144,145120,6,0,L|80:144,1,145,2|0,0:0|0:0,0:0:0:0:
160,72,145631,1,2,0:0:0:0:
232,72,145802,1,0,0:0:0:0:
304,72,145972,1,8,0:0:0:0:
448,320,146313,2,0,L|448:240,1,72.5,2|0,0:0|0:0,0:0:0:0:
288,240,146654,5,2,0:0:0:0:
144,328,146995,2,0,L|144:240,1,72.5,0|0,0:0|0:0,0:0:0:0:
304,240,147336,1,8,0:0:0:0:
448,168,147677,1,2,0:0:0:0:
376,168,147847,6,0,B|304:168|304:168|384:168,1,145,2|0,0:0|0:0,0:0:0:0:
448,96,148359,1,2,0:0:0:0:
376,96,148529,1,0,0:0:0:0:
216,272,148699,2,0,L|64:272,1,145,8|2,0:0|0:0,0:0:0:0:
144,200,149211,1,0,0:0:0:0:
304,200,149381,6,0,B|376:200|376:200|296:200,1,145,2|0,0:0|0:0,0:0:0:0:
232,200,149893,1,0,0:0:0:0:
160,200,150063,1,8,0:0:0:0:
16,112,150404,1,2,0:0:0:0:
176,320,150574,6,0,B|248:320|248:320|168:320,1,145,2|0,0:0|0:0,0:0:0:0:
104,320,151086,1,2,0:0:0:0:
32,320,151256,1,2,0:0:0:0:
192,224,151427,2,0,L|344:224,1,145,8|2,0:0|0:0,0:0:0:0:
264,152,151938,1,0,0:0:0:0:
104,80,152109,6,0,B|32:80|32:80|112:80,1,145,2|2,0:0|0:0,0:0:0:0:
176,80,152620,1,0,0:0:0:0:
248,80,152790,1,8,0:0:0:0:
392,80,153131,1,2,0:0:0:0:
232,192,153302,6,0,B|160:192|160:192|248:192,1,145,2|0,0:0|0:0,0:0:0:0:
304,192,153813,1,2,0:0:0:0:
376,192,153984,1,0,0:0:0:0:
216,120,154154,2,0,L|56:120,1,145,8|10,0:0|0:0,0:0:0:0:
152,192,154665,1,0,0:0:0:0:
320,328,154836,6,0,P|416:216|328:160,1,290,6|8,0:0|0:0,0:0:0:0:
184,168,155859,2,0,L|256:168,1,72.5,2|2,0:0|0:0,0:0:0:0:
416,336,156199,6,0,B|488:336|488:336|408:336,1,145,4|2,0:0|0:0,0:0:0:0:
272,248,156881,2,0,L|416:248,1,145,8|2,0:0|0:0,0:0:0:0:
144,288,157563,6,0,L|144:144,1,145,2|0,0:0|0:0,0:0:0:0:
288,64,158245,2,0,L|136:64,1,145,8|2,0:0|0:0,0:0:0:0:
416,320,158927,5,2,0:0:0:0:
272,320,159268,1,2,0:0:0:0:
128,320,159609,1,8,0:0:0:0:
272,216,159949,2,0,L|352:216,1,72.5,2|0,0:0|0:0,0:0:0:0:
184,328,160290,6,0,P|88:216|176:160,1,290,2|8,0:0|0:0,0:0:0:0:
320,168,161313,2,0,L|392:168,1,72.5,2|2,0:0|0:0,0:0:0:0:
232,64,161654,6,0,L|80:64,2,145,4|2|8,0:0|0:0|0:0,0:0:0:0:
88,192,162677,1,2,0:0:0:0:
360,192,163018,6,0,B|432:192|432:192|352:192,1,145,2|2,0:0|0:0,0:0:0:0:
216,88,163699,2,0,L|72:88,1,145,8|2,0:0|0:0,0:0:0:0:
344,320,164381,5,2,0:0:0:0:
488,320,164722,1,2,0:0:0:0:
344,320,165063,1,8,0:0:0:0:
200,240,165404,2,0,L|128:240,1,72.5,8|0,0:0|0:0,0:0:0:0:
288,240,165745,6,0,P|328:176|192:40,1,290,6|8,0:0|0:0,0:0:0:0:
352,336,166768,2,0,L|424:336,1,72.5,2|2,0:0|0:0,0:0:0:0:
264,336,167109,6,0,L|112:336,1,145,4|2,0:0|0:0,0:0:0:0:
264,240,167790,2,0,L|104:240,1,145,8|2,0:0|0:0,0:0:0:0:
392,192,168472,5,2,0:0:0:0:
248,192,168813,2,0,L|248:48,1,145,2|8,0:0|0:0,0:0:0:0:
392,48,169495,1,2,0:0:0:0:
120,320,169836,6,0,L|280:320,2,145,4|2|8,0:0|0:0|0:0,0:0:0:0:
120,192,170859,1,2,0:0:0:0:
392,192,171199,6,0,B|464:192|464:192|376:192,1,145,2|0,0:0|0:0,0:0:0:0:
248,88,171881,2,0,L|104:88,1,145,8|2,0:0|0:0,0:0:0:0:
376,352,172563,5,4,0:0:0:0:
232,352,172904,1,2,0:0:0:0:
88,352,173245,1,8,0:0:0:0:
232,256,173586,1,2,0:0:0:0:
496,176,173927,6,0,L|352:176,1,145,2|2,0:0|0:0,0:0:0:0:
208,80,174609,2,0,L|64:80,1,145,8|2,0:0|0:0,0:0:0:0:
336,312,175290,6,0,B|408:312|408:312|320:312,1,145,4|2,0:0|0:0,0:0:0:0:
192,208,175972,2,0,L|344:208,1,145,8|4,0:0|0:0,0:0:0:0:
64,312,176654,5,2,0:0:0:0:
