osu file format v14

[General]
AudioFilename: audio.mp3
AudioLeadIn: 0
PreviewTime: 132975
Countdown: 0
SampleSet: Soft
StackLeniency: 0.7
Mode: 2
LetterboxInBreaks: 0
WidescreenStoryboard: 1

[Editor]
Bookmarks: 2109,13018,23927,34836,45745,67563,78472,89381,100290,111199,122109,133018,154836,176654
DistanceSpacing: 1.6
BeatDivisor: 6
GridSize: 4
TimelineZoom: 1.7

[Metadata]
Title:wasurena feat. Sennzai
TitleUnicode:勿忘 feat. Sennzai
Artist:tokiwa
ArtistUnicode:常盤
Creator:Sanyi
Version:Hyperion's Rain
Source:
Tags:souvenir jbhyperion jbh hyperion fa featured artist mg mappers' guild japanese electronic
BeatmapID:3344287
BeatmapSetID:1638487

[Difficulty]
HPDrainRate:6
CircleSize:3.8
OverallDifficulty:9
ApproachRate:9
SliderMultiplier:1.75
SliderTickRate:2

[Events]
//Background and Video events
0,0,"bg.jpg",0,0
//Break Periods
2,67763,74381
//Storyboard Layer 0 (Background)
//Storyboard Layer 1 (Fail)
//Storyboard Layer 2 (Pass)
//Storyboard Layer 3 (Foreground)
//Storyboard Layer 4 (Overlay)
//Storyboard Sound Samples

[TimingPoints]
2109,340.909090909091,4,2,1,40,1,0
4154,-100,4,3,2,40,0,0
4495,-100,4,2,1,40,0,0
6881,-100,4,3,2,40,0,0
7052,-100,4,2,1,40,0,0
9609,-100,4,3,2,40,0,0
9949,-100,4,2,1,40,0,0
12336,-100,4,3,2,40,0,0
12506,-100,4,2,1,40,0,0
17790,-100,4,2,7,40,0,0
18131,-100,4,2,1,40,0,0
23245,-100,4,3,1,50,0,0
23586,-100,4,2,7,60,0,0
23927,-100,4,2,2,60,0,0
24097,-100,4,2,1,60,0,0
25120,-100,4,2,7,60,0,0
25290,-100,4,2,1,60,0,0
25972,-100,4,2,1,80,0,0
26143,-100,4,2,1,60,0,0
27847,-100,4,2,7,60,0,0
28017,-100,4,2,1,60,0,0
28699,-100,4,2,1,80,0,0
28870,-100,4,2,1,60,0,0
30574,-100,4,2,7,60,0,0
30744,-100,4,2,1,60,0,0
31427,-100,4,2,7,60,0,0
31597,-100,4,2,1,60,0,0
32109,-100,4,2,1,80,0,0
32280,-100,4,2,1,60,0,0
33302,-100,4,2,7,60,0,0
33472,-100,4,2,1,60,0,0
34154,-100,4,2,1,80,0,0
34325,-100,4,2,1,60,0,0
34836,-100,4,2,2,60,0,0
43018,-100,4,2,2,60,0,0
44381,-100,4,3,2,60,0,0
45404,-100,4,2,7,60,0,0
45745,-100,4,2,3,70,0,1
46768,-100,4,2,1,80,0,1
46938,-100,4,2,3,70,0,1
48131,-100,4,2,1,80,0,1
48301,-100,4,2,3,70,0,1
49495,-100,4,2,1,80,0,1
49665,-100,4,2,3,70,0,1
52222,-100,4,2,1,80,0,1
52392,-100,4,2,3,70,0,1
53074,-100,4,2,1,80,0,1
53244,-100,4,2,3,70,0,1
53586,-100,4,2,1,80,0,1
53756,-100,4,2,3,70,0,1
54268,-100,4,2,1,80,0,1
54438,-100,4,2,3,70,0,1
54949,-100,4,2,1,80,0,1
55119,-100,4,2,3,70,0,1
55972,-100,4,2,3,70,0,1
56313,-100,4,2,7,70,0,0
56654,-100,4,2,3,70,0,1
57677,-100,4,2,1,80,0,1
57847,-100,4,2,3,70,0,1
59040,-100,4,2,1,80,0,1
59210,-100,4,2,3,70,0,1
60404,-100,4,2,1,80,0,1
60574,-100,4,2,3,70,0,1
63131,-100,4,2,1,80,0,1
63301,-100,4,2,3,70,0,1
63984,-100,4,2,1,80,0,1
64154,-100,4,2,3,70,0,1
64495,-100,4,2,1,80,0,1
64665,-100,4,2,3,70,0,1
65177,-100,4,2,1,80,0,1
65347,-100,4,2,3,70,0,1
65859,-100,4,2,1,80,0,1
66029,-100,4,2,3,70,0,1
67222,-100,4,2,7,70,0,1
67563,-100,4,3,2,80,0,0
67734,-100,4,2,1,40,0,0
75745,-100,4,2,1,10,0,0
76086,-100,4,2,1,13,0,0
76427,-100,4,2,1,17,0,0
76768,-100,4,2,1,20,0,0
77109,-100,4,2,1,23,0,0
77449,-100,4,2,1,27,0,0
77790,-100,4,2,1,30,0,0
78131,-100,4,2,1,5,0,0
78472,-100,4,2,1,50,0,0
79154,-100,4,3,2,50,0,0
79324,-100,4,2,1,50,0,0
80518,-100,4,3,2,50,0,0
80688,-100,4,2,1,50,0,0
81881,-100,4,3,2,50,0,0
82051,-100,4,2,1,50,0,0
83245,-100,4,3,2,50,0,0
83415,-100,4,2,1,50,0,0
85290,-100,4,3,2,50,0,0
85460,-100,4,2,1,50,0,0
88018,-100,4,3,2,50,0,0
88188,-100,4,2,1,50,0,0
88699,-100,4,3,2,50,0,0
89040,-100,4,2,1,50,0,0
89211,-100,4,2,1,5,0,0
89381,-100,4,2,1,50,0,0
91427,-100,4,3,2,50,0,0
91768,-100,4,2,1,50,0,0
94154,-100,4,3,2,50,0,0
94324,-100,4,2,1,50,0,0
96881,-100,4,3,2,50,0,0
97222,-100,4,2,1,50,0,0
110518,-100,4,3,1,50,0,0
110859,-100,4,2,7,60,0,0
111200,-100,4,2,2,60,0,0
111370,-100,4,2,1,60,0,0
112393,-100,4,2,7,60,0,0
112563,-100,4,2,1,60,0,0
113245,-100,4,2,1,80,0,0
113416,-100,4,2,1,60,0,0
115120,-100,4,2,7,60,0,0
115290,-100,4,2,1,60,0,0
115972,-100,4,2,1,80,0,0
116143,-100,4,2,1,60,0,0
117847,-100,4,2,7,60,0,0
118017,-100,4,2,1,60,0,0
118700,-100,4,2,7,60,0,0
118870,-100,4,2,1,60,0,0
119382,-100,4,2,1,80,0,0
119553,-100,4,2,1,60,0,0
120575,-100,4,2,7,60,0,0
120745,-100,4,2,1,60,0,0
121427,-100,4,2,1,80,0,0
121598,-100,4,2,1,60,0,0
122109,-100,4,2,2,70,0,0
130290,-100,4,2,2,70,0,0
131654,-100,4,3,2,60,0,0
132677,-100,4,2,7,60,0,0
133018,-86.9565217391304,4,2,3,80,0,1
134040,-86.9565217391304,4,2,1,90,0,1
134210,-86.9565217391304,4,2,3,80,0,1
135403,-86.9565217391304,4,2,1,90,0,1
135573,-86.9565217391304,4,2,3,80,0,1
136767,-86.9565217391304,4,2,1,90,0,1
136937,-86.9565217391304,4,2,3,80,0,1
139494,-86.9565217391304,4,2,1,90,0,1
139664,-86.9565217391304,4,2,3,80,0,1
140346,-86.9565217391304,4,2,1,90,0,1
140516,-86.9565217391304,4,2,3,80,0,1
140858,-86.9565217391304,4,2,1,90,0,1
141028,-86.9565217391304,4,2,3,80,0,1
141540,-86.9565217391304,4,2,1,90,0,1
141710,-86.9565217391304,4,2,3,80,0,1
142221,-86.9565217391304,4,2,1,90,0,1
142391,-86.9565217391304,4,2,3,80,0,1
143244,-86.9565217391304,4,2,3,80,0,1
143586,-86.9565217391304,4,2,7,80,0,0
143927,-86.9565217391304,4,2,3,80,0,1
144949,-86.9565217391304,4,2,1,90,0,1
145119,-86.9565217391304,4,2,3,80,0,1
146312,-86.9565217391304,4,2,1,90,0,1
146482,-86.9565217391304,4,2,3,80,0,1
147676,-86.9565217391304,4,2,1,90,0,1
147846,-86.9565217391304,4,2,3,80,0,1
150403,-86.9565217391304,4,2,1,90,0,1
150573,-86.9565217391304,4,2,3,80,0,1
151256,-86.9565217391304,4,2,1,90,0,1
151426,-86.9565217391304,4,2,3,80,0,1
151767,-86.9565217391304,4,2,1,90,0,1
151937,-86.9565217391304,4,2,3,80,0,1
152449,-86.9565217391304,4,2,1,90,0,1
152619,-86.9565217391304,4,2,3,80,0,1
153131,-86.9565217391304,4,2,1,90,0,1
153301,-86.9565217391304,4,2,3,80,0,1
154495,-86.9565217391304,4,2,7,80,0,0
154836,-86.9565217391304,4,2,3,80,0,1
155859,-86.9565217391304,4,2,1,90,0,1
156029,-86.9565217391304,4,2,3,80,0,1
156199,-86.9565217391304,4,2,1,90,0,1
156370,-86.9565217391304,4,2,3,80,0,1
157222,-86.9565217391304,4,2,1,90,0,1
157392,-86.9565217391304,4,2,3,80,0,1
158586,-86.9565217391304,4,2,1,90,0,1
158756,-86.9565217391304,4,2,3,80,0,1
158927,-86.9565217391304,4,2,1,90,0,1
159097,-86.9565217391304,4,2,3,80,0,1
161313,-86.9565217391304,4,2,1,90,0,1
161483,-86.9565217391304,4,2,3,80,0,1
161654,-86.9565217391304,4,2,1,90,0,1
161824,-86.9565217391304,4,2,3,80,0,1
162165,-86.9565217391304,4,2,1,90,0,1
162335,-86.9565217391304,4,2,3,80,0,1
162677,-86.9565217391304,4,2,1,90,0,1
162847,-86.9565217391304,4,2,3,80,0,1
163359,-86.9565217391304,4,2,1,90,0,1
163529,-86.9565217391304,4,2,3,80,0,1
164040,-86.9565217391304,4,2,1,90,0,1
164210,-86.9565217391304,4,2,3,80,0,1
164381,-86.9565217391304,4,2,1,90,0,1
164552,-86.9565217391304,4,2,3,80,0,1
165063,-86.9565217391304,4,2,3,80,0,1
165404,-86.9565217391304,4,3,2,80,0,0
165745,-86.9565217391304,4,2,3,80,0,1
166768,-86.9565217391304,4,2,1,90,0,1
166938,-86.9565217391304,4,2,3,80,0,1
167108,-86.9565217391304,4,2,1,90,0,1
167279,-86.9565217391304,4,2,3,80,0,1
168131,-86.9565217391304,4,2,1,90,0,1
168472,-86.9565217391304,4,2,3,80,0,1
168813,-86.9565217391304,4,2,1,90,0,1
168984,-86.9565217391304,4,2,3,80,0,1
169495,-86.9565217391304,4,2,1,90,0,1
169665,-86.9565217391304,4,2,3,80,0,1
169836,-86.9565217391304,4,2,1,90,0,1
170006,-86.9565217391304,4,2,3,80,0,1
172222,-86.9565217391304,4,2,1,90,0,1
172392,-86.9565217391304,4,2,3,80,0,1
172563,-86.9565217391304,4,2,1,90,0,1
172733,-86.9565217391304,4,2,3,80,0,1
173074,-86.9565217391304,4,2,1,90,0,1
173244,-86.9565217391304,4,2,3,80,0,1
173586,-86.9565217391304,4,2,1,90,0,1
173756,-86.9565217391304,4,2,3,80,0,1
174268,-86.9565217391304,4,2,1,90,0,1
174609,-86.9565217391304,4,2,3,80,0,1
174949,-86.9565217391304,4,2,1,90,0,1
175119,-86.9565217391304,4,2,3,80,0,1
175290,-86.9565217391304,4,2,1,90,0,1
175461,-86.9565217391304,4,2,3,80,0,1
175972,-86.9565217391304,4,2,3,80,0,1
176313,-86.9565217391304,4,3,2,80,0,1
176654,-86.9565217391304,4,2,1,80,0,0

[Colours]
Combo1 : 159,159,159
Combo2 : 0,128,192

[HitObjects]
332,192,2109,6,0,L|336:8,1,175,4|0,0:0|0:0,0:0:0:0:
196,304,2790,2,0,L|192:112,1,175,2|0,0:0|0:0,0:0:0:0:
464,192,3472,2,0,L|476:96,2,87.5,2|0|0,0:0|0:0|0:0,0:0:0:0:
288,192,4154,1,8,0:0:0:0:
444,192,4495,1,0,0:0:0:0:
172,192,4836,6,0,L|168:16,1,175,4|0,0:0|0:0,0:0:0:0:
380,16,5518,1,2,0:0:0:0:
144,16,5859,1,0,0:0:0:0:
408,16,6199,2,0,P|428:100|400:184,1,175,2|0,0:0|0:0,0:0:0:0:
224,192,6881,1,8,0:0:0:0:
313,188,7052,1,0,0:0:0:0:
401,182,7222,1,0,0:0:0:0:
313,188,7393,1,0,0:0:0:0:
136,188,7563,6,0,L|132:368,1,175,4|0,0:0|0:0,0:0:0:0:
284,288,8245,2,0,L|288:104,1,175,2|0,0:0|0:0,0:0:0:0:
24,192,8927,1,2,0:0:0:0:
22,104,9097,1,0,0:0:0:0:
20,17,9268,1,0,0:0:0:0:
200,192,9609,1,8,0:0:0:0:
44,192,9949,1,0,0:0:0:0:
304,192,10290,6,0,B|392:192|392:192|392:104,1,175,4|0,0:0|0:0,0:0:0:0:
252,104,10972,2,0,B|164:104|164:104|164:16,1,175,2|0,0:0|0:0,0:0:0:0:
304,16,11654,2,0,L|308:192,1,175,2|0,0:0|0:0,0:0:0:0:
132,192,12336,2,0,L|52:146,2,87.5,8|0|0,0:0|0:0|0:0,0:0:0:0:
220,192,12847,1,0,0:0:0:0:
456,192,13018,6,0,P|468:276|408:336,1,175,4|0,0:0|0:0,0:0:0:0:
320,336,13529,1,0,0:0:0:0:
144,336,13699,2,0,L|140:228,1,87.5,2|0,0:0|0:0,0:0:0:0:
228,212,14040,1,8,0:0:0:0:
400,192,14381,2,0,P|432:116|384:40,1,175,2|0,0:0|0:0,0:0:0:0:
304,20,14893,1,0,0:0:0:0:
216,20,15063,2,0,L|128:20,1,87.5
232,20,15404,2,0,L|236:128,1,87.5,2|0,0:0|0:0,0:0:0:0:
60,120,15745,6,0,P|32:176|64:280,1,175,4|0,0:0|0:0,0:0:0:0:
152,280,16256,1,0,0:0:0:0:
240,280,16427,2,0,L|244:384,1,87.5,2|0,0:0|0:0,0:0:0:0:
68,368,16768,2,0,L|156:368,1,87.5,8|0,0:0|0:0,0:0:0:0:
332,368,17109,2,0,L|336:260,1,87.5,2|0,0:0|0:0,0:0:0:0:
240,280,17449,1,8,0:0:0:0:
396,280,17790,2,0,B|484:280|484:280|484:192,1,175,4|0,0:0|0:0,0:0:0:0:
396,188,18302,1,0,0:0:0:0:
216,188,18472,6,0,B|124:188|124:188|212:188,1,175,4|0,0:0|0:0,0:0:0:0:
296,188,18984,1,0,0:0:0:0:
460,188,19154,2,0,P|504:132|456:52,1,175,2|8,0:0|0:0,0:0:0:0:
300,52,19836,2,0,L|296:248,1,175,2|0,0:0|0:0,0:0:0:0:
211,208,20347,1,0,0:0:0:0:
124,190,20518,2,0,L|296:226,1,175,2|0,0:0|0:0,0:0:0:0:
32,352,21199,6,0,P|25:273|80:192,1,175,4|0,0:0|0:0,0:0:0:0:
164,192,21711,1,0,0:0:0:0:
252,192,21881,1,2,0:0:0:0:
60,192,22222,1,8,0:0:0:0:
252,192,22563,2,0,L|432:192,1,175,2|8,0:0|0:0,0:0:0:0:
144,192,23245,2,0,L|136:152,3,29.1666666666667,2|0|0|0,0:0|0:0|0:0|0:0,0:0:0:0:
316,192,23586,2,0,L|408:192,1,87.5,10|0,0:0|0:0,0:0:0:0:
120,192,23927,6,0,P|72:124|120:56,1,175,6|0,0:0|0:0,0:0:0:0:
204,56,24438,1,0,0:0:0:0:
292,56,24609,2,0,B|292:144|292:144|200:144,1,175,2|0,0:0|0:0,0:0:0:0:
384,56,25120,2,0,P|432:124|384:192,1,175,4|0,0:0|0:0,0:0:0:0:
300,192,25631,2,0,L|296:292,1,87.5
472,192,25972,1,2,0:0:0:0:
300,192,26313,2,0,L|192:192,1,87.5,2|0,0:0|0:0,0:0:0:0:
36,192,26654,6,0,P|20:252|84:336,1,175,2|0,0:0|0:0,0:0:0:0:
172,336,27165,1,0,0:0:0:0:
260,336,27336,2,0,L|76:336,1,175,2|0,0:0|0:0,0:0:0:0:
244,336,27847,2,0,P|296:276|244:212,1,175,4|0,0:0|0:0,0:0:0:0:
196,212,28273,1,0,0:0:0:0:
148,212,28359,1,2,0:0:0:0:
304,212,28529,1,0,0:0:0:0:
60,212,28699,2,0,P|16:160|64:76,1,175,2|0,0:0|0:0,0:0:0:0:
152,76,29211,1,0,0:0:0:0:
396,72,29381,6,0,P|420:136|356:212,1,175,2|0,0:0|0:0,0:0:0:0:
268,212,29893,1,0,0:0:0:0:
180,212,30063,2,0,L|176:92,1,87.5,2|0,0:0|0:0,0:0:0:0:
344,124,30404,1,0,0:0:0:0:
92,124,30574,2,0,B|8:148|8:148|92:176,1,175,4|0,0:0|0:0,0:0:0:0:
248,176,31086,1,2,0:0:0:0:
76,176,31256,1,0,0:0:0:0:
340,176,31427,2,0,P|384:264|340:312,1,175,4|0,0:0|0:0,0:0:0:0:
164,312,31938,1,0,0:0:0:0:
412,312,32109,6,0,B|500:312|500:312|500:224,1,175,2|0,0:0|0:0,0:0:0:0:
412,224,32620,1,0,0:0:0:0:
236,224,32790,2,0,B|236:136|236:136|328:136,1,175,2|0,0:0|0:0,0:0:0:0:
152,90,33302,2,0,L|323:136,1,175,4|0,0:0|0:0,0:0:0:0:
408,136,33813,1,0,0:0:0:0:
232,136,33984,1,0,0:0:0:0:
480,136,34154,2,0,P|488:240|468:336,1,175,2|0,0:0|0:0,0:0:0:0:
388,308,34665,1,0,0:0:0:0:
122,308,34836,6,0,L|117:132,1,175,6|2,0:0|0:0,0:0:0:0:
204,132,35347,1,0,0:0:0:0:
292,132,35518,2,0,B|296:220|296:220|208:220,1,175,2|2,0:0|0:0,0:0:0:0:
304,220,36029,1,0,0:0:0:0:
128,220,36199,6,0,P|76:280|128:344,1,175,2|2,0:0|0:0,0:0:0:0:
216,344,36711,1,0,0:0:0:0:
260,344,36796,1,0,0:0:0:0:
304,344,36881,2,0,L|308:248,1,87.5,2|0,0:0|0:0,0:0:0:0:
132,192,37222,2,0,L|88:192,2,43.75,2|0|0,0:0|0:0|0:0,0:0:0:0:
308,192,37563,6,0,B|396:192|396:192|396:104,1,175,2|2,0:0|0:0,0:0:0:0:
308,104,38074,1,0,0:0:0:0:
148,104,38245,2,0,L|144:8,1,87.5,2|0,0:0|0:0,0:0:0:0:
320,16,38586,2,0,L|368:16,2,43.75,2|0|0,0:0|0:0|0:0,0:0:0:0:
72,104,38927,6,0,L|189:36,2,131.25,2|0|0,0:0|0:0|0:0,0:0:0:0:
248,36,39609,2,0,L|252:132,1,87.5,2|0,0:0|0:0,0:0:0:0:
76,192,39949,2,0,B|32:192|32:192|80:192,1,87.5,2|0,0:0|0:0,0:0:0:0:
128,192,40205,1,0,0:0:0:0:
296,192,40290,6,0,B|472:192,1,175,2|2,0:0|0:0,0:0:0:0:
384,192,40802,1,0,0:0:0:0:
208,192,40972,2,0,P|156:256|208:320,1,175,2|2,0:0|0:0,0:0:0:0:
292,320,41484,1,0,0:0:0:0:
468,320,41654,6,0,L|472:216,1,87.5,2|0,0:0|0:0,0:0:0:0:
376,192,41995,2,0,L|380:96,1,87.5,2|0,0:0|0:0,0:0:0:0:
216,56,42336,2,0,P|212:104|232:144,1,87.5,2|0,0:0|0:0,0:0:0:0:
260,180,42591,1,0,0:0:0:0:
312,192,42677,1,2,0:0:0:0:
208,192,42847,1,0,0:0:0:0:
384,192,43018,6,0,L|449:126,3,87.5,2|2|2|2,0:0|0:0|0:0|0:0,0:0:0:0:
280,76,43699,2,0,L|364:40,3,87.5,2|2|2|2,0:0|0:0|0:0|0:0,0:0:0:0:
184,72,44381,6,0,L|180:176,1,87.5,4|0,0:0|0:0,0:0:0:0:
268,192,44722,1,2,0:0:0:0:
268,192,44807,1,2,0:0:0:0:
268,192,44893,1,0,0:0:0:0:
176,192,45063,1,8,0:0:0:0:
280,192,45234,1,0,0:0:0:0:
36,192,45404,2,0,P|4:256|36:304,1,131.25,10|0,0:0|0:0,0:0:0:0:
212,300,45745,6,0,L|388:300,1,175,6|0,0:0|0:0,0:0:0:0:
476,300,46256,1,0,0:0:0:0:
300,300,46427,2,0,B|300:212|300:212|384:192,1,175,8|2,0:0|0:0,0:0:0:0:
140,192,46938,6,0,L|316:192,1,175,2|0,0:0|0:0,0:0:0:0:
140,192,47449,2,0,L|52:192,1,87.5,2|0,0:0|0:0,0:0:0:0:
96,192,47705,1,0,0:0:0:0:
272,192,47790,2,0,B|360:192|360:192|360:104,1,175,8|2,0:0|0:0,0:0:0:0:
272,104,48302,1,0,0:0:0:0:
448,104,48472,6,0,P|500:168|448:228,1,175,2|0,0:0|0:0,0:0:0:0:
360,228,48984,1,0,0:0:0:0:
184,228,49154,1,8,0:0:0:0:
272,228,49324,1,0,0:0:0:0:
360,228,49495,1,2,0:0:0:0:
184,228,49665,6,0,P|174:302|236:376,1,175,2|0,0:0|0:0,0:0:0:0:
412,376,50177,2,0,L|325:326,1,87.5,2|0,0:0|0:0,0:0:0:0:
72,328,50518,2,0,P|20:264|72:200,1,175,8|2,0:0|0:0,0:0:0:0:
156,200,51029,1,0,0:0:0:0:
332,200,51199,6,0,L|336:104,1,87.5,2|0,0:0|0:0,0:0:0:0:
240,112,51540,1,0,0:0:0:0:
344,112,51711,1,0,0:0:0:0:
184,112,51881,2,0,L|180:16,1,87.5,8|0,0:0|0:0,0:0:0:0:
356,24,52222,1,2,0:0:0:0:
92,24,52393,6,0,P|40:80|92:152,1,175,2|0,0:0|0:0,0:0:0:0:
256,192,52904,2,0,L|156:192,1,87.5,2|2,0:0|0:0,0:0:0:0:
416,192,53245,2,0,B|420:280,1,87.5,8|0,0:0|0:0,0:0:0:0:
244,280,53586,1,2,0:0:0:0:
408,280,53756,1,0,0:0:0:0:
144,280,53927,6,0,B|144:368|144:368|232:368,1,175,2|2,0:0|0:0,0:0:0:0:
320,368,54438,1,0,0:0:0:0:
144,280,54609,1,8,0:0:0:0:
240,280,54779,1,0,0:0:0:0:
336,280,54949,1,2,0:0:0:0:
156,280,55120,6,0,L|152:88,1,175,2|0,0:0|0:0,0:0:0:0:
328,104,55631,2,0,L|240:104,1,87.5,2|0,0:0|0:0,0:0:0:0:
492,104,55972,2,0,B|492:16|492:16|400:16,1,175,8|10,0:0|0:0,0:0:0:0:
308,16,56484,1,0,0:0:0:0:
256,16,56569,1,0,0:0:0:0:
80,16,56654,6,0,P|20:72|68:140,1,175,6|0,0:0|0:0,0:0:0:0:
160,140,57165,1,0,0:0:0:0:
332,248,57336,2,0,B|332:160|332:160|248:140,1,175,8|2,0:0|0:0,0:0:0:0:
492,140,57847,6,0,L|316:140,1,175,2|0,0:0|0:0,0:0:0:0:
140,248,58359,2,0,L|228:248,1,87.5,2|0,0:0|0:0,0:0:0:0:
276,248,58614,1,0,0:0:0:0:
452,336,58699,2,0,B|456:232,1,87.5,8|0,0:0|0:0,0:0:0:0:
408,228,58955,1,0,0:0:0:0:
360,208,59040,1,2,0:0:0:0:
468,248,59211,1,0,0:0:0:0:
292,204,59381,6,0,P|240:140|292:80,1,175,2|0,0:0|0:0,0:0:0:0:
380,80,59893,2,0,L|424:80,1,43.75
248,80,60063,1,8,0:0:0:0:
160,80,60234,1,0,0:0:0:0:
72,80,60404,1,2,0:0:0:0:
248,80,60574,6,0,P|305:142|298:227,1,175,2|0,0:0|0:0,0:0:0:0:
152,228,61086,1,2,0:0:0:0:
312,228,61256,1,0,0:0:0:0:
64,228,61427,2,0,P|16:248|8:280,1,87.5,8|0,0:0|0:0,0:0:0:0:
20,332,61682,1,0,0:0:0:0:
72,352,61768,1,2,0:0:0:0:
168,352,61938,1,0,0:0:0:0:
344,356,62109,6,0,L|348:260,1,87.5,2|0,0:0|0:0,0:0:0:0:
252,192,62449,2,0,L|252:144,1,43.75
312,192,62620,2,0,L|312:148,1,43.75
140,192,62790,2,0,L|52:192,1,87.5,8|0,0:0|0:0,0:0:0:0:
192,192,63131,1,2,0:0:0:0:
440,64,63302,6,0,P|492:120|440:192,1,175,2|0,0:0|0:0,0:0:0:0:
288,192,63813,1,2,0:0:0:0:
456,192,63984,1,2,0:0:0:0:
192,192,64154,2,0,B|148:192|148:192|196:192,1,87.5,8|0,0:0|0:0,0:0:0:0:
236,192,64410,1,0,0:0:0:0:
412,192,64495,2,0,L|308:192,1,87.5,2|0,0:0|0:0,0:0:0:0:
76,192,64836,6,0,B|76:279|76:279|164:279,1,175,2|2,0:0|0:0,0:0:0:0:
252,280,65347,1,0,0:0:0:0:
427,280,65518,2,0,L|336:280,2,87.5,8|0|2,0:0|0:0|0:0,0:0:0:0:
180,280,66029,6,0,P|168:196|240:152,1,175,2|0,0:0|0:0,0:0:0:0:
404,152,66540,2,0,L|316:152,1,87.5,2|0,0:0|0:0,0:0:0:0:
72,152,66881,2,0,L|68:56,1,87.5,8|0,0:0|0:0,0:0:0:0:
68,64,67137,1,0,0:0:0:0:
244,64,67222,2,0,L|332:64,1,87.5,10|0,0:0|0:0,0:0:0:0:
38,64,67563,5,8,0:0:0:0:
256,192,75745,12,0,78131,0:0:0:0:
112,192,78472,6,0,P|80:156|128:56,1,175,4|0,0:0|0:0,0:0:0:0:
216,56,78984,1,0,0:0:0:0:
120,56,79154,1,8,0:0:0:0:
384,56,79495,1,8,0:0:0:0:
472,56,79665,2,0,B|472:148|472:148|400:192,1,175,2|0,0:0|0:0,0:0:0:0:
312,192,80177,1,0,0:0:0:0:
148,192,80347,2,0,L|144:240,2,43.75,0|0|8,0:0|0:0|0:0,0:0:0:0:
296,192,80859,2,0,L|220:236,1,87.5,2|0,0:0|0:0,0:0:0:0:
60,236,81199,6,0,P|52:284|136:368,1,175,8|2,0:0|0:0,0:0:0:0:
220,368,81711,1,0,0:0:0:0:
308,368,81881,1,8,0:0:0:0:
160,368,82222,2,0,L|156:272,1,87.5,8|2,0:0|0:0,0:0:0:0:
320,192,82563,1,0,0:0:0:0:
416,192,82734,1,0,0:0:0:0:
416,288,82904,1,8,0:0:0:0:
320,288,83074,1,0,0:0:0:0:
144,288,83245,2,0,L|140:88,1,175,4|0,0:0|0:0,0:0:0:0:
428,192,83927,6,0,L|275:104,1,175,2|0,0:0|0:0,0:0:0:0:
124,192,84609,2,0,L|276:104,1,175,8|0,0:0|0:0,0:0:0:0:
116,192,85290,2,0,L|112:4,1,175,8|0,0:0|0:0,0:0:0:0:
392,16,85972,1,2,0:0:0:0:
200,16,86313,1,0,0:0:0:0:
488,16,86654,6,0,P|500:96|436:168,1,175,8|0,0:0|0:0,0:0:0:0:
360,192,87165,1,0,0:0:0:0:
196,192,87336,2,0,L|119:148,2,87.5,2|0|8,0:0|0:0|0:0,0:0:0:0:
484,192,88018,2,0,L|488:368,1,175,4|0,0:0|0:0,0:0:0:0:
296,368,88699,1,8,0:0:0:0:
472,368,89040,1,0,0:0:0:0:
68,192,89381,6,0,L|64:376,1,175,4|0,0:0|0:0,0:0:0:0:
256,80,90063,2,0,L|260:272,1,175,2|0,0:0|0:0,0:0:0:0:
452,44,90745,1,2,0:0:0:0:
453,131,90915,1,0,0:0:0:0:
455,218,91086,1,0,0:0:0:0:
264,220,91427,1,8,0:0:0:0:
440,220,91768,1,0,0:0:0:0:
152,44,92109,6,0,L|148:220,1,175,4|0,0:0|0:0,0:0:0:0:
368,220,92790,1,2,0:0:0:0:
124,220,93131,1,0,0:0:0:0:
412,220,93472,2,0,P|432:136|404:52,1,175,2|0,0:0|0:0,0:0:0:0:
212,44,94154,1,8,0:0:0:0:
300,44,94324,1,0,0:0:0:0:
212,44,94495,1,0,0:0:0:0:
300,44,94665,1,0,0:0:0:0:
124,44,94836,6,0,L|116:224,1,175,4|0,0:0|0:0,0:0:0:0:
308,344,95518,2,0,L|300:160,1,175,2|0,0:0|0:0,0:0:0:0:
108,168,96199,2,0,L|104:80,2,87.5,2|0|0,0:0|0:0|0:0,0:0:0:0:
300,168,96881,1,8,0:0:0:0:
124,168,97222,1,0,0:0:0:0:
412,168,97563,6,0,B|412:255|412:255|324:255,1,175,4|0,0:0|0:0,0:0:0:0:
148,256,98245,2,0,B|148:343|148:343|236:343,1,175,2|0,0:0|0:0,0:0:0:0:
409,343,98927,1,2,0:0:0:0:
410,255,99097,1,0,0:0:0:0:
412,168,99268,1,0,0:0:0:0:
220,192,99609,2,0,L|140:146,3,87.5
412,168,100290,6,0,P|436:248|380:312,1,175,4|0,0:0|0:0,0:0:0:0:
292,312,100802,1,0,0:0:0:0:
116,312,100972,2,0,L|112:204,1,87.5,2|0,0:0|0:0,0:0:0:0:
212,192,101313,2,0,L|216:80,1,87.5,8|0,0:0|0:0,0:0:0:0:
392,192,101654,1,2,0:0:0:0:
423,113,101824,1,0,0:0:0:0:
387,36,101995,1,0,0:0:0:0:
305,11,102165,1,0,0:0:0:0:
144,16,102336,2,0,L|140:108,1,87.5
236,116,102677,2,0,L|324:116,1,87.5,2|0,0:0|0:0,0:0:0:0:
140,103,103018,6,0,P|112:159|144:263,1,175,4|0,0:0|0:0,0:0:0:0:
232,263,103529,1,0,0:0:0:0:
408,264,103699,2,0,L|412:368,1,87.5,2|0,0:0|0:0,0:0:0:0:
236,353,104040,2,0,L|144:353,1,87.5,8|0,0:0|0:0,0:0:0:0:
424,352,104381,2,0,L|428:244,1,87.5,2|0,0:0|0:0,0:0:0:0:
324,216,104722,2,0,L|328:108,1,87.5,8|0,0:0|0:0,0:0:0:0:
152,216,105063,2,0,B|64:216|64:216|64:128,1,175,2|0,0:0|0:0,0:0:0:0:
152,132,105574,1,0,0:0:0:0:
408,216,105745,6,0,B|500:216|500:216|412:216,1,175,4|0,0:0|0:0,0:0:0:0:
328,216,106256,1,0,0:0:0:0:
164,216,106427,2,0,P|120:160|168:80,1,175,2|8,0:0|0:0,0:0:0:0:
256,80,106938,1,0,0:0:0:0:
80,80,107109,2,0,L|76:276,1,175,2|0,0:0|0:0,0:0:0:0:
164,256,107620,1,0,0:0:0:0:
252,256,107790,2,0,L|160:256,1,87.5,2|0,0:0|0:0,0:0:0:0:
252,256,108131,2,0,L|344:256,1,87.5
164,256,108472,6,0,P|157:177|212:96,1,175,4|0,0:0|0:0,0:0:0:0:
296,96,108984,1,0,0:0:0:0:
472,96,109154,2,0,L|476:216,1,87.5,2|0,0:0|0:0,0:0:0:0:
380,268,109495,2,0,L|292:268,1,87.5,8|0,0:0|0:0,0:0:0:0:
116,268,109836,2,0,L|22:233,2,87.5,2|0|8,0:0|0:0|0:0,0:0:0:0:
404,268,110518,1,2,0:0:0:0:
417,242,110574,1,0,0:0:0:0:
419,213,110631,1,0,0:0:0:0:
409,186,110688,1,0,0:0:0:0:
232,184,110859,2,0,L|140:184,1,87.5,10|0,0:0|0:0,0:0:0:0:
409,186,111199,6,0,P|457:118|409:50,1,175,6|0,0:0|0:0,0:0:0:0:
325,50,111711,1,0,0:0:0:0:
237,50,111881,2,0,B|232:144,1,87.5,2|0,0:0|0:0,0:0:0:0:
320,136,112222,1,0,0:0:0:0:
144,136,112393,2,0,P|96:204|144:272,1,175,4|0,0:0|0:0,0:0:0:0:
300,272,112904,2,0,L|304:372,1,87.5
128,272,113245,1,2,0:0:0:0:
276,360,113586,2,0,L|168:360,1,87.5
452,360,113927,6,0,P|468:300|404:216,1,175,2|0,0:0|0:0,0:0:0:0:
316,216,114438,1,0,0:0:0:0:
141,216,114609,2,0,B|140:128|140:128|228:128,1,175,2|0,0:0|0:0,0:0:0:0:
316,128,115120,2,0,L|136:128,1,175,4|0,0:0|0:0,0:0:0:0:
188,128,115546,1,0,0:0:0:0:
236,128,115631,1,0,0:0:0:0:
72,128,115802,1,0,0:0:0:0:
332,128,115972,2,0,P|376:180|328:264,1,175,2|0,0:0|0:0,0:0:0:0:
280,264,116398,1,0,0:0:0:0:
232,264,116484,1,0,0:0:0:0:
476,260,116654,6,0,P|500:196|436:120,1,175,2|0,0:0|0:0,0:0:0:0:
348,120,117165,1,0,0:0:0:0:
184,120,117336,2,0,L|180:240,1,87.5,2|0,0:0|0:0,0:0:0:0:
348,208,117677,1,0,0:0:0:0:
96,208,117847,2,0,B|12:184|12:184|96:156,1,175,4|0,0:0|0:0,0:0:0:0:
252,156,118359,1,0,0:0:0:0:
76,156,118529,1,0,0:0:0:0:
344,156,118699,2,0,L|348:56,1,87.5,4|0,0:0|0:0,0:0:0:0:
176,68,119040,1,0,0:0:0:0:
332,68,119211,1,0,0:0:0:0:
68,72,119381,6,0,B|68:159|68:159|156:159,1,175,2|0,0:0|0:0,0:0:0:0:
244,160,119893,1,0,0:0:0:0:
412,160,120063,2,0,P|464:228|412:284,1,175,2|0,0:0|0:0,0:0:0:0:
159,282,120574,2,0,L|335:282,1,175,4|0,0:0|0:0,0:0:0:0:
153,283,121086,2,0,L|101:283,2,43.75
413,283,121427,2,0,P|448:216|400:136,1,175,2|0,0:0|0:0,0:0:0:0:
304,136,121938,1,0,0:0:0:0:
56,340,122109,6,0,P|28:284|56:224,1,131.25,6|0,0:0|0:0,0:0:0:0:
120,224,122449,2,0,L|124:124,1,87.5,2|0,0:0|0:0,0:0:0:0:
304,136,122790,2,0,B|308:224|308:224|264:224,1,131.25,2|0,0:0|0:0,0:0:0:0:
200,224,123131,2,0,L|196:332,1,87.5,2|0,0:0|0:0,0:0:0:0:
444,312,123472,6,0,L|308:312,2,131.25,2|0|0,0:0|0:0|0:0,0:0:0:0:
392,312,124069,1,0,0:0:0:0:
340,312,124154,2,0,L|252:312,1,87.5,2|0,0:0|0:0,0:0:0:0:
428,192,124495,2,0,L|448:148,2,43.75,2|0|0,0:0|0:0|0:0,0:0:0:0:
164,192,124836,6,0,B|76:192|76:192|76:104,1,175,2|2,0:0|0:0,0:0:0:0:
164,104,125347,1,0,0:0:0:0:
324,104,125518,2,0,L|328:8,1,87.5,2|0,0:0|0:0,0:0:0:0:
152,16,125859,2,0,L|104:16,2,43.75,2|0|0,0:0|0:0|0:0,0:0:0:0:
204,16,126114,1,0,0:0:0:0:
372,100,126199,6,0,L|489:32,2,131.25,2|0|0,0:0|0:0|0:0,0:0:0:0:
302,104,126796,1,0,0:0:0:0:
232,104,126881,2,0,L|228:200,1,87.5,2|0,0:0|0:0,0:0:0:0:
404,192,127222,1,2,0:0:0:0:
456,192,127307,1,0,0:0:0:0:
456,244,127393,1,0,0:0:0:0:
404,244,127478,1,0,0:0:0:0:
236,244,127563,6,0,B|104:244,1,131.25,2|0,0:0|0:0,0:0:0:0:
272,244,127904,2,0,L|360:244,1,87.5,2|0,0:0|0:0,0:0:0:0:
112,244,128245,2,0,P|68:176|124:112,1,175,2|2,0:0|0:0,0:0:0:0:
212,108,128756,1,0,0:0:0:0:
388,108,128927,6,0,L|392:212,1,87.5,2|0,0:0|0:0,0:0:0:0:
224,20,129268,2,0,L|228:116,1,87.5,2|0,0:0|0:0,0:0:0:0:
52,332,129609,2,0,P|48:284|68:248,1,87.5,2|0,0:0|0:0,0:0:0:0:
104,216,129864,1,0,0:0:0:0:
160,196,129949,1,2,0:0:0:0:
264,192,130120,1,0,0:0:0:0:
20,108,130290,6,0,L|104:72,3,87.5,2|2|2|2,0:0|0:0|0:0|0:0,0:0:0:0:
276,192,130972,1,2,0:0:0:0:
180,192,131143,1,2,0:0:0:0:
284,192,131313,1,2,0:0:0:0:
168,192,131484,1,2,0:0:0:0:
412,192,131654,6,0,L|416:88,1,87.5,4|0,0:0|0:0,0:0:0:0:
236,192,131995,1,2,0:0:0:0:
236,192,132080,1,2,0:0:0:0:
236,192,132165,1,0,0:0:0:0:
415,104,132336,1,8,0:0:0:0:
363,104,132421,1,0,0:0:0:0:
311,104,132506,1,0,0:0:0:0:
48,192,132677,2,0,P|32:256|76:300,1,131.25,10|0,0:0|0:0,0:0:0:0:
252,300,133018,6,0,L|456:300,1,201.250003838539,6|0,0:0|0:0,0:0:0:0:
352,300,133529,1,0,0:0:0:0:
168,300,133699,2,0,L|164:200,1,100.62500191927,8|0,0:0|0:0,0:0:0:0:
356,192,134040,1,2,0:0:0:0:
88,192,134211,6,0,P|24:136|92:64,1,201.250003838539,2|0,0:0|0:0,0:0:0:0:
264,64,134722,2,0,L|364:64,1,100.62500191927,2|0,0:0|0:0,0:0:0:0:
312,64,134978,1,0,0:0:0:0:
124,64,135063,2,0,B|24:64|24:64|24:168,1,201.250003838539,8|2,0:0|0:0,0:0:0:0:
124,192,135574,1,0,0:0:0:0:
184,192,135660,1,0,0:0:0:0:
388,192,135745,6,0,P|444:260|436:288,1,100.62500191927,2|0,0:0|0:0,0:0:0:0:
428,312,136001,1,0,0:0:0:0:
382,335,136086,1,0,0:0:0:0:
208,336,136256,1,0,0:0:0:0:
476,192,136427,1,8,0:0:0:0:
376,192,136597,1,0,0:0:0:0:
276,192,136768,1,2,0:0:0:0:
100,192,136938,6,0,P|80:112|168:52,1,201.250003838539,2|0,0:0|0:0,0:0:0:0:
344,52,137449,2,0,L|256:100,1,100.62500191927,2|0,0:0|0:0,0:0:0:0:
208,100,137705,1,0,0:0:0:0:
20,100,137790,2,0,P|32:188|124:240,1,201.250003838539,8|2,0:0|0:0,0:0:0:0:
24,236,138302,1,0,0:0:0:0:
304,140,138472,6,0,L|308:240,1,100.62500191927,2|0,0:0|0:0,0:0:0:0:
208,240,138813,1,0,0:0:0:0:
320,240,138984,1,0,0:0:0:0:
156,240,139154,2,0,L|152:348,1,100.62500191927,8|0,0:0|0:0,0:0:0:0:
344,240,139495,1,2,0:0:0:0:
68,240,139665,6,0,P|8:168|72:100,1,201.250003838539,2|0,0:0|0:0,0:0:0:0:
252,100,140177,2,0,L|352:100,1,100.62500191927,2|2,0:0|0:0,0:0:0:0:
304,100,140432,1,0,0:0:0:0:
100,100,140518,2,0,B|96:200,1,100.62500191927,8|0,0:0|0:0,0:0:0:0:
372,200,140859,1,2,0:0:0:0:
220,200,141029,2,0,L|216:260,1,50.3125009596348
400,200,141199,6,0,B|500:200|500:200|500:304,1,201.250003838539,2|2,0:0|0:0,0:0:0:0:
400,300,141711,1,0,0:0:0:0:
217,214,141881,2,0,L|400:300,1,201.250003838539,8|2,0:0|0:0,0:0:0:0:
217,214,142393,6,0,P|156:284|216:360,1,201.250003838539,2|0,0:0|0:0,0:0:0:0:
400,300,142904,1,2,0:0:0:0:
132,216,143074,1,0,0:0:0:0:
436,300,143245,2,0,P|455:253|440:200,1,100.62500191927,8|0,0:0|0:0,0:0:0:0:
396,192,143501,1,0,0:0:0:0:
196,192,143586,1,10,0:0:0:0:
96,192,143756,1,0,0:0:0:0:
156,192,143841,1,0,0:0:0:0:
360,192,143927,6,0,B|460:192|460:192|460:88,1,201.250003838539,6|0,0:0|0:0,0:0:0:0:
360,88,144438,1,0,0:0:0:0:
176,88,144609,2,0,B|172:192,1,100.62500191927,8|0,0:0|0:0,0:0:0:0:
352,192,144949,1,2,0:0:0:0:
48,188,145120,6,0,L|134:138,2,100.62500191927,2|0|0,0:0|0:0|0:0,0:0:0:0:
232,284,145631,2,0,L|332:284,1,100.62500191927,2|0,0:0|0:0,0:0:0:0:
284,284,145887,1,0,0:0:0:0:
96,284,145972,2,0,B|48:284|48:284|100:284,1,100.62500191927,8|0,0:0|0:0,0:0:0:0:
152,284,146228,1,0,0:0:0:0:
204,284,146313,1,2,0:0:0:0:
28,192,146484,1,0,0:0:0:0:
304,192,146654,6,0,P|344:136|328:96,1,100.62500191927,2|0,0:0|0:0,0:0:0:0:
291,75,146910,1,0,0:0:0:0:
220,76,146995,2,0,L|216:24,1,50.3125009596348
291,75,147165,2,0,L|288:20,1,50.3125009596348
96,24,147336,1,8,0:0:0:0:
196,24,147506,1,0,0:0:0:0:
296,24,147677,1,2,0:0:0:0:
112,24,147847,6,0,P|32:68|32:168,1,201.250003838539,2|0,0:0|0:0,0:0:0:0:
216,192,148359,1,2,0:0:0:0:
156,192,148444,1,0,0:0:0:0:
96,192,148529,1,0,0:0:0:0:
364,192,148699,2,0,P|408:232|408:276,1,100.62500191927,8|0,0:0|0:0,0:0:0:0:
376,308,148955,1,0,0:0:0:0:
320,320,149040,1,2,0:0:0:0:
208,320,149211,1,0,0:0:0:0:
476,344,149381,6,0,L|480:244,1,100.62500191927,2|0,0:0|0:0,0:0:0:0:
296,192,149722,1,0,0:0:0:0:
264,153,149807,1,0,0:0:0:0:
262,104,149893,1,0,0:0:0:0:
289,62,149978,1,0,0:0:0:0:
472,64,150063,2,0,L|372:64,1,100.62500191927,8|0,0:0|0:0,0:0:0:0:
192,60,150404,1,2,0:0:0:0:
448,64,150574,6,0,P|500:120|496:152,1,100.62500191927,2|0,0:0|0:0,0:0:0:0:
468,184,150830,1,0,0:0:0:0:
412,192,150915,1,0,0:0:0:0:
228,192,151086,1,2,0:0:0:0:
468,184,151256,1,2,0:0:0:0:
192,192,151427,2,0,B|88:192,1,100.62500191927,8|0,0:0|0:0,0:0:0:0:
148,192,151682,1,0,0:0:0:0:
348,192,151768,2,0,L|352:296,1,100.62500191927,2|0,0:0|0:0,0:0:0:0:
68,192,152109,6,0,B|68:292|68:292|172:292,1,201.250003838539,2|2,0:0|0:0,0:0:0:0:
280,292,152620,1,0,0:0:0:0:
92,292,152790,2,0,L|201:292,1,100.62500191927,8|0,0:0|0:0,0:0:0:0:
84,292,153131,1,2,0:0:0:0:
368,292,153302,6,0,P|388:208|300:152,1,201.250003838539,2|0,0:0|0:0,0:0:0:0:
116,152,153813,2,0,L|16:152,1,100.62500191927,2|0,0:0|0:0,0:0:0:0:
302,151,154154,2,0,L|304:48,1,100.62500191927,8|0,0:0|0:0,0:0:0:0:
244,48,154410,1,0,0:0:0:0:
444,52,154495,2,0,L|344:52,1,100.62500191927,10|0,0:0|0:0,0:0:0:0:
76,48,154836,6,0,P|16:112|76:192,1,201.250003838539,6|0,0:0|0:0,0:0:0:0:
176,192,155347,1,0,0:0:0:0:
352,192,155518,2,0,L|356:304,1,100.62500191927,8|0,0:0|0:0,0:0:0:0:
172,292,155859,1,2,0:0:0:0:
288,292,156029,1,2,0:0:0:0:
108,292,156199,6,0,P|76:252|144:140,1,201.250003838539,4|2,0:0|0:0,0:0:0:0:
192,140,156626,1,0,0:0:0:0:
244,140,156711,1,0,0:0:0:0:
420,140,156881,2,0,L|424:40,1,100.62500191927,8|0,0:0|0:0,0:0:0:0:
324,40,157222,2,0,L|272:40,2,50.3125009596348,2|0|0,0:0|0:0|0:0,0:0:0:0:
56,40,157563,6,0,P|44:88|136:192,1,201.250003838539,2|0,0:0|0:0,0:0:0:0:
196,192,157989,1,0,0:0:0:0:
256,192,158074,1,0,0:0:0:0:
196,192,158160,1,0,0:0:0:0:
380,192,158245,2,0,L|384:296,1,100.62500191927,8|0,0:0|0:0,0:0:0:0:
212,292,158586,1,2,0:0:0:0:
392,292,158756,1,2,0:0:0:0:
108,292,158927,6,0,P|52:260|44:216,1,100.62500191927,2|0,0:0|0:0,0:0:0:0:
60,184,159182,1,0,0:0:0:0:
107,163,159268,1,2,0:0:0:0:
208,164,159438,1,0,0:0:0:0:
24,164,159609,2,0,L|20:64,1,100.62500191927,8|0,0:0|0:0,0:0:0:0:
128,16,159949,2,0,L|132:72,1,50.3125009596348,2|0,0:0|0:0,0:0:0:0:
68,16,160120,2,0,L|120:16,1,50.3125009596348
308,16,160290,6,0,B|408:16|408:16|408:120,1,201.250003838539,2|0,0:0|0:0,0:0:0:0:
356,116,160716,1,0,0:0:0:0:
304,116,160802,1,0,0:0:0:0:
128,116,160972,2,0,L|124:236,1,100.62500191927,8|0,0:0|0:0,0:0:0:0:
224,216,161313,1,2,0:0:0:0:
52,192,161484,1,2,0:0:0:0:
232,216,161654,6,0,L|332:216,1,100.62500191927,4|0,0:0|0:0,0:0:0:0:
282,216,161910,1,0,0:0:0:0:
232,216,161995,1,2,0:0:0:0:
408,216,162165,1,2,0:0:0:0:
128,216,162336,2,0,P|120:284|180:344,1,150.937502878904,8|0,0:0|0:0,0:0:0:0:
215,359,162677,2,0,L|160:360,1,50.3125009596348,2|0,0:0|0:0,0:0:0:0:
100,288,162847,2,0,L|160:288,1,50.3125009596348
344,288,163018,6,0,P|404:220|344:144,1,201.250003838539,2|2,0:0|0:0,0:0:0:0:
284,144,163444,1,0,0:0:0:0:
224,144,163529,1,0,0:0:0:0:
284,144,163614,1,0,0:0:0:0:
472,144,163699,2,0,L|476:40,1,100.62500191927,8|0,0:0|0:0,0:0:0:0:
368,12,164040,1,2,0:0:0:0:
184,12,164211,6,0,P|120:72|184:140,1,201.250003838539,2|0,0:0|0:0,0:0:0:0:
360,140,164722,2,0,L|368:192,2,50.3125009596348,2|0|0,0:0|0:0|0:0,0:0:0:0:
76,140,165063,1,8,0:0:0:0:
68,196,165148,1,0,0:0:0:0:
92,244,165234,1,0,0:0:0:0:
144,264,165319,1,0,0:0:0:0:
332,268,165404,2,0,L|336:328,1,50.3125009596348,8|0,0:0|0:0,0:0:0:0:
264,316,165574,2,0,L|260:256,1,50.3125009596348
464,48,165745,6,0,P|500:116|420:192,1,201.250003838539,6|0,0:0|0:0,0:0:0:0:
320,192,166256,1,0,0:0:0:0:
144,192,166427,2,0,L|140:304,1,100.62500191927,8|0,0:0|0:0,0:0:0:0:
312,292,166768,1,2,0:0:0:0:
260,292,166853,1,0,0:0:0:0:
212,292,166938,1,2,0:0:0:0:
388,292,167109,6,0,P|420:252|352:140,1,201.250003838539,4|2,0:0|0:0,0:0:0:0:
304,140,167535,1,0,0:0:0:0:
252,140,167620,1,0,0:0:0:0:
76,140,167790,2,0,L|72:40,1,100.62500191927,8|0,0:0|0:0,0:0:0:0:
184,40,168131,2,0,L|236:40,2,50.3125009596348,2|2|2,0:0|0:0|0:0,0:0:0:0:
128,40,168387,1,2,0:0:0:0:
320,40,168472,6,0,L|420:40,1,100.62500191927,2|0,0:0|0:0,0:0:0:0:
92,40,168813,1,2,0:0:0:0:
57,74,168898,1,0,0:0:0:0:
56,123,168984,1,0,0:0:0:0:
90,159,169069,1,0,0:0:0:0:
296,160,169154,2,0,L|300:264,1,100.62500191927,8|0,0:0|0:0,0:0:0:0:
200,260,169495,1,2,0:0:0:0:
308,260,169665,1,2,0:0:0:0:
24,260,169836,6,0,B|16:312|16:312|56:348,1,100.62500191927,4|0,0:0|0:0,0:0:0:0:
102,344,170091,1,0,0:0:0:0:
153,344,170177,1,2,0:0:0:0:
91,344,170262,1,0,0:0:0:0:
29,344,170347,1,0,0:0:0:0:
104,344,170432,1,0,0:0:0:0:
308,344,170518,2,0,L|412:344,1,100.62500191927,8|0,0:0|0:0,0:0:0:0:
232,344,170859,2,0,L|228:288,1,50.3125009596348,2|0,0:0|0:0,0:0:0:0:
300,252,171029,2,0,L|296:196,1,50.3125009596348
108,192,171199,6,0,L|8:192,1,100.62500191927,2|0,0:0|0:0,0:0:0:0:
284,192,171540,1,0,0:0:0:0:
332,164,171626,1,0,0:0:0:0:
340,108,171711,1,0,0:0:0:0:
312,60,171796,1,0,0:0:0:0:
120,60,171881,2,0,L|116:160,1,100.62500191927,8|0,0:0|0:0,0:0:0:0:
284,192,172222,1,2,0:0:0:0:
104,60,172393,1,2,0:0:0:0:
380,60,172563,6,0,L|484:60,1,100.62500191927,4|0,0:0|0:0,0:0:0:0:
296,60,172904,1,2,0:0:0:0:
240,68,172989,1,0,0:0:0:0:
204,108,173074,1,0,0:0:0:0:
200,164,173160,1,0,0:0:0:0:
400,296,173245,2,0,L|404:232,1,50.3125009596348,8|0,0:0|0:0,0:0:0:0:
336,192,173415,2,0,L|332:256,1,50.3125009596348
132,304,173586,2,0,L|80:304,2,50.3125009596348,2|0|2,0:0|0:0|0:0,0:0:0:0:
416,296,173927,6,0,P|460:256|416:192,1,150.937502878904,2|0,0:0|0:0,0:0:0:0:
220,192,174268,2,0,L|168:192,1,50.3125009596348,2|2,0:0|0:0,0:0:0:0:
228,192,174438,2,0,L|280:192,1,50.3125009596348,2|2,0:0|0:0,0:0:0:0:
80,192,174609,2,0,L|76:84,1,100.62500191927,8|0,0:0|0:0,0:0:0:0:
256,48,174949,1,2,0:0:0:0:
88,92,175120,1,2,0:0:0:0:
364,48,175290,5,4,0:0:0:0:
420,48,175376,1,0,0:0:0:0:
420,104,175461,1,0,0:0:0:0:
364,104,175546,1,0,0:0:0:0:
172,192,175631,2,0,L|168:308,1,100.62500191927,2|0,0:0|0:0,0:0:0:0:
440,292,175972,2,0,L|492:292,2,50.3125009596348,8|0|0,0:0|0:0|0:0,0:0:0:0:
264,292,176313,1,4,0:0:0:0:
316,292,176398,1,0,0:0:0:0:
368,292,176484,1,0,0:0:0:0:
72,292,176654,5,2,0:0:0:0:
