osu file format v14

[General]
AudioFilename: 07._.mp3
AudioLeadIn: 0
PreviewTime: 102813
Countdown: 0
SampleSet: Soft
StackLeniency: 0.7
Mode: 3
LetterboxInBreaks: 0
SpecialStyle: 0
WidescreenStoryboard: 1

[Editor]
Bookmarks: 2836,14130,25424,36718,48012,59306,70600,81894,93188,98835,104483,116130,127071,138365
DistanceSpacing: 0.8
BeatDivisor: 4
GridSize: 32
TimelineZoom: 2.2

[Metadata]
Title:Syuou Sange
TitleUnicode:終桜散華
Artist:tokiwa
ArtistUnicode:tokiwa
Creator:DarkistDeci
Version:Normal
Source:
Tags:FAMoss oriental core drumstep hardcore m∞ving mooving 01 zarusoba designworks electronic instrumental shuuou future bass finis 勿忘 wasurena ぴくせる pikuseru pixel
BeatmapID:2630870
BeatmapSetID:1265840

[Difficulty]
HPDrainRate:7
CircleSize:4
OverallDifficulty:7
ApproachRate:5
SliderMultiplier:1.4
SliderTickRate:1

[Events]
//Background and Video events
0,0,"78619369_p0.jpg",0,0
//Break Periods
//Storyboard Layer 0 (Background)
//Storyboard Layer 1 (Fail)
//Storyboard Layer 2 (Pass)
//Storyboard Layer 3 (Foreground)
//Storyboard Layer 4 (Overlay)
//Storyboard Sound Samples
Sample,47490,0,"LR_Snare Drum 3.wav",70
Sample,47666,0,"tom02.wav",70
Sample,47843,0,"tom02.wav",70
Sample,48152,0,"Mad Matt - 1",100
Sample,49652,0,"Mad Matt - 2",100
Sample,50975,0,"Mad Matt - 3",100
Sample,52475,0,"Mad Matt - 4",100
Sample,53887,0,"Mad Matt - 5",100
Sample,54504,0,"Mad Matt - 6",100
Sample,55210,0,"Mad Matt - 7",100
Sample,56004,0,"Mad Matt - 8",100
Sample,56710,0,"Mad Matt - 9",100
Sample,58475,0,"Mad Matt - point",100
Sample,81813,0,"Rain",100
Sample,103563,0,"Shizuka (Japanese) - 3-2",100
Sample,115299,0,"Shizuka (Japanese) - 1",100
Sample,126549,0,"LR_Snare Drum 3.wav",70
Sample,126725,0,"tom02.wav",70
Sample,126902,0,"tom02.wav",70
Sample,126990,0,"Rain",100
Sample,138284,0,"Rain",100

[TimingPoints]
2755,352.941176470588,4,2,1,60,1,0
56754,-100,4,2,1,50,0,0
57107,-100,4,2,1,40,0,0
57813,-100,4,2,1,60,0,0
59225,-100,4,2,1,60,0,1
70519,-100,4,2,1,60,0,0
104402,-100,4,2,1,60,0,1
114990,-100,4,2,1,60,0,0
116049,-100,4,2,1,60,0,1
125402,-100,4,2,1,60,0,0

[HitObjects]
320,192,2755,5,4,0:0:0:70:
64,192,2755,1,0,0:0:0:70:
192,192,3107,1,0,0:0:0:70:
320,192,3460,128,0,3990:0:0:0:70:
64,192,3460,1,0,0:0:0:70:
64,192,3990,1,0,0:0:0:70:
448,192,3990,1,0,0:0:0:70:
192,192,4343,128,0,4872:0:0:0:70:
64,192,4872,1,0,0:0:0:70:
448,192,5225,128,0,5578:0:0:0:70:
192,192,5578,1,0,0:0:0:70:
64,192,5578,1,0,0:0:0:70:
448,192,5931,1,0,0:0:0:70:
192,192,6284,128,0,6813:0:0:0:70:
64,192,6284,1,0,0:0:0:70:
320,192,6813,1,0,0:0:0:70:
448,192,6813,1,0,0:0:0:70:
320,192,7166,128,0,7696:0:0:0:70:
192,192,7696,1,0,0:0:0:70:
64,192,7696,1,0,0:0:0:70:
448,192,8049,128,0,8402:0:0:0:70:
320,192,8402,1,0,0:0:0:70:
64,192,8402,1,0,0:0:0:70:
192,192,8754,1,0,0:0:0:70:
64,192,9107,128,0,9637:0:0:0:70:
448,192,9107,1,0,0:0:0:70:
448,192,9637,1,0,0:0:0:70:
192,192,9637,1,0,0:0:0:0:
192,192,9990,128,0,10519:0:0:0:70:
320,192,10519,1,0,0:0:0:70:
448,192,10519,1,0,0:0:0:70:
448,192,10872,128,0,11225:0:0:0:70:
192,192,11225,1,0,0:0:0:70:
64,192,11225,1,0,0:0:0:70:
448,192,11578,1,0,0:0:0:70:
192,192,11931,128,0,12460:0:0:0:70:
64,192,11931,1,0,0:0:0:70:
320,192,12460,1,0,0:0:0:70:
448,192,12460,1,0,0:0:0:70:
448,192,12813,128,0,13343:0:0:0:70:
64,192,13343,128,0,14049:0:0:0:70:
192,192,13696,1,2,0:0:0:100:Drum_Rim.wav
448,192,14049,1,4,0:0:0:70:
320,192,14049,128,2,14402:0:0:0:70:
64,192,14402,1,0,0:0:0:100:LR_Clap DS.wav
448,192,14754,128,0,14931:0:0:0:100:LR_Clap DS.wav
320,192,14931,1,0,0:0:0:70:
192,192,15107,128,0,15284:0:0:0:100:LR_Clap DS.wav
64,192,15284,128,0,15637:0:0:0:70:
448,192,15460,1,0,0:0:0:100:LR_Clap DS.wav
448,192,15637,128,0,15813:0:0:0:70:
64,192,15813,128,0,16166:0:0:0:100:LR_Clap DS.wav
192,192,15990,128,0,16166:0:0:0:70:
448,192,16166,1,0,0:0:0:100:LR_Clap DS.wav
64,192,16519,1,0,0:0:0:100:LR_Clap DS.wav
192,192,16696,1,0,0:0:0:70:
320,192,16872,128,0,17225:0:0:0:100:LR_Clap DS.wav
64,192,17225,1,0,0:0:0:100:LR_Clap DS.wav
192,192,17578,128,0,17754:0:0:0:100:LR_Clap DS.wav
448,192,17754,1,0,0:0:0:70:
320,192,17931,128,0,18107:0:0:0:100:LR_Clap DS.wav
448,192,18107,128,0,18460:0:0:0:70:
64,192,18284,1,0,0:0:0:100:LR_Clap DS.wav
192,192,18460,1,0,0:0:0:70:
448,192,18637,128,0,18990:0:0:0:100:LR_Clap DS.wav
320,192,18813,128,0,18990:0:0:0:70:
64,192,18990,1,0,0:0:0:100:LR_Clap DS.wav
320,192,19343,1,0,0:0:0:100:LR_Clap DS.wav
448,192,19519,1,0,0:0:0:70:
192,192,19696,128,4,20049:0:0:0:100:LR_Clap DS.wav
64,192,19696,1,2,0:0:0:70:
320,192,20049,128,2,20402:0:0:0:70:
448,192,20049,1,0,0:0:0:100:LR_Clap DS.wav
64,192,20402,128,2,20754:0:0:0:70:
448,192,20402,1,0,0:0:0:100:LR_Clap DS.wav
192,192,20578,1,0,0:0:0:70:
320,192,20754,1,0,0:0:0:100:LR_Clap DS.wav
448,192,20754,128,2,20931:0:0:0:70:
192,192,20931,128,0,21284:0:0:0:70:
320,192,21107,1,2,0:0:0:70:
448,192,21107,1,0,0:0:0:100:LR_Clap DS.wav
64,192,21284,1,0,0:0:0:70:
192,192,21460,128,2,21813:0:0:0:70:
320,192,21460,1,0,0:0:0:100:LR_Clap DS.wav
64,192,21637,1,0,0:0:0:0:
448,192,21813,128,2,22166:0:0:0:70:
320,192,21813,1,0,0:0:0:100:LR_Clap DS.wav
192,192,21990,1,0,0:0:0:0:
64,192,22166,1,2,0:0:0:0:
320,192,22166,1,0,0:0:0:100:LR_Clap DS.wav
192,192,22343,128,0,22519:0:0:0:70:
320,192,22519,128,2,23225:0:0:0:70:
448,192,22519,1,0,0:0:0:100:LR_Clap DS.wav
192,192,23225,128,2,23754:0:0:0:70:
64,192,23225,1,0,0:0:0:100:LR_Clap DS.wav
448,192,23754,1,2,0:0:0:70:
320,192,23754,1,4,0:0:0:70:
320,192,24107,1,0,0:0:0:0:
448,192,24284,1,0,0:0:0:0:
64,192,24460,1,0,0:0:0:0:
320,192,24549,1,0,0:0:0:0:
192,192,24637,1,0,0:0:0:0:
448,192,24990,1,0,0:0:0:70:
320,192,24990,1,0,0:0:0:100:LR2_ClapRRvLE.wav
64,192,25343,1,2,0:0:0:70:
448,192,25343,128,4,25696:0:0:0:70:
320,192,25696,1,0,0:0:0:70:
448,192,26049,128,0,26578:0:0:0:100:LR_Clap DS.wav
64,192,26225,1,0,0:0:0:70:
320,192,26402,1,0,0:0:0:70:
192,192,26578,1,2,0:0:0:70:
64,192,26578,128,0,26931:0:0:0:70:
448,192,26931,128,0,27107:0:0:0:70:
64,192,27107,128,0,27284:0:0:0:70:
192,192,27107,1,2,0:0:0:70:
320,192,27284,128,0,27460:0:0:0:70:
448,192,27460,1,0,0:0:0:100:LR_Clap DS.wav
64,192,27813,1,0,0:0:0:70:
192,192,27990,1,0,0:0:0:70:
448,192,28166,128,0,28519:0:0:0:70:
320,192,28166,1,2,0:0:0:70:
64,192,28519,1,0,0:0:0:70:
64,192,28872,128,0,29402:0:0:0:100:LR_Clap DS.wav
448,192,29049,1,0,0:0:0:70:
192,192,29225,1,0,0:0:0:70:
448,192,29402,128,0,29754:0:0:0:70:
320,192,29402,1,2,0:0:0:70:
320,192,29754,128,0,29931:0:0:0:70:
64,192,29931,128,0,30107:0:0:0:70:
192,192,29931,1,2,0:0:0:70:
448,192,30107,128,0,30284:0:0:0:70:
64,192,30284,1,0,0:0:0:100:LR_Clap DS.wav
64,192,30637,1,2,0:0:0:70:
448,192,30637,1,0,0:0:0:0:
192,192,30813,1,0,0:0:0:70:
448,192,30990,128,0,31343:0:0:0:70:
320,192,30990,1,2,0:0:0:70:
64,192,31343,1,0,0:0:0:70:
448,192,31696,128,0,32225:0:0:0:100:LR_Clap DS.wav
64,192,31872,1,2,0:0:0:70:
320,192,32049,1,0,0:0:0:70:
192,192,32225,1,2,0:0:0:70:
64,192,32225,128,0,32578:0:0:0:70:
192,192,32578,128,0,32754:0:0:0:70:
320,192,32754,128,0,32931:0:0:0:70:
448,192,32754,1,2,0:0:0:70:
64,192,32931,128,0,33107:0:0:0:70:
192,192,33107,1,0,0:0:0:100:LR_Clap DS.wav
448,192,33460,1,2,0:0:0:70:
64,192,33460,1,0,0:0:0:0:
320,192,33637,1,0,0:0:0:70:
192,192,33813,128,2,34166:0:0:0:70:
448,192,33813,1,0,0:0:0:70:
64,192,34166,1,0,0:0:0:70:
320,192,34519,128,0,35049:0:0:0:100:LR_Clap DS.wav
192,192,34696,1,0,0:0:0:70:
64,192,34872,1,0,0:0:0:70:
192,192,35049,1,2,0:0:0:70:
448,192,35049,128,0,35402:0:0:0:70:
192,192,35402,128,0,35578:0:0:0:70:
448,192,35578,128,0,35754:0:0:0:70:
320,192,35578,1,2,0:0:0:70:
64,192,35754,128,0,35931:0:0:0:70:
448,192,35931,1,0,0:0:0:100:LR_Clap DS.wav
192,192,36284,1,0,0:0:0:70:
320,192,36284,1,0,0:0:0:100:LR2_ClapRRvLE.wav
448,192,36637,1,2,0:0:0:70:
64,192,36637,128,4,36990:0:0:0:70:
192,192,36990,1,0,0:0:0:70:
64,192,37343,128,0,37872:0:0:0:100:LR_Clap DS.wav
448,192,37519,1,0,0:0:0:70:
192,192,37696,1,0,0:0:0:70:
320,192,37872,1,2,0:0:0:70:
448,192,37872,128,0,38225:0:0:0:70:
64,192,38225,128,0,38402:0:0:0:70:
448,192,38402,128,0,38578:0:0:0:70:
320,192,38402,1,2,0:0:0:70:
192,192,38578,128,0,38754:0:0:0:70:
64,192,38754,1,0,0:0:0:100:LR_Clap DS.wav
448,192,39107,1,0,0:0:0:70:
320,192,39284,1,0,0:0:0:70:
64,192,39460,128,0,39813:0:0:0:70:
192,192,39460,1,2,0:0:0:70:
448,192,39813,1,0,0:0:0:70:
448,192,40166,128,0,40696:0:0:0:100:LR_Clap DS.wav
64,192,40343,1,0,0:0:0:70:
320,192,40519,1,0,0:0:0:70:
64,192,40696,128,0,41049:0:0:0:70:
192,192,40696,1,2,0:0:0:70:
192,192,41049,128,0,41225:0:0:0:70:
448,192,41225,128,0,41402:0:0:0:70:
320,192,41225,1,2,0:0:0:70:
64,192,41402,128,0,41578:0:0:0:70:
448,192,41578,1,0,0:0:0:100:LR_Clap DS.wav
448,192,41931,1,2,0:0:0:70:
64,192,41931,1,0,0:0:0:0:
320,192,42107,1,0,0:0:0:70:
64,192,42284,128,0,42637:0:0:0:70:
192,192,42284,1,2,0:0:0:70:
448,192,42637,1,0,0:0:0:70:
64,192,42990,128,0,43519:0:0:0:100:LR_Clap DS.wav
448,192,43166,1,2,0:0:0:70:
192,192,43343,1,0,0:0:0:70:
320,192,43519,1,2,0:0:0:70:
448,192,43519,128,0,43872:0:0:0:70:
320,192,43872,128,0,44049:0:0:0:70:
192,192,44049,128,0,44225:0:0:0:70:
64,192,44049,1,2,0:0:0:70:
448,192,44225,128,0,44402:0:0:0:70:
320,192,44402,1,0,0:0:0:100:LR_Clap DS.wav
64,192,44754,1,2,0:0:0:70:
448,192,44754,1,0,0:0:0:0:
192,192,44931,1,0,0:0:0:70:
448,192,45107,1,2,0:0:0:70:
64,192,45107,128,0,45813:0:0:0:70:
448,192,45813,128,0,46343:0:0:0:70:
320,192,45813,1,0,0:0:0:100:LR_Clap DS.wav
192,192,46343,1,4,0:0:0:70:
64,192,46343,1,2,0:0:0:70:
320,192,46696,1,0,0:0:0:70:
320,192,46872,1,0,0:0:0:70:
64,192,47225,1,0,0:0:0:70:
448,192,47402,1,0,0:0:0:100:LR_Snare Drum 3.wav
320,192,47578,1,0,0:0:0:100:LR_Snare Drum 2.wav
192,192,47754,1,0,0:0:0:100:tom02.wav
64,192,47931,1,2,0:0:0:70:
448,192,47931,1,4,0:0:0:70:
320,192,48284,1,0,0:0:0:70:
192,192,48284,1,0,0:0:0:100:LR_Clap DS.wav
448,192,48637,1,0,0:0:0:70:
64,192,48637,1,0,0:0:0:100:LR_Clap DS.wav
320,192,48990,1,0,0:0:0:70:
192,192,48990,1,0,0:0:0:100:LR_Clap DS.wav
64,192,49343,1,0,0:0:0:70:LR_Clap DS.wav
192,192,49343,1,0,0:0:0:70:
320,192,49696,1,0,0:0:0:70:
448,192,49696,1,0,0:0:0:70:LR_Clap DS.wav
192,192,50049,1,0,0:0:0:70:
64,192,50049,1,0,0:0:0:70:LR_Clap DS.wav
320,192,50402,1,0,0:0:0:70:
448,192,50402,1,0,0:0:0:70:LR_Clap DS.wav
64,192,50754,1,0,0:0:0:70:
320,192,50754,1,0,0:0:0:70:LR_Clap DS.wav
192,192,51107,1,0,0:0:0:70:
448,192,51107,1,0,0:0:0:70:LR_Clap DS.wav
320,192,51460,1,0,0:0:0:70:LR_Clap DS.wav
64,192,51460,1,0,0:0:0:70:
448,192,51813,1,0,0:0:0:70:LR_Clap DS.wav
192,192,51813,1,0,0:0:0:70:
320,192,52166,1,0,0:0:0:70:LR_Clap DS.wav
192,192,52166,1,0,0:0:0:70:
64,192,52519,1,0,0:0:0:70:LR_Clap DS.wav
448,192,52519,1,0,0:0:0:70:
320,192,52872,1,0,0:0:0:70:LR_Clap DS.wav
192,192,52872,1,0,0:0:0:70:
64,192,53225,1,0,0:0:0:70:LR_Clap DS.wav
448,192,53225,1,0,0:0:0:70:
320,192,53578,1,4,0:0:0:70:
64,192,53578,1,2,0:0:0:70:
448,192,53931,1,0,0:0:0:70:LR_Clap DS.wav
192,192,53931,1,2,0:0:0:0:
64,192,54284,1,0,0:0:0:70:LR_Clap DS.wav
320,192,54284,1,2,0:0:0:70:
192,192,54637,1,0,0:0:0:70:LR_Clap DS.wav
448,192,54637,1,2,0:0:0:70:
192,192,54990,1,0,0:0:0:70:LR_Clap DS.wav
64,192,54990,1,2,0:0:0:70:
448,192,55343,1,0,0:0:0:70:LR_Clap DS.wav
320,192,55343,1,2,0:0:0:70:
64,192,55696,1,0,0:0:0:70:LR_Clap DS.wav
192,192,55696,1,2,0:0:0:70:
320,192,56049,1,0,0:0:0:70:LR_Clap DS.wav
448,192,56049,1,2,0:0:0:70:
64,192,56402,128,2,57813:0:0:0:70:
448,192,56402,1,0,0:0:0:70:LR_Clap DS.wav
192,192,57107,128,2,57813:0:0:0:70:LR_Clap DS.wav
320,192,57813,1,0,0:0:0:70:
448,192,57813,1,0,0:0:0:70:
64,192,58166,128,0,58343:0:0:0:70:
192,192,58519,128,0,58696:0:0:0:70:
320,192,58872,128,0,59049:0:0:0:100:LR2_ClapRRvLE.wav
448,192,59225,1,4,0:0:0:70:
64,192,59225,1,2,0:0:0:70:
320,192,59578,128,2,59931:0:0:0:70:
64,192,59578,1,8,0:0:0:70:
192,192,59931,1,0,0:0:0:70:
64,192,59931,1,2,0:0:0:70:
448,192,60107,128,0,60284:0:0:0:70:
192,192,60284,1,8,0:0:0:70:
64,192,60284,1,2,0:0:0:70:
448,192,60637,1,0,0:0:0:70:
64,192,60637,1,2,0:0:0:70:
192,192,60813,1,0,0:0:0:70:
448,192,60990,1,8,0:0:0:70:
320,192,60990,1,2,0:0:0:70:
64,192,61343,1,2,0:0:0:70:
192,192,61343,1,0,0:0:0:70:
192,192,61696,1,2,0:0:0:70:
448,192,61696,1,8,0:0:0:70:
320,192,62049,1,0,0:0:0:70:
64,192,62049,1,2,0:0:0:70:
192,192,62402,128,2,62754:0:0:0:70:
64,192,62402,1,8,0:0:0:70:
448,192,62754,1,0,0:0:0:70:
320,192,62754,1,2,0:0:0:70:
320,192,62931,128,0,63107:0:0:0:70:
64,192,63107,1,2,0:0:0:70:
192,192,63107,1,8,0:0:0:70:
448,192,63460,1,0,0:0:0:70:
64,192,63460,1,2,0:0:0:70:
192,192,63637,1,0,0:0:0:70:
64,192,63813,1,2,0:0:0:70:
320,192,63813,1,8,0:0:0:70:
192,192,64166,1,2,0:0:0:70:
448,192,64166,1,0,0:0:0:70:
192,192,64343,1,0,0:0:0:70:
320,192,64519,1,8,0:0:0:70:
64,192,64519,1,2,0:0:0:70:
320,192,64696,1,0,0:0:0:70:
448,192,64872,1,0,0:0:0:70:
192,192,64872,1,2,0:0:0:70:
64,192,65225,1,8,0:0:0:70:
320,192,65225,128,2,65578:0:0:0:70:
64,192,65578,1,2,0:0:0:70:
192,192,65578,1,0,0:0:0:70:
448,192,65754,128,0,65931:0:0:0:70:
64,192,65931,1,2,0:0:0:70:
192,192,65931,1,8,0:0:0:70:
448,192,66284,1,0,0:0:0:70:
64,192,66284,1,2,0:0:0:70:
320,192,66460,1,0,0:0:0:70:
192,192,66637,1,2,0:0:0:70:
448,192,66637,1,8,0:0:0:70:
64,192,66990,1,2,0:0:0:70:
192,192,66990,1,0,0:0:0:70:
448,192,67343,1,8,0:0:0:70:
320,192,67343,1,2,0:0:0:70:
192,192,67519,1,0,0:0:0:70:
64,192,67696,1,2,0:0:0:70:
448,192,67696,128,0,68049:0:0:0:70:
64,192,68049,128,8,68225:0:0:0:70:
192,192,68049,1,2,0:0:0:70:
448,192,68225,128,0,68402:0:0:0:70:
64,192,68402,128,2,68754:0:0:0:70:
192,192,68402,1,0,0:0:0:70:
448,192,68754,128,2,68931:0:0:0:70:
320,192,68754,1,8,0:0:0:70:
64,192,68931,128,0,69107:0:0:0:70:
320,192,69107,128,2,69284:0:0:0:70:
448,192,69107,1,0,0:0:0:70:
192,192,69284,128,0,69460:0:0:0:70:
64,192,69460,128,8,69637:0:0:0:70:
448,192,69460,1,2,0:0:0:70:
320,192,69637,128,0,69813:0:0:0:70:
64,192,69813,128,2,70166:0:0:0:70:
448,192,69813,1,0,0:0:0:70:
320,192,70166,128,0,70343:0:0:0:70:
448,192,70166,1,8,0:0:0:70:
64,192,70343,128,0,70519:0:0:0:70:
448,192,70519,1,2,0:0:0:70:
320,192,70519,1,4,0:0:0:70:
448,192,70872,128,0,71225:0:0:0:100:Percussion Hey sound.wav
192,192,71225,1,8,0:0:0:70:
64,192,71225,1,0,0:0:0:70:
64,192,71578,1,2,0:0:0:70:
448,192,71578,1,0,0:0:0:100:Percussion Hey sound.wav
320,192,71754,1,0,0:0:0:70:
192,192,71931,1,0,0:0:0:70:
320,192,72107,1,0,0:0:0:70:
64,192,72284,1,2,0:0:0:70:
448,192,72284,1,0,0:0:0:100:Percussion Hey sound.wav
448,192,72637,1,0,0:0:0:70:
320,192,72637,1,8,0:0:0:70:
64,192,72990,1,0,0:0:0:70:
448,192,72990,1,0,0:0:0:100:Percussion Hey sound.wav
192,192,73343,1,2,0:0:0:70:
448,192,73343,1,0,0:0:0:70:
64,192,73696,128,0,74049:0:0:0:100:Percussion Hey sound.wav
320,192,74049,1,8,0:0:0:70:
448,192,74049,1,0,0:0:0:70:
64,192,74402,1,2,0:0:0:70:
448,192,74402,1,0,0:0:0:100:Percussion Hey sound.wav
320,192,74578,1,0,0:0:0:70:
192,192,74754,1,0,0:0:0:70:
320,192,74931,1,0,0:0:0:70:
64,192,75107,1,2,0:0:0:70:
448,192,75107,1,0,0:0:0:100:Percussion Hey sound.wav
320,192,75460,1,8,0:0:0:70:
448,192,75460,1,0,0:0:0:70:
64,192,75637,1,0,0:0:0:0:
192,192,75813,1,0,0:0:0:70:LR_Snare Drum 3.wav
320,192,75813,1,0,0:0:0:100:Percussion Hey sound.wav
64,192,75990,1,0,0:0:0:70:tom02.wav
320,192,76166,1,2,0:0:0:70:
448,192,76166,1,4,0:0:0:70:
64,192,76519,1,2,0:0:0:70:
192,192,76519,128,0,76872:0:0:0:100:Percussion Hey sound.wav
448,192,76872,1,0,0:0:0:70:
320,192,76872,1,2,0:0:0:70:
64,192,77225,1,2,0:0:0:70:
192,192,77225,1,0,0:0:0:100:Percussion Hey sound.wav
320,192,77402,1,0,0:0:0:70:
448,192,77578,1,0,0:0:0:70:
64,192,77578,1,2,0:0:0:70:
320,192,77754,1,0,0:0:0:70:
192,192,77931,1,0,0:0:0:100:Percussion Hey sound.wav
64,192,77931,1,10,0:0:0:70:
320,192,78284,1,2,0:0:0:70:
448,192,78284,1,0,0:0:0:70:
64,192,78637,1,10,0:0:0:70:
192,192,78637,1,8,0:0:0:100:Percussion Hey sound.wav
448,192,78990,128,4,79343:0:0:0:70:
192,192,78990,1,2,0:0:0:70:
64,192,79343,1,10,0:0:0:70:
320,192,79343,128,0,79519:0:0:0:100:Percussion Hey sound.wav
192,192,79519,128,0,79696:0:0:0:70:
320,192,79696,1,2,0:0:0:70:
64,192,79696,128,0,80049:0:0:0:70:
448,192,80049,1,10,0:0:0:70:
320,192,80049,128,0,80225:0:0:0:100:Percussion Hey sound.wav
192,192,80225,1,4,0:0:0:70:
64,192,80225,1,2,0:0:0:70:
64,192,80578,128,0,80754:0:0:0:70:
192,192,80754,128,0,80931:0:0:0:70:
320,192,80931,128,0,81107:0:0:0:0:
448,192,81107,128,0,81284:0:0:0:0:
192,192,81460,128,0,81637:0:0:0:0:
448,192,81637,128,0,81813:0:0:0:0:
192,192,81813,5,4,0:0:0:70:
64,192,81813,1,2,0:0:0:70:
448,192,82166,1,0,0:0:0:70:
320,192,82519,128,0,83049:0:0:0:70:
64,192,82519,1,0,0:0:0:70:
64,192,83049,1,0,0:0:0:70:
448,192,83049,1,0,0:0:0:70:
192,192,83402,128,0,83931:0:0:0:70:
64,192,83931,1,0,0:0:0:70:
448,192,84284,128,0,84637:0:0:0:70:
320,192,84637,1,0,0:0:0:70:
64,192,84637,1,0,0:0:0:70:
192,192,84990,1,0,0:0:0:70:
320,192,85343,128,0,85872:0:0:0:70:
64,192,85343,1,0,0:0:0:70:
192,192,85872,1,0,0:0:0:70:
448,192,85872,1,0,0:0:0:70:
192,192,86225,128,0,86754:0:0:0:70:
320,192,86754,1,0,0:0:0:70:
64,192,86754,1,0,0:0:0:70:
448,192,87107,128,0,87460:0:0:0:70:
320,192,87460,1,0,0:0:0:70:
64,192,87460,1,0,0:0:0:70:
192,192,87813,1,0,0:0:0:70:
320,192,88166,128,0,88696:0:0:0:70:
64,192,88166,1,0,0:0:0:70:
448,192,88696,1,0,0:0:0:70:
192,192,89049,128,0,89578:0:0:0:70:
320,192,89578,1,0,0:0:0:70:
64,192,89578,1,0,0:0:0:70:
448,192,89931,128,0,90284:0:0:0:70:
64,192,90284,1,0,0:0:0:70:
320,192,90284,1,0,0:0:0:70:
192,192,90637,1,0,0:0:0:70:
320,192,90990,128,0,91519:0:0:0:70:
64,192,90990,1,0,0:0:0:70:
192,192,91519,1,0,0:0:0:70:
448,192,91519,1,0,0:0:0:70:
448,192,91872,128,0,92402:0:0:0:70:
320,192,92402,128,0,93107:0:0:0:70:
64,192,92754,1,0,0:0:0:0:
192,192,93107,128,2,93460:0:0:0:70:
64,192,93107,1,4,0:0:0:70:
448,192,93460,1,0,0:0:0:100:LR_Clap DS.wav
64,192,93813,128,0,93990:0:0:0:100:LR_Clap DS.wav
192,192,93990,1,0,0:0:0:70:
320,192,94166,128,0,94343:0:0:0:100:LR_Clap DS.wav
448,192,94343,128,0,94696:0:0:0:70:
64,192,94519,1,0,0:0:0:100:LR_Clap DS.wav
64,192,94696,128,0,94872:0:0:0:70:
448,192,94872,128,0,95225:0:0:0:100:LR_Clap DS.wav
320,192,95049,128,0,95225:0:0:0:70:
64,192,95225,1,0,0:0:0:100:LR_Clap DS.wav
448,192,95578,1,0,0:0:0:100:LR_Clap DS.wav
320,192,95754,1,0,0:0:0:70:
192,192,95931,128,0,96284:0:0:0:100:LR_Clap DS.wav
448,192,96284,1,0,0:0:0:100:LR_Clap DS.wav
320,192,96637,128,0,96813:0:0:0:100:LR_Clap DS.wav
64,192,96813,1,0,0:0:0:70:
192,192,96990,128,0,97166:0:0:0:100:LR_Clap DS.wav
64,192,97166,128,0,97519:0:0:0:70:
448,192,97343,1,0,0:0:0:100:LR_Clap DS.wav
320,192,97519,1,0,0:0:0:70:
64,192,97696,128,0,98049:0:0:0:100:LR_Clap DS.wav
192,192,97872,128,0,98049:0:0:0:70:
448,192,98049,1,0,0:0:0:100:LR_Clap DS.wav
320,192,98225,1,0,0:0:0:0:
448,192,98402,1,0,0:0:0:0:
64,192,98402,128,0,98578:0:0:0:0:
320,192,98578,128,0,98754:0:0:0:70:
448,192,98754,128,4,99107:0:0:0:70:
64,192,98754,1,2,0:0:0:70:
192,192,99107,1,0,0:0:0:100:LR_Clap DS.wav
64,192,99107,128,2,99284:0:0:0:0:
320,192,99284,128,0,99460:0:0:0:70:
64,192,99460,1,0,0:0:0:100:LR_Clap DS.wav
448,192,99460,128,2,99813:0:0:0:0:
192,192,99813,1,0,0:0:0:100:LR_Clap DS.wav
64,192,99813,128,2,99990:0:0:0:0:
320,192,99990,128,0,100166:0:0:0:70:
64,192,100166,1,0,0:0:0:100:LR_Clap DS.wav
448,192,100166,128,2,100343:0:0:0:0:
192,192,100343,128,0,100519:0:0:0:70:
448,192,100519,1,0,0:0:0:100:LR_Clap DS.wav
320,192,100519,128,2,100696:0:0:0:0:
64,192,100696,128,0,100872:0:0:0:70:
320,192,100872,1,0,0:0:0:100:LR_Clap DS.wav
448,192,100872,128,2,101049:0:0:0:0:
448,192,101225,1,0,0:0:0:100:LR_Clap DS.wav
64,192,101225,128,2,101402:0:0:0:0:
192,192,101402,128,0,101578:0:0:0:70:
448,192,101578,128,0,102284:0:0:0:100:LR_Clap DS.wav
320,192,101578,1,2,0:0:0:0:
64,192,102284,128,4,102813:0:0:0:100:LR_Clap DS.wav
192,192,102284,1,2,0:0:0:0:
448,192,102813,1,4,0:0:0:70:
320,192,102813,1,2,0:0:0:70:
192,192,103343,1,0,0:0:0:70:
320,192,103696,1,0,0:0:0:70:
192,192,103872,1,0,0:0:0:70:
448,192,104049,1,0,0:0:0:70:
64,192,104049,1,0,0:0:0:100:LR2_ClapRRvLE.wav
320,192,104402,128,2,104754:0:0:0:70:
448,192,104402,1,4,0:0:0:70:
64,192,104754,1,2,0:0:0:70:
192,192,104754,1,8,0:0:0:70:
448,192,105107,128,0,105284:0:0:0:70:
320,192,105107,1,2,0:0:0:70:
192,192,105284,1,0,0:0:0:70:
64,192,105460,128,2,105637:0:0:0:70:
448,192,105460,1,8,0:0:0:70:
320,192,105637,128,0,105990:0:0:0:70:
192,192,105813,1,2,0:0:0:70:
64,192,105990,1,0,0:0:0:70:
448,192,106166,1,8,0:0:0:70:
320,192,106166,128,2,106343:0:0:0:70:
64,192,106343,128,0,106519:0:0:0:70:
448,192,106519,1,2,0:0:0:70:
320,192,106519,1,0,0:0:0:70:
320,192,106872,1,2,0:0:0:70:
448,192,106872,1,8,0:0:0:0:
192,192,107049,1,0,0:0:0:70:
64,192,107225,1,2,0:0:0:70:
448,192,107225,128,0,107578:0:0:0:70:
192,192,107578,1,8,0:0:0:70:
64,192,107578,1,2,0:0:0:70:
192,192,107931,1,2,0:0:0:70:
448,192,107931,128,0,108107:0:0:0:70:
320,192,108107,1,0,0:0:0:70:
192,192,108284,1,8,0:0:0:70:
64,192,108284,128,2,108460:0:0:0:70:
448,192,108460,128,0,108813:0:0:0:70:
64,192,108637,1,2,0:0:0:70:
320,192,108813,1,0,0:0:0:70:
192,192,108990,1,2,0:0:0:70:
448,192,108990,128,8,109166:0:0:0:0:
64,192,109166,128,0,109343:0:0:0:70:
448,192,109343,1,2,0:0:0:70:
320,192,109343,1,0,0:0:0:70:
64,192,109696,1,10,0:0:0:70:
448,192,109696,1,0,0:0:0:0:
320,192,109872,1,0,0:0:0:70:
448,192,110049,128,0,110402:0:0:0:70:
192,192,110049,1,2,0:0:0:70:
64,192,110402,1,2,0:0:0:70:
192,192,110402,1,8,0:0:0:70:
320,192,110754,128,0,110931:0:0:0:70:
192,192,110754,1,2,0:0:0:70:
64,192,110931,1,0,0:0:0:70:
448,192,111107,1,8,0:0:0:70:
192,192,111107,128,2,111284:0:0:0:70:
320,192,111284,128,0,111637:0:0:0:70:
192,192,111460,1,2,0:0:0:70:
448,192,111637,1,0,0:0:0:70:
64,192,111813,1,2,0:0:0:70:
320,192,111813,128,8,111990:0:0:0:70:
448,192,111990,128,0,112166:0:0:0:70:
192,192,112166,1,2,0:0:0:70:
64,192,112166,1,0,0:0:0:70:
320,192,112519,1,10,0:0:0:70:
192,192,112696,1,0,0:0:0:70:
64,192,112872,128,2,113225:0:0:0:70:
448,192,112872,1,0,0:0:0:70:
448,192,113225,1,2,0:0:0:70:
320,192,113225,1,8,0:0:0:70:
64,192,113578,1,2,0:0:0:70:
448,192,113578,128,0,113754:0:0:0:70:
320,192,113754,1,0,0:0:0:70:
192,192,113931,1,8,0:0:0:70:
64,192,113931,128,2,114107:0:0:0:70:
448,192,114107,128,0,114460:0:0:0:70:
64,192,114284,1,2,0:0:0:70:
320,192,114460,1,0,0:0:0:70:
192,192,114637,1,2,0:0:0:70:
448,192,114637,128,8,114813:0:0:0:70:
64,192,114813,128,0,114990:0:0:0:70:
320,192,114990,1,2,0:0:0:70:
448,192,114990,1,4,0:0:0:70:
192,192,115166,1,0,0:0:0:0:
320,192,115343,1,0,0:0:0:0:
448,192,115431,1,0,0:0:0:0:
64,192,115519,1,0,0:0:0:0:
448,192,116049,1,8,0:0:0:70:
64,192,116049,128,6,116402:0:0:0:70:
192,192,116225,1,0,0:0:0:0:
448,192,116402,128,0,116578:0:0:0:70:
320,192,116402,1,2,0:0:0:70:
192,192,116578,1,0,0:0:0:70:
64,192,116754,128,2,116931:0:0:0:70:
448,192,116754,1,8,0:0:0:70:
320,192,116931,128,0,117284:0:0:0:70:
64,192,117107,1,2,0:0:0:70:
448,192,117284,1,0,0:0:0:70:
192,192,117460,1,8,0:0:0:70:
320,192,117460,128,2,117637:0:0:0:70:
64,192,117637,128,0,117813:0:0:0:70:
448,192,117813,1,2,0:0:0:70:
320,192,117813,1,0,0:0:0:70:
448,192,118166,1,8,0:0:0:0:
320,192,118166,1,2,0:0:0:70:
192,192,118343,1,0,0:0:0:70:
64,192,118519,1,2,0:0:0:70:
448,192,118519,128,0,118872:0:0:0:70:
64,192,118872,1,2,0:0:0:70:
192,192,118872,1,8,0:0:0:70:
192,192,119225,1,2,0:0:0:70:
448,192,119225,128,0,119402:0:0:0:70:
320,192,119402,1,0,0:0:0:70:
64,192,119578,128,2,119754:0:0:0:70:
192,192,119578,1,8,0:0:0:70:
448,192,119754,128,0,120107:0:0:0:70:
64,192,119931,1,2,0:0:0:70:
320,192,120107,1,0,0:0:0:70:
192,192,120284,1,2,0:0:0:70:
448,192,120284,128,8,120460:0:0:0:0:
64,192,120460,128,0,120637:0:0:0:70:
448,192,120637,1,2,0:0:0:70:
320,192,120637,1,0,0:0:0:70:
448,192,120990,1,0,0:0:0:0:
64,192,120990,1,10,0:0:0:70:
320,192,121166,1,0,0:0:0:70:
448,192,121343,128,0,121696:0:0:0:70:
192,192,121343,1,2,0:0:0:70:
192,192,121696,1,8,0:0:0:70:
64,192,121696,1,2,0:0:0:70:
192,192,122049,1,2,0:0:0:70:
320,192,122049,128,0,122225:0:0:0:70:
64,192,122225,1,0,0:0:0:70:
448,192,122402,1,8,0:0:0:70:
192,192,122402,128,2,122578:0:0:0:70:
320,192,122578,128,0,122931:0:0:0:70:
192,192,122754,1,2,0:0:0:70:
448,192,122931,1,0,0:0:0:70:
320,192,123107,128,8,123284:0:0:0:70:
64,192,123107,1,2,0:0:0:70:
448,192,123284,128,0,123460:0:0:0:70:
192,192,123460,1,2,0:0:0:70:
64,192,123460,1,0,0:0:0:70:
320,192,123813,1,10,0:0:0:70:
192,192,123990,1,0,0:0:0:70:
64,192,124166,1,8,0:0:0:0:
448,192,124166,128,2,125225:0:0:0:70:LR_Snare Drum 2.wav
320,192,124872,128,2,125225:0:0:0:0:
64,192,125225,1,10,0:0:0:70:
448,192,125402,1,4,0:0:0:70:
64,192,125402,1,2,0:0:0:70:
320,192,125754,1,0,0:0:0:70:
64,192,125931,128,0,126284:0:0:0:70:
192,192,126284,1,0,0:0:0:70:
448,192,126460,1,0,0:0:0:70:LR_Snare Drum 3.wav
320,192,126637,1,0,0:0:0:70:LR_Snare Drum 2.wav
192,192,126813,1,0,0:0:0:70:tom02.wav
320,192,126990,5,4,0:0:0:70:
64,192,126990,1,2,0:0:0:70:
192,192,127343,1,0,0:0:0:70:
320,192,127696,128,0,128225:0:0:0:70:
64,192,127696,1,0,0:0:0:70:
448,192,128225,1,0,0:0:0:70:
64,192,128225,1,0,0:0:0:70:
192,192,128578,128,0,129107:0:0:0:70:
64,192,129107,1,0,0:0:0:70:
448,192,129460,128,0,129813:0:0:0:70:
64,192,129813,1,0,0:0:0:70:
320,192,129813,1,0,0:0:0:70:
192,192,130166,1,0,0:0:0:70:
320,192,130519,128,0,131049:0:0:0:70:
64,192,130519,1,0,0:0:0:70:
192,192,131049,1,0,0:0:0:70:
448,192,131049,1,0,0:0:0:70:
192,192,131402,128,0,131931:0:0:0:70:
320,192,131931,1,0,0:0:0:70:
64,192,131931,1,0,0:0:0:70:
448,192,132284,128,0,132637:0:0:0:70:
64,192,132637,1,0,0:0:0:70:
320,192,132637,1,0,0:0:0:70:
192,192,132990,1,0,0:0:0:70:
64,192,133343,1,0,0:0:0:70:
320,192,133343,128,0,133872:0:0:0:70:
448,192,133872,1,0,0:0:0:70:
192,192,133872,1,0,0:0:0:70:
192,192,134225,128,0,134754:0:0:0:70:
64,192,134754,1,0,0:0:0:70:
320,192,134754,1,0,0:0:0:70:
448,192,135107,128,0,135460:0:0:0:70:
320,192,135460,1,0,0:0:0:70:
64,192,135460,1,0,0:0:0:70:
192,192,135813,1,0,0:0:0:70:
320,192,136166,128,0,136696:0:0:0:70:
64,192,136166,1,0,0:0:0:70:
192,192,136696,1,0,0:0:0:70:
448,192,136696,1,0,0:0:0:70:
64,192,137049,128,0,137402:0:0:0:70:
448,192,137402,128,0,138284:0:0:0:70:
192,192,137931,1,0,0:0:0:100:Drum_Rim.wav
320,192,138284,5,4,0:0:0:70:
64,192,138284,1,0,0:0:0:70:
192,192,138637,1,0,0:0:0:70:
320,192,138990,128,0,139519:0:0:0:70:
64,192,138990,1,0,0:0:0:70:
64,192,139519,1,0,0:0:0:70:
448,192,139519,1,0,0:0:0:70:
192,192,139872,128,0,140402:0:0:0:70:
64,192,140402,1,0,0:0:0:70:
448,192,140754,128,0,141107:0:0:0:70:
320,192,141107,1,0,0:0:0:70:
64,192,141107,1,0,0:0:0:70:
192,192,141460,1,0,0:0:0:70:
320,192,141813,128,0,142343:0:0:0:70:
64,192,141813,1,0,0:0:0:70:
192,192,142343,1,0,0:0:0:70:
448,192,142343,1,0,0:0:0:70:
192,192,142696,128,0,143225:0:0:0:70:
320,192,143225,1,0,0:0:0:70:
64,192,143225,1,0,0:0:0:70:
448,192,143578,128,0,143931:0:0:0:70:
320,192,143931,1,0,0:0:0:70:
64,192,143931,1,0,0:0:0:70:
192,192,144284,1,0,0:0:0:70:
320,192,144637,128,0,145166:0:0:0:70:
64,192,144637,1,0,0:0:0:70:
448,192,145166,1,0,0:0:0:70:
64,192,145166,1,0,0:0:0:0:
192,192,145519,128,0,146049:0:0:0:70:
320,192,146049,1,0,0:0:0:70:
64,192,146049,1,0,0:0:0:70:
448,192,146402,128,0,146754:0:0:0:70:
64,192,146754,1,0,0:0:0:70:
192,192,146754,1,0,0:0:0:70:
