osu file format v14

[General]
AudioFilename: 07._.mp3
AudioLeadIn: 0
PreviewTime: 102813
Countdown: 0
SampleSet: Soft
StackLeniency: 0.7
Mode: 3
LetterboxInBreaks: 0
SpecialStyle: 0
WidescreenStoryboard: 1

[Editor]
Bookmarks: 2836,14130,25424,36718,48012,59306,65225,70600,81894,93188,98835,116130,127071,138365
DistanceSpacing: 0.8
BeatDivisor: 6
GridSize: 32
TimelineZoom: 2.1

[Metadata]
Title:Syuou Sange
TitleUnicode:終桜散華
Artist:tokiwa
ArtistUnicode:tokiwa
Creator:DarkistDeci
Version:Cherry Chaos
Source:
Tags:FAMoss oriental core drumstep hardcore m∞ving mooving 01 zarusoba designworks electronic instrumental shuuou future bass finis 勿忘 wasurena ぴくせる pikuseru pixel
BeatmapID:2637305
BeatmapSetID:1265840

[Difficulty]
HPDrainRate:8.5
CircleSize:4
OverallDifficulty:8.5
ApproachRate:5
SliderMultiplier:1.4
SliderTickRate:1

[Events]
//Background and Video events
0,0,"78619369_p0.jpg",0,0
//Break Periods
//Storyboard Layer 0 (Background)
//Storyboard Layer 1 (Fail)
//Storyboard Layer 2 (Pass)
//Storyboard Layer 3 (Foreground)
//Storyboard Layer 4 (Overlay)
//Storyboard Sound Samples
Sample,48152,0,"Mad Matt - 1",100
Sample,49652,0,"Mad Matt - 2",100
Sample,50975,0,"Mad Matt - 3",100
Sample,52475,0,"Mad Matt - 4",100
Sample,53887,0,"Mad Matt - 5",100
Sample,54504,0,"Mad Matt - 6",100
Sample,55210,0,"Mad Matt - 7",100
Sample,56004,0,"Mad Matt - 8",100
Sample,56710,0,"Mad Matt - 9",100
Sample,58475,0,"Mad Matt - point",100
Sample,81813,0,"Rain",100
Sample,103563,0,"Shizuka (Japanese) - 3-2",100
Sample,115299,0,"Shizuka (Japanese) - 1",100
Sample,126990,0,"Rain",100
Sample,138284,0,"Rain",100

[TimingPoints]
2755,352.941176470588,4,2,1,60,1,0
24990,-71.4285714285714,4,2,1,60,0,0
25166,-166.666666666667,4,2,1,60,0,0
25343,-100,4,2,1,60,0,0
56754,-100,4,2,1,50,0,0
57107,-100,4,2,1,40,0,0
57813,-100,4,2,1,60,0,0
59225,-100,4,2,1,60,0,1
70519,-100,4,2,1,60,0,0
80225,-100,4,2,1,60,0,0
104402,-100,4,2,1,60,0,1
114990,-100,4,2,1,60,0,0
115696,-166.666666666667,4,2,1,60,0,0
115872,-71.4285714285714,4,2,1,60,0,0
116049,-100,4,2,1,60,0,1
125402,-100,4,2,1,60,0,0

[HitObjects]
64,192,2755,128,4,2843:0:0:0:0:
448,192,2755,128,0,2843:0:0:0:0:
192,192,3107,1,0,0:0:0:0:
320,192,3460,128,0,3549:0:0:0:0:
64,192,3460,128,0,3549:0:0:0:0:
192,192,3637,1,0,0:0:0:0:
448,192,3813,1,0,0:0:0:0:
192,192,3990,128,0,4078:0:0:0:0:
64,192,3990,128,0,4078:0:0:0:0:
448,192,4343,1,0,0:0:0:0:
320,192,4519,1,0,0:0:0:0:
64,192,4696,1,0,0:0:0:0:
192,192,4740,1,0,0:0:0:0:
320,192,4784,1,0,0:0:0:0:
448,192,4872,1,0,0:0:0:0:
192,192,5225,1,0,0:0:0:0:
320,192,5402,1,0,0:0:0:0:
192,192,5578,128,0,5666:0:0:0:0:
64,192,5578,128,0,5666:0:0:0:0:
448,192,5931,1,0,0:0:0:0:
320,192,6284,128,0,6372:0:0:0:0:
64,192,6284,128,0,6372:0:0:0:0:
448,192,6460,1,0,0:0:0:0:
192,192,6637,1,0,0:0:0:0:
448,192,6813,128,0,6902:0:0:0:0:
64,192,6813,128,0,6902:0:0:0:0:
448,192,7166,1,0,0:0:0:0:
64,192,7343,1,0,0:0:0:0:
192,192,7519,1,0,0:0:0:0:
320,192,7563,1,0,0:0:0:0:
448,192,7607,1,0,0:0:0:0:
192,192,7696,128,0,7784:0:0:0:0:
64,192,7696,128,0,7784:0:0:0:0:
192,192,8049,1,0,0:0:0:0:
320,192,8225,1,0,0:0:0:0:
192,192,8402,128,0,8490:0:0:0:0:
448,192,8402,128,0,8490:0:0:0:0:
320,192,8754,1,0,0:0:0:0:
448,192,9107,128,0,9196:0:0:0:0:
64,192,9107,128,0,9196:0:0:0:0:
320,192,9284,1,0,0:0:0:0:
64,192,9460,1,0,0:0:0:0:
192,192,9637,128,0,9725:0:0:0:0:
320,192,9637,128,0,9725:0:0:0:0:
320,192,9990,1,0,0:0:0:0:
64,192,10166,1,0,0:0:0:0:
320,192,10343,1,0,0:0:0:0:
192,192,10387,1,0,0:0:0:0:
64,192,10431,1,0,0:0:0:0:
320,192,10519,128,0,10607:0:0:0:0:
448,192,10519,128,0,10607:0:0:0:0:
320,192,10872,1,0,0:0:0:0:
192,192,11049,1,0,0:0:0:0:
320,192,11225,128,0,11313:0:0:0:0:
64,192,11225,128,0,11313:0:0:0:0:
192,192,11578,1,0,0:0:0:0:
192,192,11931,128,0,12019:0:0:0:0:
448,192,11931,128,0,12019:0:0:0:0:
64,192,12107,1,0,0:0:0:0:
192,192,12284,1,0,0:0:0:0:
320,192,12460,128,0,12549:0:0:0:0:
448,192,12460,128,0,12549:0:0:0:0:
192,192,12813,1,0,0:0:0:0:
64,192,12990,1,0,0:0:0:0:
192,192,13166,1,0,0:0:0:0:
320,192,13210,1,0,0:0:0:0:
448,192,13254,1,0,0:0:0:0:
64,192,13343,1,0,0:0:0:0:
192,192,13387,1,0,0:0:0:0:
320,192,13431,1,0,0:0:0:0:
448,192,13475,1,0,0:0:0:0:
64,192,13519,1,0,0:0:0:0:
192,192,13563,1,0,0:0:0:0:
448,192,13607,1,0,0:0:0:0:
320,192,13652,1,0,0:0:0:0:
64,192,13696,1,0,0:0:0:0:
192,192,13696,1,0,0:0:0:100:Drum_Rim.wav
448,192,13740,1,0,0:0:0:0:
320,192,13784,1,0,0:0:0:0:
64,192,13828,1,0,0:0:0:0:
192,192,13872,1,0,0:0:0:0:
448,192,13916,1,0,0:0:0:0:
320,192,13960,1,0,0:0:0:0:
192,192,14004,1,0,0:0:0:0:
64,192,14049,1,2,0:0:0:0:
448,192,14049,1,4,0:0:0:100:LR_Clap DS.wav
320,192,14049,128,0,14402:0:0:0:0:
192,192,14225,1,0,0:0:0:0:
64,192,14402,128,0,14578:0:0:0:0:
448,192,14402,1,0,0:0:0:100:LR_Clap DS.wav
320,192,14578,1,0,0:0:0:0:
192,192,14754,128,0,14931:0:0:0:0:
448,192,14754,1,0,0:0:0:100:LR_Clap DS.wav
320,192,14931,128,0,15107:0:0:0:0:
448,192,15107,128,0,15284:0:0:0:0:
64,192,15107,1,0,0:0:0:100:LR_Clap DS.wav
320,192,15284,128,0,15637:0:0:0:0:
192,192,15372,1,0,0:0:0:0:
64,192,15460,1,0,0:0:0:100:LR_Clap DS.wav
448,192,15460,1,0,0:0:0:0:
64,192,15637,128,0,15813:0:0:0:0:
192,192,15813,128,0,15990:0:0:0:0:
448,192,15813,1,0,0:0:0:100:LR_Clap DS.wav
448,192,15990,1,0,0:0:0:0:
320,192,16034,1,0,0:0:0:0:
192,192,16078,1,0,0:0:0:0:
64,192,16166,1,0,0:0:0:0:
448,192,16166,1,0,0:0:0:100:LR_Clap DS.wav
320,192,16343,1,0,0:0:0:0:
64,192,16519,128,0,16696:0:0:0:0:
192,192,16519,1,0,0:0:0:100:LR_Clap DS.wav
448,192,16696,128,0,16872:0:0:0:0:
320,192,16872,128,0,17225:0:0:0:0:
192,192,16872,1,0,0:0:0:100:LR_Clap DS.wav
64,192,17049,1,0,0:0:0:0:
192,192,17225,128,0,17402:0:0:0:0:
448,192,17225,1,0,0:0:0:100:LR_Clap DS.wav
320,192,17402,1,0,0:0:0:0:
448,192,17578,128,0,17754:0:0:0:0:
64,192,17578,1,0,0:0:0:100:LR_Clap DS.wav
192,192,17754,128,0,17931:0:0:0:0:
64,192,17931,128,0,18107:0:0:0:0:
320,192,17931,1,0,0:0:0:100:LR_Clap DS.wav
448,192,18107,128,0,18460:0:0:0:0:
320,192,18196,1,0,0:0:0:0:
64,192,18284,1,0,0:0:0:100:LR_Clap DS.wav
192,192,18284,1,0,0:0:0:0:
192,192,18460,128,0,18637:0:0:0:0:
320,192,18637,128,0,18813:0:0:0:0:
448,192,18637,1,0,0:0:0:100:LR_Clap DS.wav
64,192,18813,1,0,0:0:0:0:
192,192,18857,1,0,0:0:0:0:
320,192,18902,1,0,0:0:0:0:
448,192,18990,1,0,0:0:0:0:
64,192,18990,1,0,0:0:0:100:LR_Clap DS.wav
64,192,19166,1,0,0:0:0:0:
320,192,19343,128,0,19519:0:0:0:0:
192,192,19343,1,0,0:0:0:100:LR_Clap DS.wav
448,192,19519,128,0,19696:0:0:0:0:
192,192,19696,1,0,0:0:0:100:LR_Clap DS.wav
320,192,19696,1,0,0:0:0:0:
64,192,19696,128,2,20049:0:0:0:0:
320,192,19872,1,0,0:0:0:0:
320,192,20049,1,0,0:0:0:0:
448,192,20049,128,2,20402:0:0:0:0:
192,192,20049,1,0,0:0:0:100:LR_Clap DS.wav
64,192,20225,1,0,0:0:0:0:
64,192,20402,1,0,0:0:0:0:
192,192,20402,1,0,0:0:0:100:LR_Clap DS.wav
320,192,20402,128,2,20578:0:0:0:0:
448,192,20578,128,0,20754:0:0:0:0:
320,192,20754,1,0,0:0:0:0:
192,192,20754,1,0,0:0:0:100:LR_Clap DS.wav
64,192,20754,128,2,20931:0:0:0:0:
320,192,20931,128,0,21284:0:0:0:0:
448,192,21107,1,0,0:0:0:0:
192,192,21107,1,0,0:0:0:100:LR_Clap DS.wav
64,192,21107,1,2,0:0:0:0:
64,192,21284,128,0,21460:0:0:0:0:
448,192,21460,1,0,0:0:0:0:
320,192,21460,1,0,0:0:0:100:LR_Clap DS.wav
192,192,21460,128,2,21637:0:0:0:0:
448,192,21637,1,0,0:0:0:0:
320,192,21681,1,0,0:0:0:0:
192,192,21725,1,0,0:0:0:0:
448,192,21813,1,0,0:0:0:0:
320,192,21813,1,0,0:0:0:100:LR_Clap DS.wav
64,192,21813,1,2,0:0:0:0:
192,192,21990,1,0,0:0:0:0:
448,192,22166,1,0,0:0:0:0:
320,192,22166,1,0,0:0:0:100:LR_Clap DS.wav
64,192,22166,128,2,22343:0:0:0:0:
320,192,22343,128,0,22519:0:0:0:0:
448,192,22519,1,0,0:0:0:100:LR_Clap DS.wav
64,192,22519,1,2,0:0:0:0:
192,192,22519,1,0,0:0:0:0:
320,192,22607,1,0,0:0:0:0:
64,192,22696,1,2,0:0:0:0:
448,192,22696,1,0,0:0:0:0:
192,192,22784,1,0,0:0:0:0:
64,192,22872,1,2,0:0:0:0:
448,192,22872,1,0,0:0:0:100:LR_Clap DS.wav
320,192,22872,1,0,0:0:0:0:
192,192,22960,1,0,0:0:0:0:
320,192,23049,1,2,0:0:0:0:
64,192,23049,1,0,0:0:0:0:
448,192,23137,1,0,0:0:0:0:
64,192,23225,1,2,0:0:0:0:
192,192,23225,1,0,0:0:0:100:LR_Clap DS.wav
320,192,23313,1,2,0:0:0:0:
448,192,23313,1,0,0:0:0:0:
64,192,23402,1,2,0:0:0:0:
192,192,23402,1,0,0:0:0:0:
320,192,23490,1,0,0:0:0:0:
448,192,23490,1,0,0:0:0:0:
64,192,23578,1,2,0:0:0:0:
192,192,23578,1,0,0:0:0:100:LR_Clap DS.wav
320,192,23666,1,0,0:0:0:0:
448,192,23754,1,2,0:0:0:0:
192,192,23754,1,0,0:0:0:0:
64,192,23754,1,4,0:0:0:0:
320,192,24107,1,0,0:0:0:0:
448,192,24284,1,0,0:0:0:0:
64,192,24460,1,0,0:0:0:0:
192,192,24504,1,0,0:0:0:0:
320,192,24549,1,0,0:0:0:0:
448,192,24637,1,0,0:0:0:0:
64,192,24637,1,0,0:0:0:0:
192,192,24696,1,0,0:0:0:0:
320,192,24754,1,0,0:0:0:0:
448,192,24813,128,0,24990:0:0:0:0:
64,192,24813,128,0,24990:0:0:0:0:
320,192,24990,1,0,0:0:0:0:
192,192,24990,1,0,0:0:0:100:LR2_ClapRRvLE.wav
64,192,25343,128,2,25696:0:0:0:0:
192,192,25343,1,0,0:0:0:0:
448,192,25343,1,4,0:0:0:0:
320,192,25431,1,0,0:0:0:0:
192,192,25519,1,0,0:0:0:0:
448,192,25607,1,0,0:0:0:0:
320,192,25696,128,0,25872:0:0:0:0:
192,192,25872,1,0,0:0:0:0:
64,192,25960,1,0,0:0:0:0:
448,192,26049,1,0,0:0:0:0:
320,192,26049,1,0,0:0:0:100:LR_Clap DS.wav
64,192,26225,1,0,0:0:0:0:
192,192,26225,1,0,0:0:0:0:
320,192,26402,1,0,0:0:0:0:
448,192,26402,1,0,0:0:0:0:
448,192,26578,1,0,0:0:0:0:
192,192,26578,1,0,0:0:0:0:
64,192,26578,128,2,26931:0:0:0:0:
320,192,26754,1,0,0:0:0:0:
192,192,26843,1,0,0:0:0:0:
320,192,26931,128,0,27107:0:0:0:0:
192,192,27107,1,0,0:0:0:0:
448,192,27107,1,0,0:0:0:0:
64,192,27107,128,2,27284:0:0:0:0:
320,192,27284,1,0,0:0:0:0:
192,192,27328,1,0,0:0:0:0:
64,192,27372,1,0,0:0:0:0:
320,192,27460,1,0,0:0:0:0:
448,192,27460,1,0,0:0:0:100:LR_Clap DS.wav
192,192,27549,1,0,0:0:0:0:
320,192,27637,1,0,0:0:0:0:
448,192,27725,1,0,0:0:0:0:
192,192,27813,128,0,27990:0:0:0:0:
448,192,27990,128,0,28166:0:0:0:0:
320,192,28166,1,0,0:0:0:0:
192,192,28166,1,0,0:0:0:0:
64,192,28166,128,2,28519:0:0:0:0:
448,192,28254,1,0,0:0:0:0:
320,192,28343,1,0,0:0:0:0:
192,192,28431,1,0,0:0:0:0:
448,192,28519,128,0,28696:0:0:0:0:
192,192,28696,1,0,0:0:0:0:
320,192,28784,1,0,0:0:0:0:
448,192,28872,1,0,0:0:0:100:LR_Clap DS.wav
64,192,28872,1,0,0:0:0:0:
192,192,29049,1,0,0:0:0:0:
320,192,29049,128,0,29225:0:0:0:0:
448,192,29225,1,0,0:0:0:0:
64,192,29225,1,0,0:0:0:0:
320,192,29402,1,0,0:0:0:0:
192,192,29402,1,2,0:0:0:0:
448,192,29402,128,0,29754:0:0:0:0:
64,192,29578,1,0,0:0:0:0:
320,192,29666,1,0,0:0:0:0:
192,192,29754,128,0,29931:0:0:0:0:
64,192,29931,1,2,0:0:0:0:
320,192,29931,1,0,0:0:0:0:
448,192,29931,128,0,30107:0:0:0:0:
192,192,30107,1,0,0:0:0:0:
320,192,30152,1,0,0:0:0:0:
448,192,30196,1,0,0:0:0:0:
192,192,30284,1,0,0:0:0:100:LR_Clap DS.wav
64,192,30284,1,0,0:0:0:0:
448,192,30372,1,0,0:0:0:0:
192,192,30460,1,0,0:0:0:0:
320,192,30549,1,0,0:0:0:0:
192,192,30637,1,0,0:0:0:0:
448,192,30637,1,0,0:0:0:0:
64,192,30637,128,2,30813:0:0:0:0:
320,192,30813,128,0,30990:0:0:0:0:
448,192,30990,1,0,0:0:0:0:
192,192,30990,1,0,0:0:0:0:
64,192,30990,128,2,31343:0:0:0:0:
320,192,31078,1,0,0:0:0:0:
192,192,31166,1,0,0:0:0:0:
448,192,31254,1,0,0:0:0:0:
320,192,31343,128,0,31519:0:0:0:0:
192,192,31519,1,0,0:0:0:0:
64,192,31607,1,0,0:0:0:0:
320,192,31696,1,0,0:0:0:0:
448,192,31696,1,0,0:0:0:100:LR_Clap DS.wav
192,192,31872,1,0,0:0:0:0:
448,192,31872,1,0,0:0:0:0:
64,192,31872,1,2,0:0:0:0:
320,192,32049,1,0,0:0:0:0:
192,192,32049,1,0,0:0:0:0:
448,192,32225,1,0,0:0:0:0:
320,192,32225,1,0,0:0:0:0:
64,192,32225,128,2,32578:0:0:0:0:
192,192,32402,1,0,0:0:0:0:
448,192,32578,128,0,32754:0:0:0:0:
320,192,32754,1,0,0:0:0:0:
192,192,32754,1,0,0:0:0:0:
64,192,32754,128,2,32931:0:0:0:0:
448,192,32931,1,0,0:0:0:0:
320,192,32975,1,0,0:0:0:0:
192,192,33019,1,0,0:0:0:0:
448,192,33107,1,0,0:0:0:100:LR_Clap DS.wav
320,192,33107,1,0,0:0:0:0:
64,192,33196,1,0,0:0:0:0:
192,192,33284,1,0,0:0:0:0:
448,192,33372,1,0,0:0:0:0:
192,192,33460,1,0,0:0:0:0:
320,192,33460,128,0,33637:0:0:0:0:
64,192,33460,1,2,0:0:0:0:
192,192,33637,128,0,33813:0:0:0:0:
320,192,33813,1,0,0:0:0:0:
448,192,33813,1,0,0:0:0:0:
64,192,33813,128,2,34166:0:0:0:0:
192,192,33902,1,0,0:0:0:0:
320,192,33990,1,0,0:0:0:0:
448,192,34078,1,0,0:0:0:0:
192,192,34166,1,0,0:0:0:0:
448,192,34254,1,0,0:0:0:0:
320,192,34343,1,0,0:0:0:0:
192,192,34431,1,0,0:0:0:0:
64,192,34519,1,0,0:0:0:0:
448,192,34519,1,0,0:0:0:100:LR_Clap DS.wav
192,192,34696,1,0,0:0:0:0:
320,192,34696,128,0,34872:0:0:0:0:
64,192,34872,1,0,0:0:0:0:
448,192,34872,1,0,0:0:0:0:
192,192,35049,1,2,0:0:0:0:
320,192,35049,1,0,0:0:0:0:
448,192,35049,128,0,35402:0:0:0:0:
64,192,35225,1,0,0:0:0:0:
320,192,35313,1,0,0:0:0:0:
64,192,35402,128,0,35578:0:0:0:0:
192,192,35578,1,2,0:0:0:0:
320,192,35578,1,0,0:0:0:0:
448,192,35578,128,0,35754:0:0:0:0:
64,192,35754,1,0,0:0:0:0:
192,192,35799,1,0,0:0:0:0:
320,192,35843,1,0,0:0:0:0:
448,192,35931,128,0,36107:0:0:0:100:LR_Clap DS.wav
64,192,35931,128,0,36107:0:0:0:0:
192,192,36107,1,0,0:0:0:0:
320,192,36196,1,0,0:0:0:0:
448,192,36284,128,0,36549:0:0:0:0:
64,192,36284,128,0,36549:0:0:0:0:
192,192,36284,128,0,36460:0:0:0:100:LR2_ClapRRvLE.wav
320,192,36460,1,0,0:0:0:0:
448,192,36637,128,4,36990:0:0:0:0:
320,192,36637,1,0,0:0:0:0:
64,192,36637,1,2,0:0:0:0:
192,192,36725,1,0,0:0:0:0:
64,192,36813,1,0,0:0:0:0:
320,192,36902,1,0,0:0:0:0:
64,192,36990,128,0,37166:0:0:0:0:
448,192,37078,1,0,0:0:0:0:
320,192,37122,1,0,0:0:0:0:
192,192,37166,1,0,0:0:0:0:
448,192,37254,1,0,0:0:0:0:
64,192,37343,1,0,0:0:0:0:
320,192,37343,1,0,0:0:0:100:LR_Clap DS.wav
448,192,37519,1,0,0:0:0:0:
192,192,37519,1,0,0:0:0:0:
320,192,37696,1,0,0:0:0:0:
64,192,37696,1,0,0:0:0:0:
448,192,37872,128,2,38225:0:0:0:0:
192,192,37872,1,0,0:0:0:0:
64,192,37872,1,0,0:0:0:0:
320,192,37960,1,0,0:0:0:0:
192,192,38049,1,0,0:0:0:0:
64,192,38137,1,0,0:0:0:0:
192,192,38225,128,0,38402:0:0:0:0:
64,192,38402,1,0,0:0:0:0:
320,192,38402,128,0,38490:0:0:0:0:
448,192,38402,128,2,38578:0:0:0:0:
64,192,38578,1,0,0:0:0:0:
192,192,38622,1,0,0:0:0:0:
320,192,38666,1,0,0:0:0:0:
448,192,38754,1,0,0:0:0:0:
64,192,38754,1,0,0:0:0:100:LR_Clap DS.wav
320,192,38843,1,0,0:0:0:0:
192,192,38931,1,0,0:0:0:0:
64,192,39019,1,0,0:0:0:0:
320,192,39107,128,0,39284:0:0:0:0:
64,192,39284,128,0,39460:0:0:0:0:
320,192,39460,1,0,0:0:0:0:
192,192,39460,1,0,0:0:0:0:
448,192,39460,128,2,39813:0:0:0:0:
64,192,39549,1,0,0:0:0:0:
192,192,39637,1,0,0:0:0:0:
320,192,39725,1,0,0:0:0:0:
192,192,39813,1,0,0:0:0:0:
64,192,39857,1,0,0:0:0:0:
320,192,39902,1,0,0:0:0:0:
448,192,39946,1,0,0:0:0:0:
192,192,39990,1,0,0:0:0:0:
320,192,40078,1,0,0:0:0:0:
192,192,40166,1,0,0:0:0:0:
64,192,40166,1,0,0:0:0:100:LR_Clap DS.wav
448,192,40343,1,0,0:0:0:0:
320,192,40343,128,0,40519:0:0:0:0:
192,192,40519,1,0,0:0:0:0:
64,192,40519,1,0,0:0:0:0:
320,192,40696,1,0,0:0:0:0:
448,192,40696,1,0,0:0:0:0:
64,192,40696,128,2,41049:0:0:0:0:
192,192,40784,1,0,0:0:0:0:
320,192,40872,1,0,0:0:0:0:
448,192,40960,1,0,0:0:0:0:
192,192,41049,128,0,41225:0:0:0:0:
448,192,41225,1,0,0:0:0:0:
320,192,41225,128,0,41313:0:0:0:0:
64,192,41225,128,2,41402:0:0:0:0:
448,192,41402,1,0,0:0:0:0:
320,192,41446,1,0,0:0:0:0:
192,192,41490,1,0,0:0:0:0:
320,192,41578,1,0,0:0:0:0:
448,192,41578,1,0,0:0:0:100:LR_Clap DS.wav
64,192,41666,1,0,0:0:0:0:
320,192,41754,1,0,0:0:0:0:
64,192,41843,1,0,0:0:0:0:
320,192,41931,1,0,0:0:0:0:
192,192,41931,128,0,42019:0:0:0:0:
448,192,41931,128,2,42107:0:0:0:0:
64,192,42107,1,0,0:0:0:0:
320,192,42284,1,4,0:0:0:0:
192,192,42284,1,2,0:0:0:0:
448,192,42284,128,0,42637:0:0:0:0:
192,192,42460,1,0,0:0:0:50:LR_Snare Fast.wav
64,192,42460,1,0,0:0:0:0:
64,192,42637,128,0,42813:0:0:0:50:LR_Snare Fast.wav
320,192,42637,1,0,0:0:0:0:
192,192,42725,1,0,0:0:0:0:
320,192,42769,1,0,0:0:0:0:
448,192,42813,1,0,0:0:0:50:LR_Snare Fast.wav
192,192,42990,1,0,0:0:0:50:LR_Snare Fast.wav
320,192,42990,1,0,0:0:0:100:LR_Clap DS.wav
64,192,43166,1,0,0:0:0:0:
192,192,43166,1,0,0:0:0:50:LR_Snare Fast.wav
448,192,43166,1,2,0:0:0:0:
320,192,43343,1,0,0:0:0:0:
64,192,43343,1,0,0:0:0:50:LR_Snare Fast.wav
320,192,43519,1,0,0:0:0:50:LR_Snare Fast.wav
192,192,43519,1,0,0:0:0:0:
448,192,43519,128,2,43872:0:0:0:0:
192,192,43696,1,0,0:0:0:50:LR_Snare Fast.wav
64,192,43696,1,0,0:0:0:0:
64,192,43872,128,0,44049:0:0:0:50:LR_Snare Fast.wav
320,192,43872,1,0,0:0:0:0:
320,192,44049,128,0,44137:0:0:0:0:
192,192,44049,1,0,0:0:0:50:LR_Snare Fast.wav
448,192,44049,128,2,44225:0:0:0:0:
64,192,44225,1,0,0:0:0:50:LR_Snare Fast.wav
192,192,44225,1,0,0:0:0:0:
320,192,44269,1,0,0:0:0:0:
448,192,44313,1,0,0:0:0:0:
64,192,44402,1,0,0:0:0:50:LR_Snare Fast.wav
192,192,44402,1,0,0:0:0:100:LR_Clap DS.wav
320,192,44578,1,0,0:0:0:50:LR_Snare Fast.wav
192,192,44578,1,0,0:0:0:0:
448,192,44754,128,2,44931:0:0:0:0:
320,192,44754,1,0,0:0:0:50:LR_Snare Fast.wav
192,192,44754,128,0,44843:0:0:0:0:
64,192,44931,1,0,0:0:0:50:LR_Snare Fast.wav
192,192,44931,1,0,0:0:0:0:
64,192,45107,1,2,0:0:0:0:
320,192,45107,1,0,0:0:0:50:LR_Snare Fast.wav
448,192,45107,1,0,0:0:0:0:
192,192,45196,1,0,0:0:0:50:LR_Snare Fast.wav
64,192,45196,1,0,0:0:0:0:
320,192,45284,1,0,0:0:0:50:LR_Snare Fast.wav
448,192,45284,1,0,0:0:0:0:
192,192,45372,1,0,0:0:0:50:LR_Snare Fast.wav
64,192,45372,1,0,0:0:0:0:
448,192,45460,1,0,0:0:0:50:LR_Snare Fast.wav
320,192,45460,1,0,0:0:0:0:
64,192,45549,1,0,0:0:0:50:LR_Snare Fast.wav
192,192,45549,1,0,0:0:0:0:
320,192,45637,1,0,0:0:0:50:LR_Snare Fast.wav
448,192,45637,1,0,0:0:0:0:
192,192,45725,1,0,0:0:0:50:LR_Snare Fast.wav
320,192,45813,1,0,0:0:0:50:LR_Snare Fast.wav
64,192,45813,1,0,0:0:0:100:LR_Clap DS.wav
448,192,45813,1,0,0:0:0:0:
320,192,45902,1,0,0:0:0:50:LR_Snare Fast.wav
448,192,45902,1,0,0:0:0:0:
64,192,45990,1,0,0:0:0:50:LR_Snare Fast.wav
192,192,45990,1,0,0:0:0:0:
320,192,46078,1,0,0:0:0:50:LR_Snare Fast.wav
448,192,46078,1,0,0:0:0:0:
192,192,46166,1,0,0:0:0:50:LR_Snare Fast.wav
64,192,46166,1,0,0:0:0:0:
320,192,46254,1,0,0:0:0:50:LR_Snare Fast.wav
192,192,46343,1,4,0:0:0:0:
448,192,46343,1,0,0:0:0:0:
64,192,46343,1,2,0:0:0:0:
320,192,46696,1,0,0:0:0:0:
320,192,46872,128,0,47137:0:0:0:0:
320,192,47225,1,0,0:0:0:0:
64,192,47402,1,0,0:0:0:70:LR_Snare Drum 3.wav
448,192,47402,1,0,0:0:0:0:
192,192,47490,1,0,0:0:0:70:LR_Snare Drum 3.wav
320,192,47534,1,0,0:0:0:0:
448,192,47578,1,0,0:0:0:70:LR_Snare Drum 2.wav
64,192,47578,1,0,0:0:0:0:
192,192,47666,1,0,0:0:0:70:tom02.wav
320,192,47754,1,0,0:0:0:70:tom02.wav
192,192,47843,1,0,0:0:0:70:tom02.wav
448,192,47931,1,4,0:0:0:0:
64,192,47931,128,2,48019:0:0:0:0:
320,192,47931,1,0,0:0:0:0:
192,192,48019,1,0,0:0:0:0:
320,192,48107,1,0,0:0:0:0:
448,192,48196,1,0,0:0:0:0:
64,192,48284,1,0,0:0:0:0:
192,192,48284,1,0,0:0:0:100:LR_Clap DS.wav
320,192,48372,1,0,0:0:0:0:
448,192,48460,1,0,0:0:0:0:
64,192,48549,1,0,0:0:0:0:
448,192,48637,1,0,0:0:0:0:
192,192,48637,1,0,0:0:0:100:LR_Clap DS.wav
320,192,48725,1,0,0:0:0:0:
192,192,48813,1,0,0:0:0:0:
64,192,48902,1,0,0:0:0:0:
320,192,48990,1,0,0:0:0:0:
192,192,48990,1,0,0:0:0:100:LR_Clap DS.wav
448,192,49078,1,0,0:0:0:0:
64,192,49166,1,0,0:0:0:0:
192,192,49254,1,0,0:0:0:0:
448,192,49343,128,0,49431:0:0:0:0:
64,192,49343,1,0,0:0:0:100:LR_Clap DS.wav
320,192,49431,1,0,0:0:0:0:
192,192,49519,1,0,0:0:0:0:
64,192,49607,1,0,0:0:0:0:
448,192,49696,1,0,0:0:0:0:
320,192,49696,1,0,0:0:0:100:LR_Clap DS.wav
192,192,49784,1,0,0:0:0:0:
64,192,49872,1,0,0:0:0:0:
448,192,49960,1,0,0:0:0:0:
64,192,50049,1,0,0:0:0:0:
320,192,50049,1,0,0:0:0:100:LR_Clap DS.wav
192,192,50137,1,0,0:0:0:0:
320,192,50225,1,0,0:0:0:0:
448,192,50313,1,0,0:0:0:0:
192,192,50402,1,0,0:0:0:0:
320,192,50402,1,0,0:0:0:100:LR_Clap DS.wav
64,192,50490,1,0,0:0:0:0:
448,192,50578,1,0,0:0:0:0:
320,192,50666,1,0,0:0:0:0:
64,192,50754,128,0,50843:0:0:0:0:
448,192,50754,1,0,0:0:0:100:LR_Clap DS.wav
192,192,50843,1,0,0:0:0:0:
320,192,50931,1,0,0:0:0:0:
448,192,51019,1,0,0:0:0:0:
192,192,51107,1,0,0:0:0:100:LR_Clap DS.wav
64,192,51107,1,0,0:0:0:0:
320,192,51196,1,0,0:0:0:0:
448,192,51284,1,0,0:0:0:0:
64,192,51372,1,0,0:0:0:0:
448,192,51460,1,0,0:0:0:0:
192,192,51460,1,0,0:0:0:100:LR_Clap DS.wav
320,192,51549,1,0,0:0:0:0:
192,192,51637,1,0,0:0:0:0:
64,192,51725,1,0,0:0:0:0:
320,192,51813,1,0,0:0:0:0:
192,192,51813,1,0,0:0:0:100:LR_Clap DS.wav
448,192,51902,1,0,0:0:0:0:
64,192,51990,1,0,0:0:0:0:
192,192,52078,1,0,0:0:0:0:
448,192,52166,128,0,52254:0:0:0:0:
64,192,52166,1,0,0:0:0:100:LR_Clap DS.wav
320,192,52254,1,0,0:0:0:0:
192,192,52343,1,0,0:0:0:0:
64,192,52431,1,0,0:0:0:0:
448,192,52519,1,0,0:0:0:0:
320,192,52519,1,0,0:0:0:100:LR_Clap DS.wav
192,192,52607,1,0,0:0:0:0:
64,192,52696,1,0,0:0:0:0:
448,192,52784,1,0,0:0:0:0:
64,192,52872,1,0,0:0:0:0:
320,192,52872,1,0,0:0:0:100:LR_Clap DS.wav
192,192,52960,1,0,0:0:0:0:
320,192,53049,1,0,0:0:0:0:
448,192,53137,1,0,0:0:0:0:
192,192,53225,1,0,0:0:0:0:
320,192,53225,1,0,0:0:0:100:LR_Clap DS.wav
64,192,53313,1,0,0:0:0:0:
448,192,53402,1,0,0:0:0:0:
320,192,53490,1,0,0:0:0:0:
448,192,53578,1,0,0:0:0:0:
64,192,53578,1,2,0:0:0:0:
192,192,53578,1,4,0:0:0:0:
192,192,53754,1,0,0:0:0:0:
320,192,53754,1,0,0:0:0:0:
448,192,53931,1,0,0:0:0:0:
320,192,53931,1,0,0:0:0:100:LR_Clap DS.wav
64,192,53931,1,2,0:0:0:0:
192,192,54107,1,0,0:0:0:0:
448,192,54107,1,0,0:0:0:0:
192,192,54284,1,0,0:0:0:0:
320,192,54284,1,0,0:0:0:100:LR_Clap DS.wav
64,192,54284,1,2,0:0:0:0:
448,192,54460,1,0,0:0:0:0:
320,192,54460,1,0,0:0:0:0:
448,192,54637,1,0,0:0:0:0:
64,192,54637,1,0,0:0:0:100:LR_Clap DS.wav
192,192,54637,1,2,0:0:0:0:
192,192,54813,1,0,0:0:0:0:
320,192,54813,1,0,0:0:0:0:
320,192,54990,1,4,0:0:0:0:
448,192,54990,1,2,0:0:0:0:
64,192,54990,1,0,0:0:0:0:
192,192,55166,1,0,0:0:0:0:
320,192,55166,1,0,0:0:0:0:
448,192,55343,1,2,0:0:0:0:
192,192,55343,1,0,0:0:0:100:LR_Clap DS.wav
64,192,55343,1,0,0:0:0:0:
64,192,55519,1,0,0:0:0:0:
320,192,55519,1,0,0:0:0:0:
448,192,55696,1,2,0:0:0:0:
192,192,55696,1,0,0:0:0:100:LR_Clap DS.wav
320,192,55696,1,0,0:0:0:0:
192,192,55872,1,0,0:0:0:0:
64,192,55872,1,0,0:0:0:0:
320,192,56049,1,2,0:0:0:0:
448,192,56049,1,0,0:0:0:100:LR_Clap DS.wav
64,192,56049,1,0,0:0:0:0:
192,192,56225,1,0,0:0:0:0:
320,192,56225,1,0,0:0:0:0:
448,192,56402,1,0,0:0:0:100:LR_Clap DS.wav
64,192,56402,1,2,0:0:0:0:
192,192,56490,1,0,0:0:0:0:
448,192,56578,1,0,0:0:0:0:
320,192,56578,1,2,0:0:0:0:
64,192,56666,1,0,0:0:0:0:
192,192,56754,1,2,0:0:0:0:
320,192,56754,1,0,0:0:0:100:LR_Clap DS.wav
448,192,56843,1,0,0:0:0:0:
192,192,56931,1,0,0:0:0:0:
64,192,56931,1,2,0:0:0:0:
320,192,57019,1,0,0:0:0:0:
64,192,57107,1,2,0:0:0:0:
192,192,57107,1,0,0:0:0:100:LR_Clap DS.wav
448,192,57196,1,2,0:0:0:0:
320,192,57196,1,0,0:0:0:0:
192,192,57284,1,0,0:0:0:0:
64,192,57284,1,2,0:0:0:0:
448,192,57372,1,2,0:0:0:0:
320,192,57372,1,0,0:0:0:0:
64,192,57460,1,2,0:0:0:0:
192,192,57460,1,0,0:0:0:100:LR_Clap DS.wav
448,192,57549,1,2,0:0:0:0:
320,192,57549,1,0,0:0:0:0:
192,192,57637,1,0,0:0:0:0:
64,192,57637,1,2,0:0:0:0:
320,192,57725,1,2,0:0:0:0:
64,192,57813,1,2,0:0:0:0:
192,192,57813,1,0,0:0:0:0:
448,192,57813,1,0,0:0:0:0:
320,192,57990,1,0,0:0:0:0:
448,192,58166,1,0,0:0:0:0:
192,192,58166,1,0,0:0:0:0:
64,192,58254,1,0,0:0:0:0:
320,192,58254,128,0,58519:0:0:0:0:
192,192,58343,128,0,58519:0:0:0:0:
448,192,58431,128,0,58519:0:0:0:0:
64,192,58519,128,0,58696:0:0:0:0:
448,192,58696,1,0,0:0:0:0:
320,192,58696,1,0,0:0:0:0:
192,192,58784,1,0,0:0:0:0:
448,192,58872,128,0,59225:0:0:0:0:
64,192,58872,1,0,0:0:0:0:
320,192,58872,1,0,0:0:0:100:LR2_ClapRRvLE.wav
64,192,59225,128,2,59313:0:0:0:0:
192,192,59225,1,0,0:0:0:0:
320,192,59225,1,4,0:0:0:0:
192,192,59402,1,0,0:0:0:0:
320,192,59490,1,0,0:0:0:0:
64,192,59578,1,2,0:0:0:0:
192,192,59578,1,8,0:0:0:0:
448,192,59578,1,0,0:0:0:0:
320,192,59637,1,0,0:0:0:0:
448,192,59696,1,0,0:0:0:0:
192,192,59754,1,0,0:0:0:0:
320,192,59813,1,0,0:0:0:0:
64,192,59872,1,0,0:0:0:0:
192,192,59931,1,2,0:0:0:0:
448,192,59931,1,0,0:0:0:0:
320,192,60019,1,0,0:0:0:0:
192,192,60107,128,0,60196:0:0:0:0:
64,192,60107,128,0,60196:0:0:0:0:
448,192,60196,128,0,60284:0:0:0:0:
64,192,60284,1,8,0:0:0:0:
320,192,60284,1,0,0:0:0:0:
192,192,60284,1,2,0:0:0:0:
448,192,60460,128,0,60637:0:0:0:0:
320,192,60549,1,0,0:0:0:0:
192,192,60637,1,0,0:0:0:0:
64,192,60637,1,2,0:0:0:0:
448,192,60725,1,0,0:0:0:0:
192,192,60813,128,0,60990:0:0:0:0:
448,192,60990,1,8,0:0:0:0:
64,192,60990,1,2,0:0:0:0:
320,192,60990,1,0,0:0:0:0:
192,192,61078,1,0,0:0:0:0:
448,192,61166,1,0,0:0:0:0:
320,192,61254,128,0,61343:0:0:0:0:
448,192,61343,128,0,61519:0:0:0:0:
64,192,61343,128,2,61519:0:0:0:0:
192,192,61519,128,0,61696:0:0:0:0:
448,192,61696,1,8,0:0:0:0:
320,192,61696,1,0,0:0:0:0:
64,192,61696,1,2,0:0:0:0:
448,192,61872,1,0,0:0:0:0:
320,192,61960,1,0,0:0:0:0:
192,192,62049,128,0,62137:0:0:0:0:
64,192,62049,1,2,0:0:0:0:
448,192,62225,1,0,0:0:0:0:
320,192,62313,1,0,0:0:0:0:
448,192,62402,1,8,0:0:0:0:
64,192,62402,1,2,0:0:0:0:
192,192,62402,1,0,0:0:0:0:
320,192,62460,1,0,0:0:0:0:
192,192,62519,1,0,0:0:0:0:
448,192,62578,1,0,0:0:0:0:
64,192,62637,1,0,0:0:0:0:
320,192,62696,1,0,0:0:0:0:
192,192,62754,1,2,0:0:0:0:
448,192,62754,1,0,0:0:0:0:
64,192,62843,1,0,0:0:0:0:
448,192,62931,128,0,63019:0:0:0:0:
320,192,62931,128,0,63019:0:0:0:0:
192,192,63019,128,0,63107:0:0:0:0:
64,192,63107,1,2,0:0:0:0:
320,192,63107,1,0,0:0:0:0:
448,192,63107,1,8,0:0:0:0:
192,192,63196,1,0,0:0:0:0:
448,192,63284,1,0,0:0:0:0:
64,192,63372,1,0,0:0:0:0:
192,192,63460,1,2,0:0:0:0:
320,192,63460,1,0,0:0:0:0:
448,192,63549,1,0,0:0:0:0:
192,192,63637,128,0,63813:0:0:0:0:
64,192,63813,1,2,0:0:0:0:
320,192,63813,1,0,0:0:0:0:
448,192,63813,1,8,0:0:0:0:
192,192,63902,1,0,0:0:0:0:
320,192,63990,128,0,64166:0:0:0:0:
448,192,64166,1,0,0:0:0:0:
192,192,64166,1,2,0:0:0:0:
64,192,64343,1,0,0:0:0:0:
320,192,64343,128,0,64431:0:0:0:0:
448,192,64519,1,8,0:0:0:0:
192,192,64519,128,2,64607:0:0:0:0:
64,192,64519,1,0,0:0:0:0:
320,192,64696,1,0,0:0:0:0:
448,192,64696,128,0,64784:0:0:0:0:
320,192,64872,128,0,64960:0:0:0:0:
64,192,64872,1,2,0:0:0:0:
448,192,65049,1,0,0:0:0:0:
192,192,65137,1,0,0:0:0:0:
64,192,65225,1,0,0:0:0:0:
320,192,65225,1,8,0:0:0:0:
448,192,65225,1,2,0:0:0:0:
192,192,65284,1,0,0:0:0:0:
64,192,65343,1,0,0:0:0:0:
320,192,65402,1,0,0:0:0:0:
192,192,65460,1,0,0:0:0:0:
448,192,65519,1,0,0:0:0:0:
320,192,65578,1,2,0:0:0:0:
64,192,65578,1,0,0:0:0:0:
192,192,65666,1,2,0:0:0:0:
448,192,65754,128,0,65843:0:0:0:0:
320,192,65754,128,0,65843:0:0:0:0:
192,192,65843,128,0,65931:0:0:0:0:
448,192,65931,1,8,0:0:0:0:
64,192,65931,1,2,0:0:0:0:
320,192,65931,1,0,0:0:0:0:
192,192,66019,1,0,0:0:0:0:
448,192,66107,1,0,0:0:0:0:
320,192,66196,1,0,0:0:0:0:
192,192,66284,1,0,0:0:0:0:
64,192,66284,1,2,0:0:0:0:
448,192,66372,1,0,0:0:0:0:
192,192,66460,128,0,66637:0:0:0:0:
448,192,66637,1,8,0:0:0:0:
320,192,66637,1,0,0:0:0:0:
64,192,66637,1,2,0:0:0:0:
192,192,66725,1,0,0:0:0:0:
448,192,66813,128,0,66990:0:0:0:0:
192,192,66990,1,0,0:0:0:0:
64,192,66990,1,2,0:0:0:0:
320,192,67078,1,0,0:0:0:0:
448,192,67166,128,0,67343:0:0:0:0:
64,192,67343,128,2,67696:0:0:0:0:
192,192,67343,1,0,0:0:0:0:
320,192,67343,1,8,0:0:0:0:
448,192,67696,128,0,68049:0:0:0:0:
320,192,67696,128,2,67784:0:0:0:0:
192,192,67872,1,0,0:0:0:0:
192,192,68049,128,0,68225:0:0:0:0:
64,192,68049,1,2,0:0:0:0:
320,192,68049,1,8,0:0:0:0:
320,192,68225,128,0,68402:0:0:0:0:
64,192,68402,128,2,68754:0:0:0:0:
192,192,68402,1,0,0:0:0:0:
320,192,68578,1,0,0:0:0:0:
320,192,68754,128,0,68931:0:0:0:0:
192,192,68754,1,2,0:0:0:0:
448,192,68754,1,8,0:0:0:0:
448,192,68931,128,0,69107:0:0:0:0:
192,192,69107,128,0,69284:0:0:0:0:
64,192,69107,128,2,69196:0:0:0:0:
320,192,69284,128,0,69460:0:0:0:0:
64,192,69460,128,2,69637:0:0:0:0:
192,192,69460,1,0,0:0:0:0:
448,192,69460,1,8,0:0:0:0:
448,192,69637,1,0,0:0:0:0:
320,192,69681,1,0,0:0:0:0:
192,192,69725,1,0,0:0:0:0:
448,192,69813,128,0,69990:0:0:0:0:
64,192,69813,1,2,0:0:0:0:
192,192,69990,1,0,0:0:0:0:
320,192,70078,1,0,0:0:0:0:
192,192,70166,128,0,70343:0:0:0:0:
64,192,70166,1,0,0:0:0:0:
448,192,70166,1,8,0:0:0:0:
320,192,70343,128,0,70519:0:0:0:0:
448,192,70519,128,0,70607:0:0:0:0:
192,192,70519,1,4,0:0:0:0:
64,192,70519,1,2,0:0:0:0:
192,192,70696,1,0,0:0:0:0:
64,192,70784,1,0,0:0:0:0:
448,192,70872,1,0,0:0:0:100:Percussion Hey sound.wav
192,192,70872,1,0,0:0:0:0:
320,192,70931,1,0,0:0:0:0:
448,192,70990,1,0,0:0:0:0:
192,192,71049,1,0,0:0:0:0:
320,192,71107,1,0,0:0:0:0:
64,192,71166,1,0,0:0:0:0:
192,192,71225,1,0,0:0:0:0:
320,192,71225,1,8,0:0:0:0:
448,192,71225,1,0,0:0:0:0:
192,192,71402,1,0,0:0:0:0:
320,192,71490,1,0,0:0:0:0:
448,192,71578,128,0,71666:0:0:0:100:Percussion Hey sound.wav
192,192,71578,128,2,71666:0:0:0:0:
64,192,71578,1,0,0:0:0:0:
320,192,71754,1,0,0:0:0:0:
64,192,71843,1,0,0:0:0:0:
192,192,71931,1,0,0:0:0:0:
448,192,72019,1,0,0:0:0:0:
64,192,72107,1,0,0:0:0:0:
320,192,72196,1,0,0:0:0:0:
192,192,72284,128,2,72372:0:0:0:0:
448,192,72284,128,0,72372:0:0:0:100:Percussion Hey sound.wav
64,192,72284,1,0,0:0:0:0:
320,192,72460,1,0,0:0:0:0:
64,192,72549,1,0,0:0:0:0:
192,192,72637,1,0,0:0:0:0:
448,192,72637,128,0,72813:0:0:0:0:
320,192,72637,128,8,72990:0:0:0:0:
192,192,72813,128,0,72990:0:0:0:0:
64,192,72813,128,0,72902:0:0:0:0:
64,192,72990,128,0,73166:0:0:0:0:
448,192,72990,128,0,73078:0:0:0:100:Percussion Hey sound.wav
320,192,73166,1,0,0:0:0:0:
192,192,73254,1,0,0:0:0:0:
320,192,73343,128,2,73431:0:0:0:0:
64,192,73343,1,0,0:0:0:0:
448,192,73343,1,0,0:0:0:0:
192,192,73519,1,0,0:0:0:0:
320,192,73607,1,0,0:0:0:0:
64,192,73696,1,0,0:0:0:100:Percussion Hey sound.wav
192,192,73696,1,0,0:0:0:0:
448,192,73696,1,0,0:0:0:0:
320,192,73754,1,0,0:0:0:0:
192,192,73813,1,0,0:0:0:0:
448,192,73872,1,0,0:0:0:0:
64,192,73931,1,0,0:0:0:0:
320,192,73990,1,0,0:0:0:0:
192,192,74049,1,8,0:0:0:0:
448,192,74049,1,0,0:0:0:0:
64,192,74049,1,0,0:0:0:0:
192,192,74225,1,0,0:0:0:0:
320,192,74313,1,0,0:0:0:0:
64,192,74402,128,0,74490:0:0:0:100:Percussion Hey sound.wav
448,192,74402,128,2,74490:0:0:0:0:
192,192,74402,1,0,0:0:0:0:
192,192,74578,1,0,0:0:0:0:
64,192,74666,1,0,0:0:0:0:
320,192,74754,1,0,0:0:0:0:
448,192,74843,1,0,0:0:0:0:
64,192,74931,1,0,0:0:0:0:
192,192,75019,1,0,0:0:0:0:
64,192,75107,128,0,75196:0:0:0:100:Percussion Hey sound.wav
448,192,75107,128,2,75196:0:0:0:0:
320,192,75107,1,0,0:0:0:0:
320,192,75284,1,0,0:0:0:0:
64,192,75372,1,0,0:0:0:0:
448,192,75460,1,0,0:0:0:0:
192,192,75460,1,0,0:0:0:0:
320,192,75460,1,8,0:0:0:0:
192,192,75637,128,0,75725:0:0:0:0:
64,192,75637,1,0,0:0:0:70:LR_Snare Drum 3.wav
320,192,75725,1,0,0:0:0:70:LR_Snare Drum 3.wav
64,192,75813,128,0,75902:0:0:0:100:Percussion Hey sound.wav
448,192,75813,128,0,75902:0:0:0:70:LR_Snare Drum 2.wav
192,192,75902,1,0,0:0:0:70:tom02.wav
448,192,75990,128,0,76078:0:0:0:0:
320,192,75990,1,0,0:0:0:70:tom02.wav
64,192,76078,1,0,0:0:0:70:tom02.wav
192,192,76166,128,0,76254:0:0:0:0:
320,192,76166,1,0,0:0:0:0:
448,192,76166,1,0,0:0:0:0:
320,192,76343,1,0,0:0:0:0:
448,192,76343,1,0,0:0:0:0:
192,192,76431,1,0,0:0:0:0:
64,192,76519,1,10,0:0:0:0:
320,192,76519,1,0,0:0:0:100:Percussion Hey sound.wav
192,192,76578,1,0,0:0:0:0:
64,192,76637,1,0,0:0:0:0:
320,192,76696,1,0,0:0:0:0:
192,192,76754,1,0,0:0:0:0:
448,192,76813,1,0,0:0:0:0:
64,192,76872,1,2,0:0:0:0:
320,192,76872,1,0,0:0:0:0:
192,192,77049,1,0,0:0:0:0:
320,192,77137,1,0,0:0:0:0:
64,192,77225,128,2,77313:0:0:0:0:
192,192,77225,128,8,77313:0:0:0:0:
448,192,77225,1,0,0:0:0:100:Percussion Hey sound.wav
448,192,77402,1,0,0:0:0:0:
320,192,77490,1,0,0:0:0:0:
192,192,77578,1,0,0:0:0:0:
64,192,77578,1,0,0:0:0:0:
192,192,77754,1,0,0:0:0:0:
320,192,77843,1,0,0:0:0:0:
64,192,77931,128,2,78019:0:0:0:0:
192,192,77931,128,8,78019:0:0:0:0:
448,192,77931,1,0,0:0:0:100:Percussion Hey sound.wav
448,192,78107,1,0,0:0:0:0:
320,192,78196,1,0,0:0:0:0:
192,192,78284,1,0,0:0:0:0:
64,192,78284,1,2,0:0:0:0:
192,192,78460,1,0,0:0:0:0:
448,192,78549,1,0,0:0:0:0:
320,192,78637,128,0,78990:0:0:0:100:Percussion Hey sound.wav
64,192,78637,128,2,78725:0:0:0:0:
192,192,78637,128,8,78725:0:0:0:0:
448,192,78990,1,4,0:0:0:0:
64,192,78990,1,2,0:0:0:0:
192,192,78990,128,0,79078:0:0:0:0:
320,192,79078,1,0,0:0:0:0:
448,192,79166,1,0,0:0:0:0:
192,192,79254,1,0,0:0:0:0:
64,192,79343,1,10,0:0:0:0:
320,192,79343,128,0,79431:0:0:0:0:
448,192,79343,128,0,79431:0:0:0:100:Percussion Hey sound.wav
192,192,79431,1,0,0:0:0:0:
448,192,79519,1,0,0:0:0:0:
320,192,79607,1,0,0:0:0:0:
192,192,79696,1,2,0:0:0:0:
64,192,79696,1,0,0:0:0:0:
448,192,79696,1,0,0:0:0:0:
320,192,79784,1,0,0:0:0:0:
448,192,79872,1,0,0:0:0:0:
192,192,79960,1,0,0:0:0:0:
64,192,80049,1,2,0:0:0:0:
448,192,80049,128,0,80137:0:0:0:100:Percussion Hey sound.wav
320,192,80049,128,8,80137:0:0:0:0:
192,192,80137,1,0,0:0:0:0:
448,192,80225,128,4,80578:0:0:0:0:
320,192,80225,1,0,0:0:0:0:
64,192,80225,128,2,80313:0:0:0:0:
192,192,80578,128,0,80754:0:0:0:0:
320,192,80754,128,0,80931:0:0:0:0:
192,192,80931,1,0,0:0:0:0:
448,192,80975,1,0,0:0:0:0:
320,192,81019,1,0,0:0:0:0:
64,192,81107,128,0,81460:0:0:0:0:
192,192,81460,128,0,81637:0:0:0:0:
320,192,81637,128,0,81813:0:0:0:0:
448,192,81813,128,4,81902:0:0:0:0:
64,192,81813,128,2,81902:0:0:0:0:
192,192,81813,1,0,0:0:0:0:
192,192,82166,1,0,0:0:0:0:
320,192,82519,128,0,82607:0:0:0:0:
64,192,82519,128,0,82607:0:0:0:0:
192,192,82696,1,0,0:0:0:0:
448,192,82872,1,0,0:0:0:0:
192,192,83049,128,0,83137:0:0:0:0:
64,192,83049,128,0,83137:0:0:0:0:
448,192,83402,1,0,0:0:0:0:
320,192,83578,1,0,0:0:0:0:
64,192,83754,1,0,0:0:0:0:
192,192,83799,1,0,0:0:0:0:
320,192,83843,1,0,0:0:0:0:
448,192,83931,1,0,0:0:0:0:
192,192,84284,1,0,0:0:0:0:
320,192,84460,1,0,0:0:0:0:
192,192,84637,128,0,84725:0:0:0:0:
64,192,84637,128,0,84725:0:0:0:0:
448,192,84990,1,0,0:0:0:0:
320,192,85343,128,0,85431:0:0:0:0:
64,192,85343,128,0,85431:0:0:0:0:
448,192,85519,1,0,0:0:0:0:
192,192,85696,1,0,0:0:0:0:
448,192,85872,128,0,85960:0:0:0:0:
64,192,85872,128,0,85960:0:0:0:0:
448,192,86225,1,0,0:0:0:0:
64,192,86402,1,0,0:0:0:0:
192,192,86578,1,0,0:0:0:0:
320,192,86622,1,0,0:0:0:0:
448,192,86666,1,0,0:0:0:0:
192,192,86754,128,0,86843:0:0:0:0:
64,192,86754,128,0,86843:0:0:0:0:
192,192,87107,1,0,0:0:0:0:
320,192,87284,1,0,0:0:0:0:
192,192,87460,128,0,87549:0:0:0:0:
448,192,87460,128,0,87549:0:0:0:0:
320,192,87813,1,0,0:0:0:0:
448,192,88166,128,0,88254:0:0:0:0:
64,192,88166,128,0,88254:0:0:0:0:
320,192,88343,1,0,0:0:0:0:
64,192,88519,1,0,0:0:0:0:
192,192,88696,128,0,88784:0:0:0:0:
320,192,88696,128,0,88784:0:0:0:0:
320,192,89049,1,0,0:0:0:0:
64,192,89225,1,0,0:0:0:0:
320,192,89402,1,0,0:0:0:0:
192,192,89446,1,0,0:0:0:0:
64,192,89490,1,0,0:0:0:0:
320,192,89578,128,0,89666:0:0:0:0:
448,192,89578,128,0,89666:0:0:0:0:
320,192,89931,1,0,0:0:0:0:
192,192,90107,1,0,0:0:0:0:
320,192,90284,128,0,90372:0:0:0:0:
64,192,90284,128,0,90372:0:0:0:0:
192,192,90637,1,0,0:0:0:0:
192,192,90990,128,0,91078:0:0:0:0:
448,192,90990,128,0,91078:0:0:0:0:
64,192,91166,1,0,0:0:0:0:
192,192,91343,1,0,0:0:0:0:
320,192,91519,128,0,91607:0:0:0:0:
448,192,91519,128,0,91607:0:0:0:0:
192,192,91872,1,0,0:0:0:0:
64,192,92049,1,0,0:0:0:0:
192,192,92225,1,0,0:0:0:0:
320,192,92269,1,0,0:0:0:0:
448,192,92313,1,0,0:0:0:0:
64,192,92402,1,0,0:0:0:0:
192,192,92446,1,0,0:0:0:0:
320,192,92490,1,0,0:0:0:0:
448,192,92534,1,0,0:0:0:0:
64,192,92578,1,0,0:0:0:0:
192,192,92622,1,0,0:0:0:0:
448,192,92666,1,0,0:0:0:0:
320,192,92710,1,0,0:0:0:0:
64,192,92754,1,0,0:0:0:0:
192,192,92754,1,0,0:0:0:100:Drum_Rim.wav
448,192,92799,1,0,0:0:0:0:
320,192,92843,1,0,0:0:0:0:
64,192,92887,1,0,0:0:0:0:
192,192,92931,1,0,0:0:0:0:
448,192,92975,1,0,0:0:0:0:
320,192,93019,1,0,0:0:0:0:
192,192,93063,1,0,0:0:0:0:
64,192,93107,1,2,0:0:0:0:
448,192,93107,1,4,0:0:0:100:LR_Clap DS.wav
320,192,93107,128,0,93460:0:0:0:0:
192,192,93284,1,0,0:0:0:0:
64,192,93460,128,0,93637:0:0:0:0:
448,192,93460,1,0,0:0:0:100:LR_Clap DS.wav
320,192,93637,1,0,0:0:0:0:
192,192,93813,128,0,93990:0:0:0:0:
448,192,93813,1,0,0:0:0:100:LR_Clap DS.wav
64,192,93990,1,0,0:0:0:0:
320,192,93990,128,0,94166:0:0:0:0:
448,192,94166,128,0,94343:0:0:0:0:
192,192,94166,1,0,0:0:0:100:LR_Clap DS.wav
320,192,94343,128,0,94696:0:0:0:0:
192,192,94431,1,0,0:0:0:0:
64,192,94519,1,0,0:0:0:100:LR_Clap DS.wav
448,192,94519,1,0,0:0:0:0:
64,192,94696,128,0,94872:0:0:0:0:
192,192,94872,128,0,95049:0:0:0:0:
448,192,94872,1,0,0:0:0:100:LR_Clap DS.wav
448,192,95049,1,0,0:0:0:0:
320,192,95093,1,0,0:0:0:0:
192,192,95137,1,0,0:0:0:0:
64,192,95225,1,0,0:0:0:0:
448,192,95225,1,0,0:0:0:100:LR_Clap DS.wav
320,192,95402,1,0,0:0:0:0:
64,192,95578,128,0,95754:0:0:0:0:
192,192,95578,1,0,0:0:0:100:LR_Clap DS.wav
448,192,95754,128,0,95931:0:0:0:0:
320,192,95931,128,0,96284:0:0:0:0:
192,192,95931,1,0,0:0:0:100:LR_Clap DS.wav
64,192,96107,1,0,0:0:0:0:
192,192,96284,128,0,96460:0:0:0:0:
448,192,96284,1,0,0:0:0:100:LR_Clap DS.wav
320,192,96460,1,0,0:0:0:0:
448,192,96637,128,0,96813:0:0:0:0:
64,192,96637,1,0,0:0:0:100:LR_Clap DS.wav
192,192,96813,128,0,96990:0:0:0:0:
64,192,96990,128,0,97166:0:0:0:0:
320,192,96990,1,0,0:0:0:100:LR_Clap DS.wav
448,192,97166,128,0,97519:0:0:0:0:
320,192,97254,1,0,0:0:0:0:
64,192,97343,1,0,0:0:0:100:LR_Clap DS.wav
192,192,97343,1,0,0:0:0:0:
192,192,97519,128,0,97696:0:0:0:0:
320,192,97696,128,0,97872:0:0:0:0:
64,192,97696,1,0,0:0:0:100:LR_Clap DS.wav
64,192,97872,1,0,0:0:0:0:
192,192,97916,1,0,0:0:0:0:
320,192,97960,1,0,0:0:0:0:
448,192,98049,1,0,0:0:0:0:
64,192,98049,1,0,0:0:0:100:LR_Clap DS.wav
320,192,98225,1,0,0:0:0:0:
64,192,98402,1,0,0:0:0:100:LR_Clap DS.wav
192,192,98402,128,0,98578:0:0:0:0:
320,192,98578,128,0,98754:0:0:0:0:
448,192,98754,128,0,99107:0:0:0:0:
64,192,98754,1,2,0:0:0:0:
192,192,98754,1,4,0:0:0:0:
320,192,98931,1,0,0:0:0:0:
192,192,99107,128,0,99284:0:0:0:0:
320,192,99107,1,0,0:0:0:100:LR_Clap DS.wav
64,192,99107,1,2,0:0:0:0:
320,192,99284,128,0,99460:0:0:0:0:
448,192,99460,128,0,99813:0:0:0:0:
64,192,99460,1,2,0:0:0:0:
192,192,99460,1,0,0:0:0:100:LR_Clap DS.wav
320,192,99637,1,0,0:0:0:0:
192,192,99813,128,0,99990:0:0:0:0:
64,192,99813,1,2,0:0:0:0:
320,192,99813,1,0,0:0:0:100:LR_Clap DS.wav
320,192,99990,128,0,100166:0:0:0:0:
64,192,100166,128,2,100343:0:0:0:0:
192,192,100166,1,0,0:0:0:100:LR_Clap DS.wav
448,192,100166,1,0,0:0:0:0:
448,192,100343,128,0,100519:0:0:0:0:
192,192,100519,128,0,100696:0:0:0:0:
320,192,100519,1,0,0:0:0:100:LR_Clap DS.wav
64,192,100519,1,2,0:0:0:0:
320,192,100696,128,0,100872:0:0:0:0:
64,192,100872,128,2,101049:0:0:0:0:
448,192,100872,1,0,0:0:0:0:
192,192,100872,1,0,0:0:0:100:LR_Clap DS.wav
320,192,101049,1,0,0:0:0:0:
448,192,101225,128,0,101402:0:0:0:0:
64,192,101225,1,2,0:0:0:0:
192,192,101225,1,0,0:0:0:100:LR_Clap DS.wav
192,192,101402,128,0,101578:0:0:0:0:
448,192,101578,1,0,0:0:0:100:LR_Clap DS.wav
320,192,101578,1,2,0:0:0:0:
64,192,101578,1,0,0:0:0:0:
192,192,101666,1,0,0:0:0:0:
64,192,101754,1,2,0:0:0:0:
448,192,101754,1,0,0:0:0:0:
320,192,101843,1,0,0:0:0:0:
448,192,101931,1,0,0:0:0:100:LR_Clap DS.wav
64,192,101931,1,0,0:0:0:0:
192,192,101931,1,2,0:0:0:0:
320,192,102019,1,0,0:0:0:0:
448,192,102107,1,2,0:0:0:0:
192,192,102107,1,0,0:0:0:0:
64,192,102196,1,0,0:0:0:0:
320,192,102284,1,0,0:0:0:100:LR_Clap DS.wav
448,192,102284,1,2,0:0:0:0:
192,192,102284,1,0,0:0:0:0:
64,192,102372,1,2,0:0:0:0:
448,192,102460,1,2,0:0:0:0:
320,192,102460,1,0,0:0:0:0:
192,192,102549,1,2,0:0:0:0:
448,192,102637,1,2,0:0:0:0:
320,192,102637,1,0,0:0:0:100:LR_Clap DS.wav
64,192,102637,1,0,0:0:0:0:
448,192,102813,1,2,0:0:0:0:
320,192,102813,1,4,0:0:0:0:
64,192,102813,1,0,0:0:0:0:
192,192,102813,1,0,0:0:0:0:
192,192,103166,1,0,0:0:0:0:
448,192,103343,1,0,0:0:0:0:
320,192,103343,1,0,0:0:0:0:
64,192,103431,1,0,0:0:0:0:
192,192,103431,1,0,0:0:0:0:
448,192,103519,1,0,0:0:0:0:
320,192,103563,1,0,0:0:0:0:
192,192,103607,1,0,0:0:0:0:
64,192,103696,1,0,0:0:0:0:
448,192,103696,1,0,0:0:0:0:
320,192,103872,1,0,0:0:0:0:
192,192,103960,1,0,0:0:0:0:
64,192,104049,1,0,0:0:0:0:
448,192,104049,1,0,0:0:0:0:
320,192,104049,1,0,0:0:0:100:LR2_ClapRRvLE.wav
320,192,104402,128,0,104754:0:0:0:0:
448,192,104402,1,0,0:0:0:0:
192,192,104402,1,4,0:0:0:0:
64,192,104402,1,2,0:0:0:0:
64,192,104578,1,0,0:0:0:0:
192,192,104754,128,8,104931:0:0:0:0:
448,192,104754,1,0,0:0:0:0:
64,192,104754,1,2,0:0:0:0:
320,192,104931,1,0,0:0:0:0:
64,192,105107,128,2,105284:0:0:0:0:
448,192,105107,1,0,0:0:0:0:
192,192,105107,1,0,0:0:0:0:
320,192,105284,128,0,105460:0:0:0:0:
192,192,105460,128,8,105637:0:0:0:0:
448,192,105460,1,0,0:0:0:0:
64,192,105460,1,2,0:0:0:0:
448,192,105637,128,0,105990:0:0:0:0:
320,192,105813,1,0,0:0:0:0:
192,192,105813,1,0,0:0:0:0:
64,192,105813,1,2,0:0:0:0:
192,192,105990,128,0,106166:0:0:0:0:
448,192,106166,128,0,106343:0:0:0:0:
320,192,106166,1,8,0:0:0:0:
64,192,106166,1,2,0:0:0:0:
64,192,106343,1,0,0:0:0:0:
192,192,106387,1,0,0:0:0:0:
320,192,106431,1,0,0:0:0:0:
64,192,106519,1,2,0:0:0:0:
192,192,106519,1,0,0:0:0:0:
448,192,106519,1,0,0:0:0:0:
320,192,106696,1,0,0:0:0:0:
448,192,106872,1,0,0:0:0:0:
64,192,106872,1,2,0:0:0:0:
192,192,106872,128,8,107049:0:0:0:0:
320,192,107049,128,0,107225:0:0:0:0:
448,192,107225,1,0,0:0:0:0:
64,192,107225,128,2,107578:0:0:0:0:
192,192,107225,1,0,0:0:0:0:
320,192,107402,1,0,0:0:0:0:
448,192,107578,128,0,107754:0:0:0:0:
320,192,107578,1,8,0:0:0:0:
192,192,107578,1,2,0:0:0:0:
192,192,107754,1,0,0:0:0:0:
64,192,107931,128,2,108107:0:0:0:0:
320,192,107931,1,0,0:0:0:0:
448,192,107931,1,0,0:0:0:0:
192,192,108107,128,0,108284:0:0:0:0:
320,192,108284,128,8,108460:0:0:0:0:
64,192,108284,1,2,0:0:0:0:
448,192,108284,1,0,0:0:0:0:
448,192,108460,128,0,108813:0:0:0:0:
320,192,108637,1,0,0:0:0:0:
192,192,108637,1,0,0:0:0:0:
64,192,108637,1,2,0:0:0:0:
64,192,108813,128,0,108990:0:0:0:0:
448,192,108990,128,0,109166:0:0:0:0:
320,192,108990,1,8,0:0:0:0:
192,192,108990,1,2,0:0:0:0:
64,192,109166,1,0,0:0:0:0:
192,192,109210,1,0,0:0:0:0:
320,192,109254,1,0,0:0:0:0:
448,192,109343,1,0,0:0:0:0:
192,192,109343,1,0,0:0:0:0:
64,192,109343,128,2,109519:0:0:0:0:
320,192,109519,1,0,0:0:0:0:
192,192,109696,128,8,109872:0:0:0:0:
448,192,109696,1,0,0:0:0:0:
64,192,109696,1,2,0:0:0:0:
320,192,109872,128,0,110049:0:0:0:0:
448,192,110049,128,0,110402:0:0:0:0:
192,192,110049,1,0,0:0:0:0:
64,192,110049,1,2,0:0:0:0:
192,192,110225,1,0,0:0:0:0:
320,192,110402,1,0,0:0:0:0:
192,192,110402,1,8,0:0:0:0:
64,192,110402,128,2,110578:0:0:0:0:
448,192,110578,1,0,0:0:0:0:
192,192,110754,128,0,110931:0:0:0:0:
448,192,110754,1,0,0:0:0:0:
64,192,110754,1,2,0:0:0:0:
320,192,110931,128,0,111107:0:0:0:0:
64,192,111107,128,2,111284:0:0:0:0:
192,192,111107,1,8,0:0:0:0:
448,192,111107,1,0,0:0:0:0:
448,192,111284,128,0,111637:0:0:0:0:
320,192,111460,1,0,0:0:0:0:
192,192,111460,1,0,0:0:0:0:
64,192,111460,1,2,0:0:0:0:
64,192,111637,128,0,111813:0:0:0:0:
448,192,111813,128,0,111990:0:0:0:0:
320,192,111813,1,8,0:0:0:0:
192,192,111813,1,2,0:0:0:0:
320,192,111990,1,0,0:0:0:0:
192,192,112034,1,0,0:0:0:0:
64,192,112078,1,0,0:0:0:0:
192,192,112166,1,2,0:0:0:0:
320,192,112166,1,0,0:0:0:0:
448,192,112166,128,0,112519:0:0:0:0:
64,192,112343,1,0,0:0:0:0:
320,192,112519,128,0,112696:0:0:0:0:
192,192,112519,1,8,0:0:0:0:
64,192,112519,1,2,0:0:0:0:
192,192,112696,128,0,112872:0:0:0:0:
64,192,112872,128,2,113225:0:0:0:0:
320,192,112872,1,0,0:0:0:0:
448,192,112872,1,0,0:0:0:0:
448,192,113049,1,0,0:0:0:0:
320,192,113225,128,8,113402:0:0:0:0:
192,192,113225,1,2,0:0:0:0:
448,192,113225,1,0,0:0:0:0:
192,192,113402,1,0,0:0:0:0:
64,192,113578,128,2,113754:0:0:0:0:
320,192,113578,1,0,0:0:0:0:
448,192,113578,1,0,0:0:0:0:
192,192,113754,128,0,113931:0:0:0:0:
320,192,113931,128,8,114107:0:0:0:0:
448,192,113931,1,0,0:0:0:0:
64,192,113931,1,2,0:0:0:0:
448,192,114107,128,0,114460:0:0:0:0:
320,192,114284,1,0,0:0:0:0:
192,192,114284,1,0,0:0:0:0:
64,192,114284,1,2,0:0:0:0:
320,192,114460,128,0,114637:0:0:0:0:
448,192,114637,128,0,114813:0:0:0:0:
192,192,114637,1,8,0:0:0:0:
64,192,114637,1,2,0:0:0:0:
64,192,114813,1,0,0:0:0:0:
192,192,114857,1,0,0:0:0:0:
320,192,114902,1,0,0:0:0:0:
192,192,114990,1,4,0:0:0:0:
64,192,114990,1,2,0:0:0:0:
448,192,114990,128,0,115343:0:0:0:0:
320,192,115166,1,0,0:0:0:0:
192,192,115166,1,0,0:0:0:0:
192,192,115343,1,0,0:0:0:0:
64,192,115343,1,0,0:0:0:0:
320,192,115431,1,0,0:0:0:0:
448,192,115431,1,0,0:0:0:0:
64,192,115519,128,0,115696:0:0:0:0:
192,192,115519,1,0,0:0:0:0:
320,192,115696,1,0,0:0:0:0:
448,192,116049,1,4,0:0:0:0:
192,192,116049,128,8,116225:0:0:0:0:
64,192,116049,1,2,0:0:0:0:
320,192,116049,1,0,0:0:0:0:
320,192,116225,1,0,0:0:0:0:
64,192,116402,128,2,116578:0:0:0:0:
448,192,116402,1,0,0:0:0:0:
192,192,116402,1,8,0:0:0:0:
448,192,116578,128,0,116754:0:0:0:0:
192,192,116754,128,8,116931:0:0:0:0:
320,192,116754,1,0,0:0:0:0:
64,192,116754,1,2,0:0:0:0:
320,192,116931,128,0,117284:0:0:0:0:
192,192,117107,1,8,0:0:0:0:
64,192,117107,1,2,0:0:0:0:
448,192,117107,1,0,0:0:0:0:
448,192,117284,128,0,117460:0:0:0:0:
64,192,117460,128,2,117637:0:0:0:0:
192,192,117460,1,8,0:0:0:0:
320,192,117460,1,0,0:0:0:0:
448,192,117637,1,0,0:0:0:0:
320,192,117681,1,0,0:0:0:0:
192,192,117725,1,0,0:0:0:0:
320,192,117813,1,8,0:0:0:0:
448,192,117813,1,0,0:0:0:0:
64,192,117813,128,2,117990:0:0:0:0:
192,192,117990,1,0,0:0:0:0:
448,192,118166,1,0,0:0:0:0:
64,192,118166,1,2,0:0:0:0:
320,192,118166,128,8,118343:0:0:0:0:
192,192,118343,128,0,118519:0:0:0:0:
64,192,118519,128,2,118872:0:0:0:0:
320,192,118519,1,8,0:0:0:0:
448,192,118519,1,0,0:0:0:0:
320,192,118696,1,0,0:0:0:0:
448,192,118872,1,0,0:0:0:0:
192,192,118872,1,2,0:0:0:0:
320,192,118872,1,8,0:0:0:0:
64,192,119049,1,0,0:0:0:0:
448,192,119225,128,0,119402:0:0:0:0:
64,192,119225,1,2,0:0:0:0:
192,192,119225,1,8,0:0:0:0:
320,192,119402,128,0,119578:0:0:0:0:
192,192,119578,128,8,119754:0:0:0:0:
448,192,119578,1,0,0:0:0:0:
64,192,119578,1,2,0:0:0:0:
64,192,119754,128,0,120107:0:0:0:0:
448,192,119931,1,0,0:0:0:0:
192,192,119931,1,2,0:0:0:0:
320,192,119931,1,8,0:0:0:0:
320,192,120107,128,0,120284:0:0:0:0:
64,192,120284,128,0,120460:0:0:0:0:
192,192,120284,1,2,0:0:0:0:
448,192,120284,1,8,0:0:0:0:
192,192,120460,1,0,0:0:0:0:
320,192,120504,1,0,0:0:0:0:
448,192,120549,1,0,0:0:0:0:
64,192,120637,1,2,0:0:0:0:
320,192,120637,1,8,0:0:0:0:
192,192,120637,128,0,120813:0:0:0:0:
448,192,120813,1,0,0:0:0:0:
64,192,120990,1,2,0:0:0:0:
192,192,120990,1,8,0:0:0:0:
320,192,120990,128,0,121166:0:0:0:0:
448,192,121166,128,0,121343:0:0:0:0:
320,192,121343,1,0,0:0:0:0:
192,192,121343,1,8,0:0:0:0:
64,192,121343,128,2,121696:0:0:0:0:
320,192,121519,1,0,0:0:0:50:LR_Snare Fast.wav
448,192,121519,1,0,0:0:0:0:
192,192,121696,1,2,0:0:0:0:
320,192,121696,1,8,0:0:0:0:
448,192,121696,128,0,121872:0:0:0:0:
64,192,121872,1,0,0:0:0:50:LR_Snare Fast.wav
192,192,121872,1,0,0:0:0:0:
320,192,122049,1,8,0:0:0:0:
64,192,122049,1,0,0:0:0:0:
192,192,122049,128,2,122225:0:0:0:0:
320,192,122225,128,0,122402:0:0:0:50:LR_Snare Fast.wav
448,192,122225,1,0,0:0:0:0:
64,192,122402,128,2,122578:0:0:0:0:
192,192,122402,1,8,0:0:0:0:
448,192,122402,1,0,0:0:0:0:
448,192,122578,128,0,122931:0:0:0:50:LR_Snare Fast.wav
320,192,122578,1,0,0:0:0:0:
320,192,122754,1,0,0:0:0:0:
64,192,122754,1,2,0:0:0:0:
192,192,122754,1,8,0:0:0:0:
192,192,122931,128,0,123107:0:0:0:50:LR_Snare Fast.wav
64,192,122931,1,0,0:0:0:0:
320,192,123107,128,8,123284:0:0:0:0:
448,192,123107,1,0,0:0:0:0:
64,192,123107,1,2,0:0:0:0:
64,192,123284,1,0,0:0:0:50:LR_Snare Fast.wav
448,192,123284,1,0,0:0:0:0:
192,192,123328,1,0,0:0:0:0:
320,192,123372,1,0,0:0:0:0:
448,192,123460,1,0,0:0:0:0:
192,192,123460,1,8,0:0:0:0:
64,192,123460,128,2,123813:0:0:0:0:
320,192,123637,1,0,0:0:0:50:LR_Snare Fast.wav
448,192,123637,1,0,0:0:0:0:
320,192,123813,128,8,123990:0:0:0:0:
448,192,123813,1,0,0:0:0:0:
192,192,123813,1,2,0:0:0:0:
192,192,123990,128,0,124166:0:0:0:50:LR_Snare Fast.wav
64,192,123990,1,0,0:0:0:0:
64,192,124166,5,2,0:0:0:0:
320,192,124166,1,8,0:0:0:0:
448,192,124166,1,0,0:0:0:0:
320,192,124254,1,0,0:0:0:50:LR_Snare Fast.wav
448,192,124254,1,0,0:0:0:0:
64,192,124343,1,0,0:0:0:50:LR_Snare Fast.wav
192,192,124343,1,0,0:0:0:0:
320,192,124431,1,0,0:0:0:50:LR_Snare Fast.wav
192,192,124519,1,2,0:0:0:0:
448,192,124519,1,8,0:0:0:0:
64,192,124519,1,0,0:0:0:0:
192,192,124607,1,0,0:0:0:50:LR_Snare Fast.wav
64,192,124607,1,0,0:0:0:0:
448,192,124696,1,0,0:0:0:50:LR_Snare Fast.wav
320,192,124696,1,0,0:0:0:0:
192,192,124784,1,0,0:0:0:50:LR_Snare Fast.wav
448,192,124872,1,2,0:0:0:0:
320,192,124872,1,0,0:0:0:0:
64,192,124872,1,0,0:0:0:0:
320,192,124960,1,0,0:0:0:50:LR_Snare Fast.wav
448,192,124960,1,0,0:0:0:0:
64,192,125049,1,0,0:0:0:50:LR_Snare Fast.wav
192,192,125049,1,0,0:0:0:0:
320,192,125137,1,0,0:0:0:50:LR_Snare Fast.wav
448,192,125225,1,2,0:0:0:0:
192,192,125225,1,8,0:0:0:0:
64,192,125225,1,0,0:0:0:0:
320,192,125313,1,0,0:0:0:50:LR_Snare Fast.wav
448,192,125402,1,2,0:0:0:0:
192,192,125402,1,0,0:0:0:0:
64,192,125402,1,4,0:0:0:50:LR_Snare Fast.wav
448,192,125754,1,0,0:0:0:0:
64,192,125931,1,0,0:0:0:0:
320,192,126019,1,0,0:0:0:0:
448,192,126107,1,0,0:0:0:0:
192,192,126152,1,0,0:0:0:0:
320,192,126196,1,0,0:0:0:0:
192,192,126284,128,0,126372:0:0:0:0:
64,192,126460,1,0,0:0:0:0:
448,192,126460,1,0,0:0:0:70:LR_Snare Drum 3.wav
192,192,126549,1,0,0:0:0:70:LR_Snare Drum 3.wav
320,192,126593,1,0,0:0:0:0:
448,192,126637,1,0,0:0:0:70:LR_Snare Drum 2.wav
64,192,126637,1,0,0:0:0:0:
192,192,126725,1,0,0:0:0:70:tom02.wav
320,192,126813,1,0,0:0:0:70:tom02.wav
192,192,126902,1,0,0:0:0:70:tom02.wav
448,192,126990,128,4,127078:0:0:0:0:
64,192,126990,128,2,127078:0:0:0:0:
192,192,127343,1,0,0:0:0:0:
320,192,127696,128,0,127784:0:0:0:0:
64,192,127696,128,0,127784:0:0:0:0:
192,192,127872,1,0,0:0:0:0:
448,192,128049,1,0,0:0:0:0:
192,192,128225,128,0,128313:0:0:0:0:
64,192,128225,128,0,128313:0:0:0:0:
448,192,128578,1,0,0:0:0:0:
320,192,128754,1,0,0:0:0:0:
64,192,128931,1,0,0:0:0:0:
192,192,128975,1,0,0:0:0:0:
320,192,129019,1,0,0:0:0:0:
448,192,129107,1,0,0:0:0:0:
192,192,129460,1,0,0:0:0:0:
320,192,129637,1,0,0:0:0:0:
192,192,129813,128,0,129902:0:0:0:0:
64,192,129813,128,0,129902:0:0:0:0:
448,192,130166,1,0,0:0:0:0:
320,192,130519,128,0,130607:0:0:0:0:
64,192,130519,128,0,130607:0:0:0:0:
448,192,130696,1,0,0:0:0:0:
192,192,130872,1,0,0:0:0:0:
448,192,131049,128,0,131137:0:0:0:0:
64,192,131049,128,0,131137:0:0:0:0:
448,192,131402,1,0,0:0:0:0:
64,192,131578,1,0,0:0:0:0:
192,192,131754,1,0,0:0:0:0:
320,192,131799,1,0,0:0:0:0:
448,192,131843,1,0,0:0:0:0:
192,192,131931,128,0,132019:0:0:0:0:
64,192,131931,128,0,132019:0:0:0:0:
192,192,132284,1,0,0:0:0:0:
320,192,132460,1,0,0:0:0:0:
192,192,132637,128,0,132725:0:0:0:0:
448,192,132637,128,0,132725:0:0:0:0:
320,192,132990,1,0,0:0:0:0:
64,192,133343,128,0,133431:0:0:0:0:
448,192,133343,128,0,133431:0:0:0:0:
320,192,133519,1,0,0:0:0:0:
64,192,133696,1,0,0:0:0:0:
192,192,133872,128,0,133960:0:0:0:0:
320,192,133872,128,0,133960:0:0:0:0:
320,192,134225,1,0,0:0:0:0:
64,192,134402,1,0,0:0:0:0:
320,192,134578,1,0,0:0:0:0:
192,192,134622,1,0,0:0:0:0:
64,192,134666,1,0,0:0:0:0:
320,192,134754,128,0,134843:0:0:0:0:
448,192,134754,128,0,134843:0:0:0:0:
320,192,135107,1,0,0:0:0:0:
192,192,135284,1,0,0:0:0:0:
320,192,135460,128,0,135549:0:0:0:0:
64,192,135460,128,0,135549:0:0:0:0:
192,192,135813,1,0,0:0:0:0:
192,192,136166,128,0,136254:0:0:0:0:
448,192,136166,128,0,136254:0:0:0:0:
64,192,136343,1,0,0:0:0:0:
192,192,136519,1,0,0:0:0:0:
320,192,136696,128,0,136784:0:0:0:0:
448,192,136696,128,0,136784:0:0:0:0:
192,192,137049,1,0,0:0:0:0:
64,192,137225,1,0,0:0:0:0:
192,192,137402,1,0,0:0:0:0:
320,192,137446,1,0,0:0:0:0:
448,192,137490,1,0,0:0:0:0:
64,192,137578,1,0,0:0:0:0:
192,192,137622,1,0,0:0:0:0:
320,192,137666,1,0,0:0:0:0:
448,192,137710,1,0,0:0:0:0:
64,192,137754,1,0,0:0:0:0:
192,192,137799,1,0,0:0:0:0:
448,192,137843,1,0,0:0:0:0:
320,192,137887,1,0,0:0:0:0:
64,192,137931,1,0,0:0:0:0:
192,192,137931,1,0,0:0:0:100:Drum_Rim.wav
448,192,137975,1,0,0:0:0:0:
320,192,138019,1,0,0:0:0:0:
64,192,138063,1,0,0:0:0:0:
192,192,138107,1,0,0:0:0:0:
448,192,138152,1,0,0:0:0:0:
320,192,138196,1,0,0:0:0:0:
192,192,138240,1,0,0:0:0:0:
64,192,138284,128,0,138372:0:0:0:0:
448,192,138284,128,4,138372:0:0:0:0:
192,192,138637,1,0,0:0:0:0:
64,192,138990,128,0,139078:0:0:0:0:
320,192,138990,128,0,139078:0:0:0:0:
192,192,139166,1,0,0:0:0:0:
448,192,139343,1,0,0:0:0:0:
192,192,139519,128,0,139607:0:0:0:0:
64,192,139519,128,0,139607:0:0:0:0:
448,192,139872,1,0,0:0:0:0:
320,192,140049,1,0,0:0:0:0:
64,192,140225,1,0,0:0:0:0:
192,192,140269,1,0,0:0:0:0:
320,192,140313,1,0,0:0:0:0:
448,192,140402,1,0,0:0:0:0:
192,192,140754,1,0,0:0:0:0:
320,192,140931,1,0,0:0:0:0:
192,192,141107,128,0,141196:0:0:0:0:
64,192,141107,128,0,141196:0:0:0:0:
448,192,141460,1,0,0:0:0:0:
320,192,141813,128,0,141902:0:0:0:0:
64,192,141813,128,0,141902:0:0:0:0:
448,192,141990,1,0,0:0:0:0:
192,192,142166,1,0,0:0:0:0:
64,192,142343,128,0,142431:0:0:0:0:
448,192,142343,128,0,142431:0:0:0:0:
448,192,142696,1,0,0:0:0:0:
64,192,142872,1,0,0:0:0:0:
192,192,143049,1,0,0:0:0:0:
320,192,143093,1,0,0:0:0:0:
448,192,143137,1,0,0:0:0:0:
192,192,143225,128,0,143313:0:0:0:0:
64,192,143225,128,0,143313:0:0:0:0:
192,192,143578,1,0,0:0:0:0:
320,192,143754,1,0,0:0:0:0:
192,192,143931,128,0,144019:0:0:0:0:
448,192,143931,128,0,144019:0:0:0:0:
320,192,144284,1,0,0:0:0:0:
448,192,144637,128,0,144725:0:0:0:0:
64,192,144637,128,0,144725:0:0:0:0:
320,192,144813,1,0,0:0:0:0:
64,192,144990,1,0,0:0:0:0:
192,192,145166,128,0,145254:0:0:0:0:
320,192,145166,128,0,145254:0:0:0:0:
320,192,145519,1,0,0:0:0:0:
64,192,145696,1,0,0:0:0:0:
320,192,145872,1,0,0:0:0:0:
192,192,145916,1,0,0:0:0:0:
64,192,145960,1,0,0:0:0:0:
320,192,146049,128,0,146137:0:0:0:0:
448,192,146049,128,0,146137:0:0:0:0:
192,192,146402,1,0,0:0:0:0:
320,192,146578,1,0,0:0:0:0:
64,192,146754,128,0,149578:0:0:0:0:
192,192,146754,1,0,0:0:0:0:
320,192,146799,1,0,0:0:0:0:
448,192,146843,128,0,149578:0:0:0:0:
