osu file format v14

[General]
AudioFilename: audio.mp3
AudioLeadIn: 0
PreviewTime: 38291
Countdown: 0
SampleSet: Soft
StackLeniency: 0.7
Mode: 0
LetterboxInBreaks: 0
WidescreenStoryboard: 0

[Editor]
Bookmarks: 15703,26997,49585,60879,72173,83467,83556,83644,83732,83820,83908,83997,84085,84173,84261,84350,84438,84526,84614,84703,84791,84879,84967,85056,85144,85232,85320,85408,85497,85585,85673,85761,85850,85938,86026,86114,86203,86291,86379,86467,86556,86644,86732,86820,86908,86997,87085,87173,87261,87350,87438,87526,87614,87703,87791,87879,87967,88056,88144,88232,88320,88408,88497,88585,88673,88761,88850,88938,89026,89114,89203,89291,89379,89467,89556,89644,89732,89820,89908,89997,90085,90173,90261,90350,90438,90526,90614,90703,90791,90879,90967,91056,91144,91232,91320,91408,91497,91585,91673,91761,91850,91938,92026,92114,92203,92291,92379,92467,92556,92644,92732,92820,92908,92997,93085,93173,93261,93350,93438,93526,93614,93703,93791,93879,93967,94056,94144,94232,94320,94408,94497,94585,94673,94761,106056,128644
DistanceSpacing: 0.9
BeatDivisor: 4
GridSize: 32
TimelineZoom: 3.399999

[Metadata]
Title:Syuou Sange
TitleUnicode:終桜散華
Artist:tokiwa
ArtistUnicode:tokiwa
Creator:AyayaBob
Version:Nanachi's Sakurafubuki
Source:
Tags:mir smugna smug nanachi oriental core drumstep hardcore m∞ving mooving 01 zarusoba designworks electronic instrumental shuuou future bass finis 勿忘 wasurena ぴくせる pikuseru pixel
BeatmapID:2865359
BeatmapSetID:1387277

[Difficulty]
HPDrainRate:5
CircleSize:4.5
OverallDifficulty:9
ApproachRate:9.6
SliderMultiplier:3
SliderTickRate:1

[Events]
//Background and Video events
0,0,"based.jpg",0,0
//Break Periods
2,83667,94226
//Storyboard Layer 0 (Background)
//Storyboard Layer 1 (Fail)
//Storyboard Layer 2 (Pass)
//Storyboard Layer 3 (Foreground)
//Storyboard Layer 4 (Overlay)
//Storyboard Sound Samples

[TimingPoints]
4409,352.941176470588,4,2,1,50,1,0
4409,-200,4,2,1,50,0,0
15350,-133.333333333333,4,2,1,60,0,0
15703,-153.846153846153,4,2,1,70,0,0
21350,-133.333333333333,4,2,1,70,0,0
25761,-133.333333333333,4,2,1,50,0,0
26467,-200,4,2,1,60,0,0
26644,-66.6666666666667,4,2,1,80,0,0
26997,-83.3333333333333,4,2,1,90,0,1
27350,-133.333333333333,4,2,1,90,0,1
27703,-71.4285714285714,4,2,1,90,0,1
28232,-83.3333333333333,4,2,1,90,0,1
28585,-200,4,2,1,90,0,1
28761,-83.3333333333333,4,2,1,90,0,1
29114,-100,4,2,1,90,0,1
29467,-125,4,2,1,90,0,1
29644,-100,4,2,1,90,0,1
29820,-76.9230769230769,4,2,1,90,0,1
30173,-133.333333333333,4,2,1,90,0,1
30526,-66.6666666666667,4,2,1,90,0,1
31056,-57.1428571428571,4,2,1,90,0,1
31408,-200,4,2,1,90,0,1
31585,-66.6666666666667,4,2,1,90,0,1
31938,-100,4,2,1,90,0,1
32644,-76.9230769230769,4,2,1,90,0,1
32997,-133.333333333333,4,2,1,90,0,1
33350,-71.4285714285714,4,2,1,90,0,1
33526,-133.333333333333,4,2,1,90,0,1
33703,-71.4285714285714,4,2,1,90,0,1
33879,-76.9230769230769,4,2,1,90,0,1
34232,-200,4,2,1,90,0,1
34408,-76.9230769230769,4,2,1,90,0,1
34761,-66.6666666666667,4,2,1,90,0,1
35114,-100,4,2,1,90,0,1
35291,-133.333333333333,4,2,1,90,0,1
35467,-83.3333333333333,4,2,1,90,0,1
35820,-133.333333333333,4,2,1,90,0,1
36173,-66.6666666666667,4,2,1,90,0,1
36703,-57.1428571428571,4,2,1,90,0,1
37056,-200,4,2,1,90,0,1
37232,-66.6666666666667,4,2,1,90,0,1
37585,-100,4,2,1,90,0,1
37938,-333.333333333333,4,2,1,90,0,0
38291,-76.9230769230769,4,2,1,90,0,1
38644,-133.333333333333,4,2,1,90,0,1
38997,-71.4285714285714,4,2,1,90,0,1
39526,-83.3333333333333,4,2,1,90,0,1
39879,-200,4,2,1,90,0,1
40056,-83.3333333333333,4,2,1,90,0,1
40408,-100,4,2,1,90,0,1
40761,-125,4,2,1,90,0,1
40938,-100,4,2,1,90,0,1
41114,-76.9230769230769,4,2,1,90,0,1
41467,-133.333333333333,4,2,1,90,0,1
41820,-66.6666666666667,4,2,1,90,0,1
42350,-55.5555555555556,4,2,1,90,0,1
42703,-200,4,2,1,90,0,1
42879,-66.6666666666667,4,2,1,90,0,1
43232,-100,4,2,1,90,0,1
43585,-125,4,2,1,90,0,1
43938,-76.9230769230769,4,2,1,90,0,1
44291,-133.333333333333,4,2,1,90,0,1
44644,-71.4285714285714,4,2,1,90,0,1
44820,-133.333333333333,4,2,1,90,0,1
44997,-71.4285714285714,4,2,1,90,0,1
45173,-83.3333333333333,4,2,1,90,0,1
45526,-200,4,2,1,90,0,1
45703,-76.9230769230769,4,2,1,90,0,1
46056,-100,4,2,1,90,0,1
46585,-83.3333333333333,4,2,1,90,0,1
47467,-76.9230769230769,4,2,1,90,0,1
47820,-133.333333333333,4,2,1,90,0,1
47997,-133.333333333333,4,2,1,90,0,0
48350,-133.333333333333,4,2,1,50,0,0
49056,-133.333333333333,4,2,1,70,0,0
49585,-133.333333333333,4,2,1,70,0,0
54526,-100,4,2,1,70,0,0
59820,-100,4,2,2,70,0,0
60173,-125,4,2,2,60,0,0
60350,-100,4,2,2,60,0,0
60526,-55.5555555555556,4,2,2,80,0,0
60879,-66.6666666666667,4,2,2,90,0,1
61056,-100,4,2,2,90,0,1
61232,-66.6666666666667,4,2,2,90,0,1
61585,-83.3333333333333,4,2,2,90,0,1
62114,-333.333333333333,4,2,2,90,0,1
62247,-333.333333333333,4,2,2,5,0,1
62291,-83.3333333333333,4,2,2,90,0,1
63879,-133.333333333333,4,2,2,90,0,1
64056,-66.6666666666667,4,2,2,90,0,1
64408,-83.3333333333333,4,2,2,90,0,1
64585,-66.6666666666667,4,2,2,90,0,1
64938,-333.333333333333,4,2,2,90,0,1
65070,-333.333333333333,4,2,2,5,0,1
65114,-333.333333333333,4,2,2,90,0,1
65291,-83.3333333333333,4,2,2,90,0,1
66526,-66.6666666666667,4,2,2,90,0,1
66703,-100,4,2,2,90,0,1
66879,-66.6666666666667,4,2,2,90,0,1
67232,-83.3333333333333,4,2,2,90,0,1
67761,-333.333333333333,4,2,2,90,0,1
67894,-333.333333333333,4,2,2,90,0,1
67938,-83.3333333333333,4,2,2,90,0,1
68997,-66.6666666666667,4,2,2,90,0,1
69350,-71.4285714285714,4,2,1,90,0,1
69703,-83.3333333333333,4,2,1,90,0,1
69879,-133.333333333333,4,2,1,90,0,1
70056,-66.6666666666667,4,2,1,90,0,1
70408,-83.3333333333333,4,2,1,90,0,1
70585,-133.333333333333,4,2,1,90,0,1
70761,-76.9230769230769,4,2,1,90,0,1
71644,-66.6666666666667,4,2,1,90,0,1
72173,-100,4,2,2,90,0,1
72526,-57.1428571428571,4,2,2,90,0,1
72879,-66.6666666666667,4,2,2,90,0,1
73232,-83.3333333333333,4,2,2,90,0,1
73408,-200,4,2,2,90,0,1
73761,-71.4285714285714,4,2,2,90,0,1
74291,-66.6666666666667,4,2,2,90,0,1
74997,-100,4,2,2,90,0,1
75350,-57.1428571428571,4,2,2,90,0,1
75703,-66.6666666666667,4,2,2,90,0,1
76056,-83.3333333333333,4,2,2,90,0,1
76232,-133.333333333333,4,2,2,90,0,1
76585,-71.4285714285714,4,2,2,90,0,1
77291,-71.4285714285714,4,2,1,90,0,1
77820,-83.3333333333333,4,2,2,90,0,1
78173,-66.6666666666667,4,2,2,90,0,1
78526,-83.3333333333333,4,2,2,90,0,1
79056,-333.333333333333,4,2,2,90,0,1
79188,-333.333333333333,4,2,2,90,0,1
79232,-83.3333333333333,4,2,2,90,0,1
80291,-66.6666666666667,4,2,2,90,0,1
80644,-71.4285714285714,4,2,1,90,0,1
80997,-83.3333333333333,4,2,1,90,0,1
81173,-133.333333333333,4,2,1,90,0,1
81350,-66.6666666666667,4,2,1,90,0,1
81703,-76.9230769230769,4,2,1,90,0,1
81879,-133.333333333333,4,2,1,90,0,0
82232,-133.333333333333,4,2,1,50,0,0
94761,-153.846153846153,4,2,1,70,0,0
100408,-133.333333333333,4,2,1,70,0,0
103938,-100,4,2,1,70,0,0
104820,-200,4,2,1,50,0,0
105526,-100,4,2,1,60,0,0
105703,-66.6666666666667,4,2,1,80,0,0
106056,-83.3333333333333,4,2,1,90,0,1
116820,-133.333333333333,4,2,1,90,0,1
117173,-333.333333333333,4,2,1,90,0,0
117350,-333.333333333333,4,2,1,50,0,0
117703,-83.3333333333333,4,2,1,90,0,1
126879,-133.333333333333,4,2,1,90,0,1
127056,-133.333333333333,4,2,1,100,0,0
127408,-133.333333333333,4,2,1,50,0,0
128114,-133.333333333333,4,2,1,70,0,0

[Colours]
Combo1 : 255,92,225
Combo2 : 255,20,228
Combo3 : 255,185,102
Combo4 : 255,119,25
Combo5 : 104,255,159
Combo6 : 15,200,124
Combo7 : 81,118,245
Combo8 : 63,27,255

[HitObjects]
434,0,4409,54,0,P|390:39|406:152,1,150,4|0,1:2|0:0,0:0:0:0:
386,125,5114,2,0,P|380:140|388:124,2,75,2|0|0,0:1|0:0|0:0,0:0:0:0:
437,258,5644,54,0,P|369:225|296:212,1,150,2|0,0:1|0:0,0:0:0:0:
267,289,6173,1,0,0:0:0:0:
188,295,6350,2,0,L|181:265,3,25
42,366,6879,53,0,0:0:0:0:
42,366,7056,1,0,0:0:0:0:
118,215,7232,54,0,B|171:163|171:163|249:194,1,150,2|0,0:1|0:0,0:0:0:0:
241,190,7938,2,0,L|263:109,1,75,2|0,0:1|0:0,0:0:0:0:
328,183,8291,1,0,0:0:0:0:
373,50,8467,54,0,B|365:131|418:111|414:194,1,150,2|0,0:1|0:0,0:0:0:0:
369,260,8997,1,0,0:0:0:0:
436,309,9173,2,0,L|466:302,3,25,0|0|0|2,0:0|0:0|0:0|0:1,0:0:0:0:
325,384,9703,53,0,0:0:0:0:
325,384,9879,1,0,0:0:0:0:
241,190,10056,54,0,L|211:373,1,150,2|0,0:1|0:0,0:0:0:0:
216,338,10761,2,0,B|207:374|207:374|169:367,2,75,2|0|0,0:1|0:0|0:0,0:0:0:0:
49,286,11291,54,0,B|29:319|29:319|138:281,1,150,2|0,0:1|0:0,0:0:0:0:
154,204,11820,1,0,0:0:0:0:
77,180,11997,2,0,L|70:210,3,25,0|0|0|2,0:0|0:0|0:0|0:1,0:0:0:0:
123,47,12526,53,0,0:0:0:0:
123,47,12703,1,0,0:0:0:0:
254,134,12879,54,0,B|330:140|310:190|387:196,1,150,2|0,0:1|0:0,0:0:0:0:
386,195,13585,2,0,L|406:122,1,75,2|0,0:1|0:0,0:0:0:0:
364,52,13938,1,0,0:0:0:0:
474,186,14114,54,0,L|511:348,1,150,2|0,0:1|0:0,0:0:0:0:
445,384,14644,1,0,0:0:0:0:
376,339,14820,2,0,L|338:330,2,25
277,287,14997,54,0,L|273:264,6,18.75
199,215,15350,54,0,L|205:184,6,28.1250010728836,2|0|0|0|0|0|0,0:3|0:0|0:0|0:0|0:0|0:0|0:0,0:0:0:0:
5,291,15703,22,0,P|28:355|96:355,1,146.249993305207,6|0,1:2|0:0,0:0:0:0:
97,356,16056,2,0,P|103:300|119:259,1,97.4999955368044,10|0,0:0|0:0,0:0:0:0:
346,312,16408,2,0,P|290:306|249:290,1,97.4999955368044,8|0,0:0|0:0,0:0:0:0:
199,215,16761,1,10,0:0:0:0:
262,17,16938,53,2,0:0:0:0:
254,21,17026,1,2,0:0:0:0:
248,26,17114,2,0,L|229:93,1,48.7499977684022,10|0,0:0|0:0,0:0:0:0:
291,194,17291,2,0,L|242:144,1,48.7499977684022,2|0,0:0|0:0,0:0:0:0:
124,147,17467,2,0,L|191:129,1,48.7499977684022,10|0,0:0|0:0,0:0:0:0:
432,196,17644,1,2,0:0:0:0:
441,222,17732,1,2,0:0:0:0:
435,244,17820,2,0,B|361:242|361:242|311:297,1,146.249993305207,10|0,0:0|0:0,0:0:0:0:
318,308,18173,54,0,L|392:327,1,48.7499977684022,10|0,0:0|0:0,0:0:0:0:
231,284,18350,2,0,L|183:271,1,48.7499977684022,10|0,0:0|0:0,0:0:0:0:
293,174,18526,54,0,L|257:-3,1,146.249993305207,14|0,0:0|0:0,0:0:0:0:
263,25,18879,2,0,P|311:46|367:44,1,97.4999955368044,10|0,0:0|0:0,0:0:0:0:
491,118,19232,54,0,P|467:122|442:139,1,48.7499977684022,10|0,0:0|0:0,0:0:0:0:
293,174,19408,2,0,P|314:187|338:192,1,48.7499977684022,2|0,0:0|0:0,0:0:0:0:
445,305,19585,2,0,P|440:281|423:256,1,48.7499977684022,10|0,0:0|0:0,0:0:0:0:
355,51,19761,54,0,B|301:38|268:82|268:82|236:128|184:113,1,194.999991073609,6|2,0:0|0:0,0:0:0:0:
177,112,20203,1,2,0:0:0:0:
169,111,20291,2,0,P|155:92|149:68,1,48.7499977684022,10|0,0:0|0:0,0:0:0:0:
184,299,20467,1,2,0:0:0:0:
165,319,20556,1,2,0:0:0:0:
139,320,20644,2,0,P|128:250|178:201,1,146.249993305207,10|0,0:0|0:0,0:0:0:0:
183,207,20997,54,0,L|245:189,1,48.7499977684022,10|0,0:0|0:0,0:0:0:0:
306,174,21173,2,0,L|352:160,1,48.7499977684022,10|0,0:0|0:0,0:0:0:0:
512,344,21350,54,0,L|401:323,1,112.500004291535,4|0,1:2|0:0,0:0:0:0:
331,355,21614,1,0,0:0:0:0:
323,361,21703,2,0,B|305:303|305:303|344:234,1,112.500004291535,10|0,1:2|0:0,0:0:0:0:
497,188,22056,54,0,P|469:184|442:175,1,56.2500021457673,2|0,1:2|0:0,0:0:0:0:
347,74,22232,2,0,P|319:77|292:86,1,56.2500021457673,2|0,0:2|0:0,0:0:0:0:
183,207,22408,1,10,1:2:0:0:
167,9,22585,54,0,P|189:19|232:35,1,56.2500021457673,2|0,0:2|0:0,0:0:0:0:
352,159,22761,1,0,1:0:0:0:
136,127,22938,54,0,L|207:112,1,56.2500021457673,2|0,0:2|0:0,0:0:0:0:
358,168,23114,1,8,1:2:0:0:
222,353,23291,53,2,0:0:0:0:
222,353,23350,1,2,0:0:0:0:
222,353,23408,1,2,0:0:0:0:
222,353,23467,2,0,B|216:301|243:272|243:272|273:242|262:195,1,168.750006437302,2|0,1:2|0:0,0:0:0:0:
183,195,23820,54,0,P|157:207|129:209,1,56.2500021457673,10|0,1:2|0:0,0:0:0:0:
308,359,23997,2,0,P|335:361|361:373,1,56.2500021457673,10|0,0:2|0:0,0:0:0:0:
440,180,24173,37,0,1:0:0:0:
434,194,24261,1,0,0:0:0:0:
355,194,24350,21,0,1:0:0:0:
349,180,24438,1,0,0:0:0:0:
268,181,24526,85,0,1:0:0:0:
262,195,24614,1,0,0:0:0:0:
183,195,24703,21,0,1:0:0:0:
177,181,24791,1,0,0:0:0:0:
108,93,24879,85,0,1:0:0:0:
101,147,24968,1,0,1:0:0:0:
94,202,25056,1,0,1:0:0:0:
87,254,25144,1,0,1:0:0:0:
80,309,25232,1,0,1:0:0:0:
70,360,25320,1,0,1:0:0:0:
81,370,25408,21,4,1:2:0:0:
221,115,25761,5,2,0:0:0:0:
252,191,25938,1,2,0:0:0:0:
303,127,26114,1,2,0:0:0:0:
312,127,26173,1,2,0:0:0:0:
323,127,26232,1,2,0:0:0:0:
334,128,26291,1,2,0:0:0:0:
508,268,26467,86,0,L|491:208,1,37.5,0|0,3:0|3:0,0:0:0:0:
502,234,26644,6,0,B|432:288|319:250|347:163|430:180|412:239,1,225.000008583069,8|0,0:1|0:0,0:0:0:0:
307,384,26997,70,0,P|341:254|303:126,1,269.999991760254,4|0,1:2|0:0,0:0:0:0:
290,45,27350,2,0,B|264:42|239:22|239:22|245:55|237:77,1,112.500004291535,2|0,0:0|0:0,0:0:0:0:
5,270,27703,6,0,P|55:254|98:225,1,104.999996795654,10|0,0:0|0:0,0:0:0:0:
143,384,27879,2,0,P|167:337|177:286,1,104.999996795654,2|0,0:0|0:0,0:0:0:0:
182,161,28056,102,0,P|192:195|189:159,1,104.999996795654,2|0,0:0|0:0,0:0:0:0:
11,276,28232,2,0,B|112:284|152:355|152:355|308:325,1,269.999991760254,2|0,1:2|0:0,0:0:0:0:
259,341,28585,6,0,L|274:288,1,37.5,2|0,0:0|0:0,0:0:0:0:
478,171,28761,102,0,B|397:141|393:226|307:190,1,179.999994506836,2|2,1:2|0:0,0:0:0:0:
251,30,28997,5,2,0:0:0:0:
255,14,29056,101,2,0:0:0:0:
264,0,29114,6,0,B|301:22|301:22|335:154|335:154|287:218,1,225,8|0,0:0|0:0,0:0:0:0:
233,137,29467,102,0,L|174:122,1,60,10|0,0:0|0:0,0:0:0:0:
96,101,29644,2,0,L|202:128,1,75,10|0,0:0|0:0,0:0:0:0:
216,384,29820,6,0,B|251:248|393:266|393:266|360:295|364:325,1,292.499986610413,6|0,1:2|0:0,0:0:0:0:
512,384,30173,2,0,P|494:331|426:354,1,112.500004291535,2|0,0:0|0:0,0:0:0:0:
237,166,30526,102,0,P|216:217|209:273,1,112.500004291535,10|0,0:0|0:0,0:0:0:0:
364,311,30703,2,0,P|343:260|336:204,1,112.500004291535,2|0,0:0|0:0,0:0:0:0:
169,113,30879,6,0,B|204:67|204:67|257:77,1,112.500004291535,2|0,0:0|0:0,0:0:0:0:
493,181,31056,2,0,B|532:206|532:246|532:246|387:143|234:166,1,393.750003755093,2|0,1:2|0:0,0:0:0:0:
240,179,31408,102,0,L|203:187,1,37.5,2|0,0:0|0:0,0:0:0:0:
430,90,31585,6,0,P|485:186|486:298,1,225.000008583069,2|2,1:2|0:0,0:0:0:0:
364,311,31820,101,2,0:0:0:0:
359,325,31879,5,2,0:0:0:0:
362,338,31938,102,0,B|402:369|402:369|411:297|360:238|266:259,1,225,10|0,0:0|0:0,0:0:0:0:
233,296,32291,2,0,P|183:315|221:277,1,150,2|2,1:2|0:0,0:0:0:0:
7,56,32644,6,0,B|59:36|59:36|99:71|99:71|282:124,1,292.499986610413,6|0,1:2|0:0,0:0:0:0:
356,140,32997,2,0,B|366:86|366:86|320:51,1,112.500004291535,2|0,0:0|0:0,0:0:0:0:
54,210,33350,102,0,B|83:229|83:229|58:163,1,104.999996795654,10|0,0:0|0:0,0:0:0:0:
7,56,33526,2,0,B|-9:118,1,56.2500021457673,2|0,1:2|0:0,0:0:0:0:
109,309,33703,6,0,P|152:283|162:233,1,104.999996795654,2|0,0:0|0:0,0:0:0:0:
0,282,33879,2,0,P|157:264|281:372,1,292.499986610413,2|0,1:2|0:0,0:0:0:0:
274,336,34232,102,0,P|283:315|278:283,1,37.5,2|0,0:0|0:0,0:0:0:0:
376,0,34408,6,0,P|371:97|407:189,1,194.999991073609,2|2,1:2|0:0,0:0:0:0:
453,272,34644,101,2,0:0:0:0:
461,283,34703,5,2,0:0:0:0:
472,293,34761,102,0,B|510:334|612:289|541:149|381:175|343:260,1,337.500012874604,10|0,0:0|0:0,0:0:0:0:
114,238,35114,6,0,P|145:259|156:294,1,75,2|0,1:2|0:0,0:0:0:0:
240,277,35291,2,0,P|242:305|229:330,1,56.2500021457673,2|0,2:0|2:0,2:0:0:0:
126,384,35467,102,0,B|89:316|136:258|136:258|188:195|148:134,1,269.999991760254,6|0,1:2|0:0,0:0:0:0:
266,146,35820,2,0,L|129:128,1,112.500004291535,2|0,0:0|0:0,0:0:0:0:
56,29,36173,6,0,B|79:40|92:70|92:70|116:51|143:47,1,112.500004291535,10|0,0:0|0:0,0:0:0:0:
395,202,36350,2,0,B|368:197|344:178|344:178|331:209|307:220,1,112.500004291535,2|0,0:0|0:0,0:0:0:0:
237,32,36526,102,0,L|267:140,1,112.500004291535,2|0,0:0|0:0,0:0:0:0:
419,328,36703,2,0,B|366:389|366:389|456:89,1,393.750003755093,2|0,1:2|0:0,0:0:0:0:
465,98,37056,6,0,L|475:151,1,37.5,2|0,0:0|0:0,0:0:0:0:
207,384,37232,102,0,P|305:329|422:322,1,225.000008583069,2|2,1:2|0:0,0:0:0:0:
499,314,37467,1,2,0:0:0:0:
503,327,37526,1,2,0:0:0:0:
498,340,37585,1,10,0:0:0:0:
395,202,37761,1,8,0:0:0:0:
110,368,37938,54,0,L|41:384,1,67.4999979400635,8|0,0:1|0:0,0:0:0:0:
45,384,38291,54,0,B|11:284|11:284|124:198|124:198|110:260,1,292.499986610413,6|0,1:2|0:0,0:0:0:0:
171,307,38644,2,0,B|241:326|241:326|213:296,1,112.500004291535,2|0,0:0|0:0,0:0:0:0:
373,300,38997,6,0,P|384:348|349:384,1,104.999996795654,10|0,0:0|0:0,0:0:0:0:
114,241,39173,2,0,P|149:204|197:216,1,104.999996795654,2|0,0:0|0:0,0:0:0:0:
300,124,39350,102,0,B|290:158|290:158|293:168|293:168|286:175|286:175|274:229,1,104.999996795654,2|0,0:0|0:0,0:0:0:0:
171,307,39526,2,0,B|241:329|293:261|293:261|337:196|406:219,1,269.999991760254,2|0,1:2|0:0,0:0:0:0:
415,229,39879,6,0,L|471:215,1,37.5,2|0,0:0|0:0,0:0:0:0:
219,4,40056,102,0,P|221:89|299:123,1,179.999994506836,2|2,1:2|0:0,0:0:0:0:
498,28,40291,5,2,0:0:0:0:
506,20,40350,101,2,0:0:0:0:
512,9,40408,6,0,B|455:16|455:16|451:22|451:22|255:47,1,225,10|0,0:0|0:0,0:0:0:0:
169,60,40761,102,0,P|153:34|128:19,1,60,2|0,0:0|0:0,0:0:0:0:
177,56,40938,2,0,P|209:39|219:4,1,75,2|0,0:0|0:0,0:0:0:0:
19,366,41114,6,0,P|23:221|96:96,1,292.499986610413,6|0,1:2|0:0,0:0:0:0:
164,143,41467,2,0,P|185:179|150:158,1,112.500004291535,2|0,0:0|0:0,0:0:0:0:
126,286,41820,102,0,B|166:277|166:277|173:279|173:279|176:274|176:274|231:259,1,112.500004291535,10|0,0:0|0:0,0:0:0:0:
343,130,41997,2,0,B|334:170|334:170|336:177|336:177|331:180|331:180|316:235,1,112.500004291535,2|0,0:0|0:0,0:0:0:0:
4,311,42173,6,0,B|-26:337|-26:337|61:308,1,112.500004291535,2|0,0:0|0:0,0:0:0:0:
305,384,42350,2,0,B|239:364|239:364|239:359|239:359|180:252|180:252|177:255|177:255|62:231|62:231|110:243|131:299,1,404.999987640381,2|0,1:2|0:0,0:0:0:0:
129,296,42703,102,0,L|121:333,1,37.5,2|0,0:0|0:0,0:0:0:0:
215,0,42879,6,0,B|268:19|268:19|171:16|110:63,1,225.000008583069,2|2,1:2|0:0,0:0:0:0:
40,204,43114,101,2,0:0:0:0:
48,221,43173,5,2,0:0:0:0:
61,229,43232,102,0,B|93:173|49:127|49:127|0:73|33:21,1,225,10|0,0:0|0:0,0:0:0:0:
106,59,43585,6,0,P|133:63|175:99,1,60,2|0,1:2|0:0,0:0:0:0:
195,166,43761,2,0,P|220:150|249:145,1,60,2|0,0:0|0:0,0:0:0:0:
477,227,43938,102,0,B|444:273|455:369|455:369|443:272|395:242,1,292.499986610413,6|0,1:2|0:0,0:0:0:0:
426,164,44291,2,0,B|403:145|419:111|419:111|445:137|431:163,1,112.500004291535,2|0,0:0|0:0,0:0:0:0:
455,369,44644,6,0,L|351:353,1,104.999996795654,10|0,0:0|0:0,0:0:0:0:
186,378,44820,2,0,L|164:298,1,56.2500021457673,2|0,1:2|0:0,0:0:0:0:
275,340,44997,102,0,L|171:324,1,104.999996795654,2|0,0:0|0:0,0:0:0:0:
0,384,45173,2,0,B|65:395|80:334|80:334|126:177,1,269.999991760254,2|0,1:2|0:0,0:0:0:0:
116,174,45526,6,0,L|99:229,1,37.5,2|0,0:0|0:0,0:0:0:0:
0,0,45703,102,0,P|77:77|182:81,1,194.999991073609,2|2,1:2|0:0,0:0:0:0:
335,38,45938,5,2,0:0:0:0:
333,17,45997,101,2,0:0:0:0:
320,0,46056,6,0,P|249:86|211:192,1,225,10|0,0:0|0:0,0:0:0:0:
205,272,46408,102,0,P|241:272|268:247,1,75,2|0,1:2|0:0,0:0:0:0:
158,86,46585,2,0,P|142:45|153:2,1,89.9999972534181,2|0,0:0|0:0,0:0:0:0:
411,53,46761,5,6,1:2:0:0:
421,55,46850,1,0,3:0:0:0:
432,58,46938,1,0,3:0:0:0:
443,60,47026,1,0,3:0:0:0:
512,123,47114,101,2,3:0:0:0:
468,132,47203,1,0,3:0:0:0:
424,142,47291,1,0,3:0:0:0:
380,152,47379,1,0,3:0:0:0:
308,100,47467,6,0,B|289:144|289:144|302:193,1,97.4999955368044,10|0,0:0|0:0,0:0:0:0:
492,384,47644,2,0,B|511:340|511:340|498:291,1,97.4999955368044,2|0,0:0|0:0,0:0:0:0:
426,254,47820,102,0,L|358:247,1,56.2500021457673,2|0,0:0|0:0,0:0:0:0:
193,230,47997,5,4,1:3:0:0:
193,230,48350,37,2,0:0:0:0:
128,284,48526,1,2,0:0:0:0:
58,246,48703,1,2,0:0:0:0:
58,246,48791,1,2,0:0:0:0:
58,246,48879,1,2,1:2:0:0:
216,0,49056,85,8,0:1:0:0:
238,79,49144,1,8,0:1:0:0:
260,158,49232,1,8,0:1:0:0:
379,322,49408,118,0,L|338:326,1,28.1250010728836,8|0,0:3|0:0,0:0:0:0:
386,324,49497,2,0,L|423:346,1,28.1250010728836,8|0,0:3|0:0,0:0:0:0:
400,249,49585,85,2,1:0:0:0:
464,197,49938,1,8,0:1:0:0:
412,133,50291,1,8,0:1:0:0:
348,185,50644,1,8,0:1:0:0:
112,249,50997,21,10,0:1:0:0:
48,197,51350,1,8,0:1:0:0:
100,133,51703,1,8,0:1:0:0:
164,185,52056,1,8,0:1:0:0:
241,314,52408,85,10,0:1:0:0:
252,232,52761,1,8,0:1:0:0:
263,150,53114,1,8,0:1:0:0:
274,68,53467,1,8,0:1:0:0:
256,192,53820,21,10,0:1:0:0:
256,192,54173,1,8,0:1:0:0:
401,122,54526,86,0,P|366:135|342:163,1,75,8|0,0:1|0:0,0:0:0:0:
110,122,54703,2,0,P|145:135|169:163,1,75,0|0,3:0|0:0,0:0:0:0:
250,55,54879,21,8,0:1:0:0:
257,43,54967,1,0,3:0:0:0:
249,32,55056,1,0,3:0:0:0:
257,20,55144,1,0,3:0:0:0:
254,5,55232,37,0,1:0:0:0:
23,78,55408,1,0,0:0:0:0:
209,276,55585,53,8,0:1:0:0:
136,45,55761,1,0,0:0:0:0:
342,196,55938,53,0,1:0:0:0:
111,123,56114,1,0,0:0:0:0:
256,192,56291,53,8,0:1:0:0:
256,192,56467,1,8,0:0:0:0:
258,5,56644,53,0,1:0:0:0:
489,78,56820,1,0,0:0:0:0:
303,276,56997,53,8,0:1:0:0:
376,45,57173,1,0,0:0:0:0:
170,196,57350,53,0,1:0:0:0:
401,123,57526,1,0,0:0:0:0:
256,192,57703,53,8,0:1:0:0:
256,192,57879,1,8,0:0:0:0:
256,0,58056,54,0,P|277:30|291:65,1,75,0|0,1:0|0:0,0:0:0:0:
448,192,58232,2,0,P|417:213|382:227,1,75,0|0,1:0|0:0,0:0:0:0:
256,384,58408,2,0,P|234:353|220:318,1,75,0|0,1:0|0:0,0:0:0:0:
64,192,58585,2,0,P|94:170|129:156,1,75,0|0,1:0|0:0,0:0:0:0:
308,163,58761,53,0,1:2:0:0:
283,244,58850,1,0,1:0:0:0:
202,219,58938,1,0,1:0:0:0:
227,138,59026,1,0,1:0:0:0:
289,193,59114,53,0,1:2:0:0:
254,225,59203,1,0,1:0:0:0:
222,190,59291,1,0,1:0:0:0:
257,158,59379,1,0,1:0:0:0:
256,192,59467,53,0,1:0:0:0:
107,0,59820,37,8,3:3:0:0:
107,0,59908,1,8,0:3:0:0:
145,94,60173,86,0,L|87:77,1,60,8|0,3:3|0:0,0:0:0:0:
9,54,60350,2,0,L|80:75,1,75,4|0,0:3|0:0,0:0:0:0:
182,165,60526,6,0,B|422:119|422:119|270:172,1,404.999987640381,8|0,3:1|0:0,0:0:0:0:
255,274,60879,54,0,P|238:222|266:175,1,112.500004291535,0|0,1:0|0:0,0:0:0:0:
173,28,61056,2,0,P|149:56|144:93,1,75,2|0,0:0|0:0,0:0:0:0:
291,364,61232,54,0,P|172:246|-13:238,1,337.500012874604,2|0,1:0|0:0,0:0:0:0:
7,238,61585,54,0,P|47:220|86:197,1,89.9999972534181,0|0,1:0|0:0,0:0:0:0:
93,364,61761,1,2,0:0:0:0:
121,362,61850,1,2,0:0:0:0:
143,350,61938,2,0,P|155:319|173:244,1,89.9999972534181,0|0,1:0|0:0,0:0:0:0:
292,18,62114,54,0,L|333:12,1,33.7499989700318,2|0,0:0|0:0,0:0:0:0:
336,22,62291,54,0,L|203:45,1,89.9999972534181,0|0,1:0|0:0,0:0:0:0:
183,93,62467,2,0,B|149:60|149:60|161:19,1,89.9999972534181,2|0,0:0|0:0,0:0:0:0:
425,0,62644,2,0,L|398:214,1,179.999994506836,0|2,1:0|0:0,0:0:0:0:
403,186,62908,1,2,0:0:0:0:
474,231,62997,54,0,P|442:263|397:264,1,89.9999972534181,0|0,1:0|0:0,0:0:0:0:
242,316,63173,2,0,B|289:307|312:263|312:263|317:309|358:335,1,179.999994506836,2|0,0:3|1:0,0:0:0:0:
152,73,63526,53,2,0:2:0:0:
232,59,63614,1,2,0:2:0:0:
196,94,63703,54,0,L|214:182,1,89.9999972534181,0|0,1:0|0:0,0:0:0:0:
242,316,63879,2,0,L|230:260,1,56.2500021457673,2|0,0:0|0:0,0:0:0:0:
196,94,64056,54,0,B|179:180|179:180|29:252|29:252|0:342,1,337.500012874604,2|0,1:0|0:0,0:0:0:0:
175,373,64408,2,0,L|155:285,1,89.9999972534181,0|0,1:0|0:0,0:0:0:0:
51,103,64585,54,0,P|75:118|123:121,2,56.2500021457673,2|0|0,0:0|0:0|0:0,0:0:0:0:
42,93,64761,1,0,1:0:0:0:
178,12,64938,54,0,L|216:4,1,33.7499989700318,2|0,0:0|0:0,0:0:0:0:
212,5,65114,1,0,1:0:0:0:
359,15,65291,54,0,P|335:52|323:96,1,89.9999972534181,2|0,0:0|0:0,0:0:0:0:
299,185,65467,1,0,1:0:0:0:
476,87,65644,54,0,P|435:106|400:135,1,89.9999972534181,2|0,0:0|0:0,0:0:0:0:
295,198,65820,1,0,1:0:0:0:
71,210,65997,54,0,P|115:210|160:217,1,89.9999972534181,2|0,0:3|0:0,0:0:0:0:
291,208,66173,1,0,1:0:0:0:
87,369,66350,54,0,P|121:339|161:319,1,89.9999972534181,2|0,0:3|0:0,0:0:0:0:
290,219,66526,54,0,P|293:176|310:210,1,112.500004291535,0|0,1:0|0:0,0:0:0:0:
314,299,66703,2,0,P|329:322|325:295,1,75,2|0,0:0|0:0,0:0:0:0:
322,93,66879,54,0,B|255:75|209:128|209:128|164:180|92:164|92:164|87:135|87:135|83:129|83:129|85:123|85:123|78:82,1,337.500012874604,2|0,1:0|0:0,0:0:0:0:
83,75,67232,54,0,P|39:84|10:117,1,89.9999972534181,0|0,1:0|0:0,0:0:0:0:
10,304,67408,1,2,0:0:0:0:
35,292,67497,1,2,0:0:0:0:
51,271,67585,2,0,L|65:182,1,89.9999972534181,0|0,1:0|0:0,0:0:0:0:
141,0,67761,54,0,L|179:6,1,33.7499989700318,2|0,0:0|0:0,0:0:0:0:
175,6,67938,53,0,1:0:0:0:
347,134,68114,2,0,L|327:47,1,89.9999972534181,2|0,0:3|0:0,0:0:0:0:
460,62,68291,53,0,1:0:0:0:
332,219,68467,2,0,L|353:132,1,89.9999972534181,2|0,0:3|0:0,0:0:0:0:
256,110,68644,53,0,1:0:0:0:
347,307,68820,2,0,L|327:220,1,89.9999972534181,2|0,0:3|0:0,0:0:0:0:
491,165,68997,54,0,B|479:203|479:203|478:208|478:208|473:205|473:205|428:220|428:220|425:226|425:226|421:222|421:222|202:282,1,337.500012874604,2|0,1:0|0:0,0:0:0:0:
127,192,69350,6,0,B|89:139|89:139|228:188|228:188|176:347,1,314.999990386963,6|0,1:2|0:0,0:0:0:0:
172,384,69703,6,0,P|141:351|100:333,1,89.9999972534181,2|0,1:2|0:0,0:0:0:0:
124,199,69879,2,0,P|98:210|79:230,1,56.2500021457673,2|0,0:0|0:0,0:0:0:0:
0,10,70056,102,0,P|131:110|296:105,1,337.500012874604,2|0,1:2|0:0,0:0:0:0:
344,39,70408,6,0,B|312:6|312:6|268:31,1,89.9999972534181,2|0,1:2|0:0,0:0:0:0:
295,110,70585,2,0,L|274:197,1,56.2500021457673,2|0,0:0|0:0,0:0:0:0:
177,293,70761,102,0,B|232:293|263:246|263:246|274:302|322:324,1,194.999991073609,6|2,1:2|0:0,0:0:0:0:
435,228,71026,1,2,0:0:0:0:
438,224,71114,2,0,P|391:210|349:249,1,97.4999955368044,2|0,1:2|0:0,0:0:0:0:
182,206,71291,5,2,0:0:0:0:
172,194,71350,101,2,0:0:0:0:
167,180,71408,5,2,0:0:0:0:
164,165,71467,101,2,1:2:0:0:
368,0,71644,5,8,0:0:0:0:
402,75,71732,1,8,0:0:0:0:
331,119,71820,2,0,L|185:95,1,112.500004291535,8|0,0:1|0:0,0:0:0:0:
26,68,71997,2,0,L|137:86,1,112.500004291535,8|0,0:3|0:0,0:0:0:0:
500,143,72173,53,0,1:0:0:0:
402,75,72350,2,0,L|427:169,1,75,2|0,0:0|0:0,0:0:0:0:
444,374,72526,6,0,B|447:325|505:294|505:294|470:301|470:301|469:298|469:298|468:301|468:301|444:304|444:304|440:302|440:302|440:306|440:306|416:310|416:310|412:307|412:307|409:311|409:311|325:326|325:326|311:380|257:384,1,393.750003755093,2|0,0:1|0:0,0:0:0:0:
109,262,72879,102,0,B|239:294|239:294|260:245|309:246,1,225.000008583069,8|2,0:0|0:0,0:0:0:0:
309,246,73144,1,2,0:0:0:0:
383,216,73232,2,0,L|400:118,1,89.9999972534181,0|0,1:3|0:0,0:0:0:0:
512,0,73408,6,0,P|501:23|505:2,1,75,2|0,0:0|0:0,0:0:0:0:
512,16,73761,102,0,B|467:11|466:52|409:43,1,104.999996795654,2|0,0:3|0:0,0:0:0:0:
269,169,73938,2,0,B|223:154|169:87|193:-9|294:-7|261:106|196:74,1,209.999993591309,0|2,1:3|0:0,0:0:0:0:
245,78,74203,1,2,0:0:0:0:
324,94,74291,6,0,P|378:92|412:50,1,112.500004291535,8|0,0:0|0:0,0:0:0:0:
369,308,74467,2,0,B|348:252|302:228|302:228|298:220|298:220|290:220|290:220|288:213|288:213|275:211|275:211|193:173|82:192,1,337.500012874604,2|0,0:1|0:0,0:0:0:0:
10,55,74820,101,2,0:0:0:0:
85,33,74908,1,2,0:0:0:0:
39,17,74997,5,0,1:0:0:0:
69,119,75173,2,2,L|86:192,1,75,0|0,0:0|0:0,0:0:0:0:
153,384,75350,102,0,B|198:321|198:321|161:246|161:246|167:238|167:238|176:192|176:192|172:183|172:183|178:162|178:162|177:153|177:153|182:126|182:126|187:117|187:117|186:109|186:109|191:82|191:82|159:135,1,393.750003755093,2|0,0:1|0:0,0:0:0:0:
0,384,75703,6,0,B|87:364|87:364|92:355|92:355|88:364|88:364|310:316,1,337.500012874604,8|0,0:0|0:0,0:0:0:0:
486,384,76056,2,0,B|501:351|501:351|508:342|508:342|499:332|499:332|486:305,1,89.9999972534181,0|0,1:3|0:0,0:0:0:0:
397,239,76232,102,0,P|399:278|402:240,1,112.500004291535,2|0,0:0|0:0,0:0:0:0:
396,256,76585,6,0,B|428:221|398:199|435:155,1,104.999996795654,2|0,0:0|0:0,0:0:0:0:
512,50,76761,1,0,1:0:0:0:
285,106,76938,102,0,B|337:103|326:67|383:62,1,104.999996795654,2|0,0:0|0:0,0:0:0:0:
512,42,77114,1,0,1:0:0:0:
285,336,77291,69,8,0:1:0:0:
266,259,77379,1,8,0:1:0:0:
246,182,77467,1,8,0:1:0:0:
16,0,77644,38,0,L|-5:80,1,52.4999983978272,8|0,0:3|0:0,0:0:0:0:
16,78,77732,2,0,L|-5:158,1,52.4999983978272,8|0,0:3|0:0,0:0:0:0:
27,157,77820,6,0,P|69:168|111:153,1,89.9999972534181,0|0,1:0|0:0,0:0:0:0:
285,106,77997,2,0,P|242:94|200:109,1,89.9999972534181,2|0,0:3|0:0,0:0:0:0:
94,327,78173,102,0,B|62:226|133:175|133:175|207:117|171:24,1,337.500012874604,2|0,1:0|0:0,0:0:0:0:
171,24,78526,6,0,B|125:17|125:17|104:57,1,89.9999972534181,0|0,1:0|0:0,0:0:0:0:
177,267,78703,1,2,0:0:0:0:
202,278,78791,1,2,0:0:0:0:
229,270,78879,2,0,L|251:151,1,89.9999972534181,0|0,1:0|0:0,0:0:0:0:
499,26,79056,102,0,L|511:62,1,33.7499989700318,2|0,0:0|0:0,0:0:0:0:
510,59,79232,5,0,1:0:0:0:
326,200,79408,2,0,L|413:177,1,89.9999972534181,2|0,0:3|0:0,0:0:0:0:
450,280,79585,101,0,1:0:0:0:
234,174,79761,2,0,L|321:198,1,89.9999972534181,2|0,0:3|0:0,0:0:0:0:
358,96,79938,5,0,1:0:0:0:
144,203,80114,2,0,L|231:180,1,89.9999972534181,2|0,0:3|0:0,0:0:0:0:
406,362,80291,102,0,B|346:335|336:230|406:173|406:173|413:177|413:177|408:171|408:171|461:129|436:71,1,337.500012874604,2|0,1:0|0:0,0:0:0:0:
471,1,80644,38,0,B|542:17|542:17|266:93,1,314.999990386963,6|0,1:2|0:0,0:0:0:0:
226,84,80997,6,0,P|233:42|276:13,1,89.9999972534181,2|0,1:2|0:0,0:0:0:0:
441,83,81173,2,0,P|413:85|390:102,1,56.2500021457673,2|0,0:0|0:0,0:0:0:0:
28,101,81350,102,0,B|13:24|13:24|172:52|157:213,1,337.500012874604,2|0,1:2|0:0,0:0:0:0:
65,230,81703,2,0,L|161:211,1,97.4999955368044,2|0,1:2|0:0,0:0:0:0:
439,166,81879,5,6,1:2:0:0:
320,34,82232,37,2,0:0:0:0:
255,85,82408,1,2,0:0:0:0:
195,30,82585,1,2,0:0:0:0:
193,21,82644,1,2,0:0:0:0:
192,10,82703,1,2,0:0:0:0:
190,0,82761,1,2,0:0:0:0:
205,260,83114,6,0,P|232:267|257:279,1,56.2500021457673,2|0,0:0|0:0,0:0:0:0:
310,260,83291,2,0,P|283:267|258:280,1,56.2500021457673,2|0,0:0|0:0,0:0:0:0:
255,189,83467,101,6,0:0:0:0:
290,24,94761,22,0,L|267:168,1,146.249993305207,6|0,1:2|0:0,0:0:0:0:
272,172,95114,2,0,B|322:181|322:181|369:143,1,97.4999955368044,10|0,0:0|0:0,0:0:0:0:
156,324,95467,2,0,B|119:294|119:294|69:304,1,97.4999955368044,10|0,0:0|0:0,0:0:0:0:
205,238,95820,1,10,0:0:0:0:
220,384,95997,53,2,0:0:0:0:
228,380,96085,1,2,0:0:0:0:
234,374,96173,2,0,P|245:352|249:328,1,48.7499977684022,10|0,0:0|0:0,0:0:0:0:
301,255,96350,2,0,P|313:275|332:290,1,48.7499977684022,2|0,0:0|0:0,0:0:0:0:
371,373,96526,2,0,P|346:373|324:382,1,48.7499977684022,10|0,0:0|0:0,0:0:0:0:
263,178,96703,1,2,0:0:0:0:
266,155,96791,1,2,0:0:0:0:
281,137,96879,2,0,P|359:160|454:174,1,146.249993305207,10|0,0:0|0:0,0:0:0:0:
427,165,97232,54,0,L|409:106,1,48.7499977684022,10|0,0:0|0:0,0:0:0:0:
489,101,97408,2,0,L|507:160,1,48.7499977684022,10|0,0:0|0:0,0:0:0:0:
401,375,97585,54,0,P|365:327|391:231,1,146.249993305207,10|0,0:0|0:0,0:0:0:0:
384,242,97938,2,0,P|445:262|484:246,1,97.4999955368044,10|0,0:0|0:0,0:0:0:0:
505,0,98291,54,0,P|486:15|463:22,1,48.7499977684022,10|0,0:0|0:0,0:0:0:0:
412,118,98467,2,0,P|387:116|366:104,1,48.7499977684022,2|0,0:0|0:0,0:0:0:0:
262,135,98644,2,0,P|246:116|239:93,1,48.7499977684022,10|0,0:0|0:0,0:0:0:0:
72,30,98820,54,0,B|103:24|129:-6|129:-6|97:116,1,194.999991073609,6|0,0:0|0:0,0:0:0:0:
103,123,99261,1,0,0:0:0:0:
107,129,99350,2,0,L|185:104,1,48.7499977684022,10|0,0:0|0:0,0:0:0:0:
288,286,99526,1,2,0:0:0:0:
311,280,99614,1,2,0:0:0:0:
324,259,99703,2,0,B|327:219|293:196|293:196|259:172|262:133,1,146.249993305207,10|0,0:0|0:0,0:0:0:0:
251,136,100056,54,0,L|239:198,1,48.7499977684022,10|0,0:0|0:0,0:0:0:0:
266,53,100232,2,0,L|275:5,1,48.7499977684022,10|0,0:0|0:0,0:0:0:0:
155,204,100408,54,0,L|189:369,1,168.750006437302,6|0,1:2|0:0,0:0:0:0:
286,285,100761,2,0,P|282:313|266:335,1,56.2500021457673,10|0,1:2|0:0,0:0:0:0:
74,199,100938,2,0,P|78:172|95:150,1,56.2500021457673,10|0,0:0|0:0,0:0:0:0:
357,95,101114,54,0,P|322:168|243:184,1,168.750006437302,6|0,1:2|0:0,0:0:0:0:
223,70,101467,2,0,P|240:91|267:96,1,56.2500021457673,10|0,1:2|0:0,0:0:0:0:
420,212,101644,2,0,P|402:233|375:238,1,56.2500021457673,10|0,0:0|0:0,0:0:0:0:
160,372,101820,54,0,L|174:296,1,56.2500021457673,6|0,1:2|0:0,0:0:0:0:
125,115,101997,1,2,0:0:0:0:
110,130,102085,1,2,0:0:0:0:
95,149,102173,2,0,L|106:205,1,56.2500021457673,10|0,1:2|0:0,0:0:0:0:
292,323,102350,2,0,L|281:267,1,56.2500021457673,10|0,0:0|0:0,0:0:0:0:
223,70,102526,2,0,L|190:235,1,168.750006437302,2|0,1:2|0:0,0:0:0:0:
291,179,102879,54,0,L|347:168,1,56.2500021457673,10|0,1:2|0:0,0:0:0:0:
105,204,103056,2,0,L|49:215,1,56.2500021457673,10|0,0:2|0:0,0:0:0:0:
223,70,103232,37,0,1:0:0:0:
215,79,103320,1,0,0:0:0:0:
166,158,103408,21,0,1:0:0:0:
156,149,103497,1,0,0:0:0:0:
78,100,103585,85,0,1:0:0:0:
86,90,103673,1,0,0:0:0:0:
136,13,103761,21,0,1:0:0:0:
145,20,103850,1,0,0:0:0:0:
223,70,103938,86,0,P|251:98|257:132,1,75,2|0,1:2|0:0,0:0:0:0:
171,328,104114,2,0,P|180:293|207:268,1,75,2|0,1:2|0:0,0:0:0:0:
421,245,104291,2,0,P|384:254|349:242,1,75,2|0,1:2|0:0,0:0:0:0:
272,215,104467,21,4,1:2:0:0:
389,55,104820,5,2,0:0:0:0:
313,86,104997,1,2,0:0:0:0:
249,37,105173,1,2,0:0:0:0:
240,37,105232,1,2,0:0:0:0:
229,37,105291,1,2,0:0:0:0:
218,36,105350,1,2,0:0:0:0:
83,224,105526,86,0,P|86:205|82:187,1,37.5,8|0,0:3|0:0,0:0:0:0:
75,230,105614,2,0,P|68:212|56:198,1,37.5,8|0,0:3|0:0,0:0:0:0:
0,255,105703,6,0,B|158:287|158:287|204:296|223:340|223:340|241:381|294:385,1,337.500012874604,8|0,0:1|0:0,0:0:0:0:
421,282,106056,70,0,B|480:232|480:232|297:300,1,269.999991760254,6|0,1:2|0:2,0:2:0:0:
294,384,106408,2,0,P|316:297|298:209,1,179.999994506836,2|0,1:2|0:2,0:2:0:0:
131,0,106761,5,2,1:2:0:0:
391,64,106938,1,2,0:2:0:0:
129,226,107114,1,2,1:2:0:0:
382,204,107291,101,2,0:2:0:0:
392,176,107379,1,2,0:2:0:0:
377,147,107467,2,0,B|299:135|299:208|209:194,1,179.999994506836,2|2,1:2|0:2,0:2:0:0:
157,291,107732,1,2,0:2:0:0:
168,302,107820,2,0,P|162:262|118:221,1,89.9999972534181,2|0,1:2|0:2,0:2:0:0:
271,68,107997,5,2,0:2:0:0:
275,52,108056,101,2,0:2:0:0:
271,35,108114,5,2,0:2:0:0:
260,24,108173,102,0,P|222:104|208:193,1,179.999994506836,2|0,1:2|0:2,0:2:0:0:
93,342,108526,6,0,P|123:373|167:383,1,89.9999972534181,2|0,1:2|0:2,0:2:0:0:
350,193,108703,2,0,P|319:224|275:234,1,89.9999972534181,2|0,0:2|0:2,0:2:0:0:
168,302,108879,102,0,B|238:302|276:235|276:235|296:308|367:332,1,269.999991760254,6|0,1:2|0:2,0:2:0:0:
274,384,109232,2,0,B|239:295|318:299|282:210,1,179.999994506836,2|0,1:2|0:2,0:2:0:0:
436,37,109585,5,2,1:2:0:0:
186,137,109761,1,2,0:2:0:0:
487,257,109938,1,2,1:2:0:0:
236,0,110114,102,0,L|252:88,1,89.9999972534181,2|2,0:2|0:2,0:2:0:0:
244,206,110291,2,0,B|202:181|182:139|182:139|157:174|109:185,1,179.999994506836,2|2,1:2|0:2,0:2:0:0:
12,202,110556,1,2,0:2:0:0:
18,189,110644,2,0,P|46:223|51:267,1,89.9999972534181,2|0,1:2|0:2,0:2:0:0:
243,338,110820,5,2,0:2:0:0:
246,355,110879,101,2,0:2:0:0:
241,371,110938,5,2,0:2:0:0:
229,383,110997,102,0,B|205:319|205:319|243:213,1,179.999994506836,2|0,1:2|0:2,0:2:0:0:
52,273,111350,6,0,P|84:303|127:313,1,89.9999972534181,2|0,1:2|0:2,0:2:0:0:
321,167,111526,2,0,P|288:197|244:207,1,89.9999972534181,2|0,0:2|0:2,0:2:0:0:
49,0,111703,102,0,P|88:121|215:130,1,269.999991760254,6|0,1:2|0:2,0:2:0:0:
230,53,112056,2,0,B|321:41|313:108|400:94,1,179.999994506836,2|0,1:2|0:2,0:2:0:0:
242,213,112408,5,2,1:2:0:0:
498,271,112585,1,2,0:2:0:0:
370,11,112761,1,2,1:2:0:0:
320,208,112938,101,2,0:2:0:0:
323,238,113026,1,2,0:2:0:0:
339,257,113114,2,0,P|384:202|395:54,1,179.999994506836,2|2,1:2|0:2,0:2:0:0:
313,81,113379,1,2,0:2:0:0:
328,91,113467,2,0,P|294:120|250:126,1,89.9999972534181,2|0,1:2|0:2,0:2:0:0:
113,217,113644,5,2,0:2:0:0:
92,214,113703,101,2,0:2:0:0:
76,205,113761,5,2,0:2:0:0:
67,191,113820,102,0,P|157:184|241:212,1,179.999994506836,2|0,1:2|0:2,0:2:0:0:
449,384,114173,6,0,L|360:367,1,89.9999972534181,2|0,1:2|0:2,0:2:0:0:
314,291,114350,2,0,L|330:203,1,89.9999972534181,2|0,0:2|0:2,0:2:0:0:
477,34,114526,102,0,B|422:-23|422:-23|326:59|406:143,1,269.999991760254,6|0,1:2|0:2,0:2:0:0:
497,186,114879,2,0,B|411:162|411:162|333:207,1,179.999994506836,2|0,1:2|0:2,0:2:0:0:
208,76,115232,5,2,1:2:0:0:
433,252,115408,1,2,0:2:0:0:
166,372,115585,1,2,1:2:0:0:
257,152,115761,102,0,L|237:239,1,89.9999972534181,2|2,0:2|0:2,0:2:0:0:
165,380,115938,2,0,B|113:339|113:339|87:228,1,179.999994506836,2|2,1:2|0:2,0:2:0:0:
172,187,116203,1,2,0:2:0:0:
162,198,116291,2,0,P|195:229|238:240,1,89.9999972534181,2|0,1:2|0:2,0:2:0:0:
345,361,116467,5,2,0:2:0:0:
365,361,116526,101,2,0:2:0:0:
377,352,116585,5,2,0:2:0:0:
388,339,116644,102,0,L|415:237,1,89.9999972534181,2|0,1:2|0:2,0:2:0:0:
370,182,116820,2,0,L|310:199,1,56.2500021457673,8|0,0:2|0:2,0:2:0:0:
79,48,116997,5,8,0:2:0:0:
159,27,117085,1,8,0:2:0:0:
216,85,117173,1,8,0:2:0:0:
141,188,117350,38,0,P|135:149|125:111,1,67.4999979400635
132,118,117703,54,0,P|63:213|174:266,1,269.999991760254,6|0,1:2|0:0,0:0:0:0:
178,261,118056,5,2,1:2:0:0:
446,343,118232,1,2,0:2:0:0:
297,93,118408,1,2,1:2:0:0:
275,369,118585,101,2,0:2:0:0:
301,382,118673,1,2,0:2:0:0:
320,363,118761,2,0,B|330:275|259:291|271:197,1,179.999994506836,2|2,1:2|0:2,0:2:0:0:
414,193,119026,1,2,0:2:0:0:
417,181,119114,2,0,P|374:185|355:224,1,89.9999972534181,2|0,1:2|0:2,0:2:0:0:
163,188,119291,5,2,0:2:0:0:
143,186,119350,101,2,0:2:0:0:
127,175,119408,5,2,0:2:0:0:
119,158,119467,102,0,P|202:135|269:196,1,179.999994506836,2|0,1:2|0:2,0:2:0:0:
512,0,119820,6,0,P|468:12|438:50,1,89.9999972534181,2|0,1:2|0:2,0:2:0:0:
292,8,119997,2,0,P|280:51|299:96,1,89.9999972534181,2|0,0:2|0:2,0:2:0:0:
419,304,120173,102,0,B|494:195|366:82|301:200|364:230,1,269.999991760254,6|0,1:2|0:2,0:2:0:0:
512,330,120526,2,0,B|422:306|431:379|339:350,1,179.999994506836,2|0,1:2|0:2,0:2:0:0:
126,242,120879,5,2,1:2:0:0:
381,121,121056,1,2,0:2:0:0:
253,384,121232,1,2,1:2:0:0:
140,157,121408,102,0,L|232:184,1,89.9999972534181,2|2,0:2|0:2,0:2:0:0:
358,227,121585,2,0,B|322:202|322:202|229:222|229:222|208:257,1,179.999994506836,2|2,1:2|0:2,0:2:0:0:
174,339,121850,1,2,0:2:0:0:
157,327,121938,2,0,B|133:301|133:301|125:221,1,89.9999972534181,2|0,1:2|0:2,0:2:0:0:
114,78,122114,5,2,0:2:0:0:
99,63,122173,101,2,0:2:0:0:
82,61,122232,5,2,0:2:0:0:
65,68,122291,102,0,L|22:284,1,179.999994506836,2|0,1:2|0:2,0:2:0:0:
235,376,122644,6,0,P|279:378|315:354,1,89.9999972534181,2|0,1:2|0:2,0:2:0:0:
440,253,122820,2,0,P|395:255|359:231,1,89.9999972534181,2|0,0:2|0:2,0:2:0:0:
229,164,122997,102,0,B|263:160|300:117|300:117|255:312,1,269.999991760254,6|0,1:2|0:2,0:2:0:0:
154,362,123350,2,0,P|172:282|253:296,1,179.999994506836,2|0,1:2|0:2,0:2:0:0:
470,272,123703,5,2,1:2:0:0:
226,159,123879,1,2,0:2:0:0:
396,384,124056,1,2,1:2:0:0:
451,111,124232,101,2,0:2:0:0:
481,112,124320,1,2,0:2:0:0:
503,128,124408,2,0,P|438:188|350:192,1,179.999994506836,2|2,1:2|0:2,0:2:0:0:
312,100,124673,1,2,0:2:0:0:
298,109,124761,2,0,P|319:147|362:155,1,89.9999972534181,2|0,1:2|0:2,0:2:0:0:
282,311,124938,5,2,0:2:0:0:
266,326,124997,101,2,0:2:0:0:
248,332,125056,5,2,0:2:0:0:
227,329,125114,102,0,P|201:243|225:158,1,179.999994506836,2|0,1:2|0:2,0:2:0:0:
422,0,125467,6,0,P|398:37|389:81,1,89.9999972534181,2|0,1:2|0:2,0:2:0:0:
231,157,125644,2,0,P|255:194|264:238,1,89.9999972534181,2|0,0:2|0:2,0:2:0:0:
512,384,125820,101,6,1:2:0:0:
449,376,125908,1,0,3:0:0:0:
405,333,125997,1,0,3:0:0:0:
398,271,126085,1,0,3:0:0:0:
432,220,126173,5,0,1:0:0:0:
385,242,126261,1,0,3:0:0:0:
330,241,126350,1,0,3:0:0:0:
281,223,126438,1,0,3:0:0:0:
249,187,126526,1,0,1:0:0:0:
219,173,126614,1,0,3:0:0:0:
199,173,126703,1,0,3:0:0:0:
185,181,126791,1,0,3:0:0:0:
183,188,126879,2,0,L|197:253,1,56.2500021457673,0|0,1:0|0:0,0:0:0:0:
218,384,127056,101,4,1:3:0:0:
163,85,127408,53,2,0:0:0:0:
98,31,127585,1,2,0:0:0:0:
28,69,127761,1,2,0:0:0:0:
28,69,127850,1,2,0:0:0:0:
28,69,127938,1,2,1:2:0:0:
137,348,128114,85,8,0:1:0:0:
159,269,128203,1,8,0:1:0:0:
181,190,128291,1,8,0:1:0:0:
409,122,128467,6,0,L|368:118,1,28.1250010728836,8|0,0:3|0:0,0:0:0:0:
417,120,128556,2,0,L|451:95,1,28.1250010728836,8|0,0:3|0:0,0:0:0:0:
434,196,128644,101,6,0:0:0:0:
