osu file format v14

[General]
AudioFilename: audio.mp3
AudioLeadIn: 0
PreviewTime: 192172
Countdown: 0
SampleSet: Soft
StackLeniency: 0.7
Mode: 3
LetterboxInBreaks: 0
SpecialStyle: 0
WidescreenStoryboard: 0

[Editor]
Bookmarks: 33087,44058,55029,66001,76972,98915,120858,126344,137315,148287,170229,181201,225087
DistanceSpacing: 1
BeatDivisor: 6
GridSize: 32
TimelineZoom: 1.699999

[Metadata]
Title:Memoirs feat. Aitsuki Nakuru
TitleUnicode:Memoirs feat. 藍月なくる
Artist:tokiwa
ArtistUnicode:常盤
Creator:_Kobii
Version:7K Everlasting Memory
Source:
Tags:FUGENE 03 MRX-037 MEGAREX Faputa Agayers FAMoss
BeatmapID:2043590
BeatmapSetID:976366

[Difficulty]
HPDrainRate:8.2
CircleSize:7
OverallDifficulty:7.6
ApproachRate:5
SliderMultiplier:1.4
SliderTickRate:1

[Events]
//Background and Video events
0,0,"bg2.jpg",0,0
//Break Periods
//Storyboard Layer 0 (Background)
//Storyboard Layer 1 (Fail)
//Storyboard Layer 2 (Pass)
//Storyboard Layer 3 (Foreground)
//Storyboard Layer 4 (Overlay)
//Storyboard Sound Samples

[TimingPoints]
994,357.142857142857,4,2,1,20,1,8
994,-96.1538461538461,4,2,1,20,0,0
2065,357.142857142857,4,2,1,20,1,0
2065,-96.1538461538461,4,2,1,20,0,0
3493,377.358490566038,4,2,1,20,1,0
3493,-90.9090909090909,4,2,1,20,0,0
6134,384.615384615385,4,2,1,20,1,8
6134,-89.2857142857143,4,2,1,20,0,0
6518,384.615384615385,4,2,1,20,1,0
6518,-89.2857142857143,4,2,1,20,0,0
8057,363.636363636364,4,2,1,20,1,0
8057,-94.3396226415094,4,2,1,20,0,0
8420,384.615384615385,4,2,1,20,1,8
8420,-89.2857142857143,4,2,1,20,0,0
9189,405.405405405405,4,2,1,20,1,8
9189,-84.7457627118644,4,2,1,20,0,0
9594,382.165605095541,4,2,1,20,1,0
9594,-90.9090909090909,4,2,1,20,0,0
11122,392.156862745098,4,2,1,20,1,0
11122,-87.719298245614,4,2,1,20,0,0
14063,400,4,2,1,20,1,8
14063,-86.2068965517241,4,2,1,20,0,0
14263,372.670807453416,4,2,1,20,1,0
14263,-92.5925925925926,4,2,1,20,0,0
14635,392.156862745098,4,2,1,20,1,8
14635,-87.719298245614,4,2,1,20,0,0
15027,389.61038961039,4,2,1,20,1,8
15027,-88.4955752212389,4,2,1,20,0,0
15416,397.350993377483,4,2,1,20,1,8
15416,-86.9565217391304,4,2,1,20,0,0
15813,397.350993377483,4,2,1,20,1,0
15813,-86.9565217391304,4,2,1,20,0,0
17402,394.736842105263,4,2,1,20,1,0
17402,-86.9565217391304,4,2,1,20,0,0
21744,422.535211267606,4,2,1,20,1,8
21744,-81.3008130081301,4,2,1,20,0,0
22166,387.096774193548,4,2,1,20,1,0
22166,-89.2857142857143,4,2,1,20,0,0
22940,413.793103448276,4,2,1,20,1,8
22940,-83.3333333333333,4,2,1,20,0,0
23767,379.746835443038,4,2,1,20,1,0
23767,-90.9090909090909,4,2,1,20,0,0
24146,413.793103448276,4,2,1,20,1,8
24146,-83.3333333333333,4,2,1,20,0,0
25387,413.793103448276,4,2,1,20,1,0
25387,-83.3333333333333,4,2,1,20,0,0
25801,447.761194029851,4,2,1,20,1,8
25801,-76.9230769230769,4,2,1,20,0,0
26472,476.190476190476,4,2,1,20,1,8
26472,-71.9424460431655,4,2,1,20,0,0
26948,458.015267175573,4,2,1,20,1,8
26948,-75.187969924812,4,2,1,20,0,0
27177,458.015267175573,4,2,1,20,1,0
27177,-75.187969924812,4,2,1,20,0,0
27406,431.654676258993,4,2,1,20,1,8
27406,-79.3650793650794,4,2,1,20,0,0
27729,568.720379146919,4,2,1,20,1,8
27729,-60.2409638554217,4,2,1,20,0,0
28297,708.666997377932,4,2,1,20,1,8
28297,-48.5436893203883,4,2,1,20,0,0
29928,451.127819548872,4,2,1,20,1,0
29928,-76.3358778625954,4,2,1,20,0,0
33001,342.857142857143,4,2,1,70,1,0
76886,-100,4,2,1,80,0,1
98143,-100,4,2,1,80,0,0
98829,-100,4,2,1,80,0,1
120772,-100,4,2,1,80,0,0
121115,-100,4,2,1,20,0,0
126172,-100,4,2,1,70,0,0
169801,-100,4,2,1,50,0,0
175543,-100,4,2,1,55,0,0
178201,-100,4,2,1,60,0,0
179572,-100,4,2,1,65,0,0
180943,-100,4,2,1,70,0,0
192086,-100,4,2,1,85,0,1
212658,-100,4,2,1,85,0,0
214029,-100,4,2,1,85,0,1
235972,-100,4,2,1,85,0,0
236143,-100,4,2,1,70,0,0
241286,-100,4,2,1,60,0,0
246772,-100,4,2,1,50,0,0
249012,357.142857142857,4,2,1,50,1,8
249012,-96.1538461538461,4,2,1,50,0,0
249726,357.142857142857,4,2,1,50,1,0
249826,-96.1538461538461,4,2,1,50,0,0
251154,363.636363636364,4,2,1,50,1,0
251154,-94.3396226415094,4,2,1,50,0,0
252608,368.098159509202,4,2,1,50,1,0
252608,-93.4579439252336,4,2,1,40,0,0
254632,372.670807453416,5,2,1,40,1,8
254632,-91.743119266055,5,2,1,40,0,0
255004,389.61038961039,4,2,1,40,1,8
255004,-88.4955752212389,4,2,1,40,0,0
255198,410.958904109589,4,2,1,30,1,8
255198,-83.3333333333333,4,2,1,30,0,0
255608,428.571428571429,4,2,1,30,1,0
255608,-80,4,2,1,30,0,0
256465,480,4,2,1,30,1,8
256465,-71.4285714285714,4,2,1,30,0,0
257185,495.867768595041,4,2,1,30,1,8
257185,-69.4444444444444,4,2,1,30,0,0
257432,560.747663551402,4,2,1,30,1,0
257432,-61.3496932515337,4,2,1,30,0,0
257712,571.428571428571,4,2,1,30,1,8
257712,-60.2409638554217,4,2,1,30,0,0
258283,612.244897959184,4,2,1,30,1,8
258283,-56.1797752808989,4,2,1,30,0,0
258589,759.493670886076,4,2,1,30,1,8
258589,-45.2488687782805,4,2,1,30,0,0
258968,952.380952380952,4,2,1,10,1,8
258968,-36.101083032491,4,2,1,10,0,0
259920,1016.94915254237,4,2,1,10,1,8
259920,-33.7837837837838,4,2,1,10,0,0
260428,909.090909090909,4,2,1,10,1,0
260428,-37.7358490566038,4,2,1,10,0,0

[HitObjects]
182,192,3136,128,0,3225:0:0:0:0:
256,192,3314,128,0,3404:0:0:0:0:
36,192,3493,1,0,0:0:0:0:
109,192,3493,1,0,0:0:0:0:
329,192,3493,128,0,3587:0:0:0:0:
109,192,3870,1,0,0:0:0:0:
329,192,3870,128,0,3964:0:0:0:0:
256,192,4247,1,0,0:0:0:0:
329,192,4247,128,0,4342:0:0:0:0:
402,192,4436,128,0,4530:0:0:0:0:
182,192,4625,1,0,0:0:0:0:
329,192,4813,128,0,4908:0:0:0:0:
36,192,5002,1,0,0:0:0:0:
256,192,5002,1,0,0:0:0:0:
109,192,5379,1,0,0:0:0:0:
475,192,5379,128,0,5474:0:0:0:0:
329,192,5757,1,0,0:0:0:0:
402,192,5757,128,0,5851:0:0:0:0:
256,192,6134,1,0,0:0:0:0:
329,192,6134,128,0,6230:0:0:0:0:
36,192,6518,1,0,0:0:0:0:
182,192,6518,128,0,6614:0:0:0:0:
256,192,6518,1,0,0:0:0:0:
109,192,6902,128,0,6998:0:0:0:0:
329,192,6902,1,0,0:0:0:0:
109,192,7287,128,0,7383:0:0:0:0:
475,192,7287,1,0,0:0:0:0:
182,192,7479,128,0,7575:0:0:0:0:
402,192,7671,1,0,0:0:0:0:
109,192,7864,128,0,7960:0:0:0:0:
256,192,8057,1,0,0:0:0:0:
475,192,8057,1,0,0:0:0:0:
329,192,8420,1,0,0:0:0:0:
109,192,8804,128,0,8900:0:0:0:0:
402,192,8804,1,0,0:0:0:0:
256,192,9189,128,0,9290:0:0:0:0:
475,192,9189,1,0,0:0:0:0:
36,192,9594,1,0,0:0:0:0:
256,192,9594,1,0,0:0:0:0:
402,192,9594,128,0,9689:0:0:0:0:
109,192,9976,1,0,0:0:0:0:
402,192,9976,128,0,10071:0:0:0:0:
256,192,10358,1,0,0:0:0:0:
329,192,10358,128,0,10453:0:0:0:0:
402,192,10549,128,0,10644:0:0:0:0:
182,192,10740,1,0,0:0:0:0:
475,192,10931,128,0,11027:0:0:0:0:
109,192,11122,1,0,0:0:0:0:
256,192,11122,1,0,0:0:0:0:
182,192,11514,1,0,0:0:0:0:
402,192,11514,128,0,11612:0:0:0:0:
109,192,11906,1,0,0:0:0:0:
329,192,11906,128,0,12004:0:0:0:0:
475,192,11906,1,0,0:0:0:0:
402,192,12102,128,0,12200:0:0:0:0:
36,192,12298,1,0,0:0:0:0:
329,192,12494,128,0,12592:0:0:0:0:
182,192,12690,1,0,0:0:0:0:
475,192,12690,1,0,0:0:0:0:
36,192,13082,128,0,13180:0:0:0:0:
256,192,13082,1,0,0:0:0:0:
36,192,13474,128,0,13572:0:0:0:0:
329,192,13474,1,0,0:0:0:0:
109,192,13671,128,0,13769:0:0:0:0:
475,192,13867,1,0,0:0:0:0:
182,192,14063,128,0,14163:0:0:0:0:
329,192,14263,1,0,0:0:0:0:
402,192,14263,1,0,0:0:0:0:
475,192,14635,1,0,0:0:0:0:
36,192,15027,1,0,0:0:0:0:
182,192,15027,1,0,0:0:0:0:
182,192,15416,128,0,15515:0:0:0:0:
329,192,15416,1,0,0:0:0:0:
256,192,15614,128,0,15714:0:0:0:0:
36,192,15813,1,0,0:0:0:0:
109,192,15813,1,0,0:0:0:0:
329,192,15813,128,0,15912:0:0:0:0:
109,192,16210,1,0,0:0:0:0:
329,192,16210,128,0,16309:0:0:0:0:
256,192,16607,1,0,0:0:0:0:
329,192,16607,128,0,16707:0:0:0:0:
402,192,16806,128,0,16905:0:0:0:0:
182,192,17005,1,0,0:0:0:0:
329,192,17203,128,0,17303:0:0:0:0:
109,192,17402,1,0,0:0:0:0:
256,192,17402,1,0,0:0:0:0:
182,192,17796,1,0,0:0:0:0:
475,192,17796,128,0,17895:0:0:0:0:
256,192,18191,1,0,0:0:0:0:
402,192,18191,128,0,18290:0:0:0:0:
109,192,18586,1,0,0:0:0:0:
329,192,18586,128,0,18684:0:0:0:0:
36,192,18980,128,0,19079:0:0:0:0:
182,192,18980,1,0,0:0:0:0:
329,192,18980,1,0,0:0:0:0:
36,192,19375,128,0,19474:0:0:0:0:
256,192,19375,1,0,0:0:0:0:
109,192,19573,128,0,19671:0:0:0:0:
329,192,19770,1,0,0:0:0:0:
109,192,19967,128,0,20066:0:0:0:0:
402,192,20165,1,0,0:0:0:0:
182,192,20362,128,0,20461:0:0:0:0:
329,192,20559,1,0,0:0:0:0:
475,192,20592,1,0,0:0:0:0:
402,192,20954,1,0,0:0:0:0:
329,192,21349,128,0,21448:0:0:0:0:
475,192,21349,1,0,0:0:0:0:
109,192,21744,1,0,0:0:0:0:
475,192,21744,128,0,21849:0:0:0:0:
256,192,21955,128,0,22060:0:0:0:0:
36,192,22166,1,0,0:0:0:0:
109,192,22166,1,0,0:0:0:0:
256,192,22553,1,0,0:0:0:0:
402,192,22940,1,0,0:0:0:0:
329,192,23353,1,0,0:0:0:0:
36,192,23767,1,0,0:0:0:0:
182,192,23798,1,0,0:0:0:0:
109,192,24146,1,0,0:0:0:0:
475,192,24146,128,0,24249:0:0:0:0:
256,192,24559,1,0,0:0:0:0:
402,192,24559,128,0,24663:0:0:0:0:
182,192,24973,1,0,0:0:0:0:
329,192,24973,128,0,25077:0:0:0:0:
109,192,25387,1,0,0:0:0:0:
256,192,25387,128,0,25490:0:0:0:0:
475,192,25387,1,0,0:0:0:0:
109,192,25801,128,0,25912:0:0:0:0:
329,192,25801,1,0,0:0:0:0:
402,192,26248,1,0,0:0:0:0:
109,192,26472,128,0,26591:0:0:0:0:
475,192,26710,1,0,0:0:0:0:
182,192,26948,128,0,27062:0:0:0:0:
256,192,27177,1,0,0:0:0:0:
329,192,27262,1,0,0:0:0:0:
402,192,27348,1,0,0:0:0:0:
475,192,27406,1,0,0:0:0:0:
256,192,27729,128,0,27871:0:0:0:0:
182,192,28297,128,0,28474:0:0:0:0:
109,192,29005,128,0,29182:0:0:0:0:
109,192,29928,128,0,30040:0:0:0:0:
256,192,29928,128,0,33001:0:0:0:0:
36,192,33001,1,4,0:0:0:0:
182,192,33001,1,0,0:0:0:0:
329,192,33001,128,0,33686:0:0:0:0:
475,192,33001,128,0,33686:0:0:0:0:
109,192,33343,1,0,0:0:0:0:
36,192,33686,1,0,0:0:0:50:LR_Clap hollow echo.wav
182,192,33686,128,0,34029:0:0:0:0:
402,192,33686,1,0,0:0:0:0:
36,192,34029,128,0,34372:0:0:0:0:
256,192,34029,1,0,0:0:0:0:
109,192,34372,128,0,34715:0:0:0:0:
329,192,34372,128,0,35058:0:0:0:0:
475,192,34372,128,0,35058:0:0:0:0:
182,192,34715,128,0,35058:0:0:0:0:
36,192,35058,1,0,0:0:0:50:LR_Clap hollow echo.wav
109,192,35058,1,0,0:0:0:0:
402,192,35058,1,0,0:0:0:0:
182,192,35401,1,0,0:0:0:0:
256,192,35572,128,0,35658:0:0:0:0:
36,192,35743,128,0,36429:0:0:0:0:
109,192,35743,128,0,36429:0:0:0:0:
329,192,35743,128,0,35829:0:0:0:0:
329,192,35915,128,0,36086:0:0:0:0:
402,192,36086,1,0,0:0:0:0:
256,192,36258,128,0,36343:0:0:0:0:
182,192,36429,1,0,0:0:0:50:LR_Clap hollow echo.wav
329,192,36429,128,0,36515:0:0:0:0:
475,192,36429,1,0,0:0:0:0:
329,192,36601,128,0,36772:0:0:0:0:
109,192,36772,1,0,0:0:0:0:
329,192,36943,128,0,37029:0:0:0:0:
36,192,37115,128,0,37801:0:0:0:0:
182,192,37115,128,0,37801:0:0:0:0:
402,192,37115,128,0,37201:0:0:0:0:
475,192,37286,128,0,37372:0:0:0:0:
329,192,37458,1,0,0:0:0:0:
475,192,37458,128,0,37715:0:0:0:0:
109,192,37801,1,0,0:0:0:50:LR_Clap hollow echo.wav
329,192,37801,1,0,0:0:0:0:
475,192,37801,128,0,38143:0:0:0:0:
182,192,38143,128,0,38229:0:0:0:0:
36,192,38143,1,0,0:0:0:0:
109,192,38315,128,0,38486:0:0:0:0:
256,192,38486,1,0,0:0:0:0:
329,192,38486,128,0,39172:0:0:0:0:
475,192,38486,128,0,39172:0:0:0:0:
36,192,38829,1,0,0:0:0:0:
182,192,39172,1,0,0:0:0:50:LR_Clap hollow echo.wav
256,192,39172,128,0,39515:0:0:0:0:
402,192,39172,1,0,0:0:0:0:
36,192,39515,128,0,39858:0:0:0:0:
109,192,39515,1,0,0:0:0:0:
182,192,39858,128,0,40201:0:0:0:0:
402,192,39858,128,0,40543:0:0:0:0:
475,192,39858,128,0,40543:0:0:0:0:
109,192,40201,1,0,0:0:0:0:
329,192,40201,128,0,40543:0:0:0:0:
36,192,40543,1,0,0:0:0:50:LR_Clap hollow echo.wav
182,192,40543,1,0,0:0:0:0:
256,192,40543,1,0,0:0:0:0:
109,192,40886,1,0,0:0:0:0:
256,192,41058,128,0,41143:0:0:0:0:
36,192,41229,128,0,41915:0:0:0:0:
182,192,41229,128,0,41915:0:0:0:0:
329,192,41229,128,0,41315:0:0:0:0:
329,192,41401,128,0,41572:0:0:0:0:
402,192,41572,1,0,0:0:0:0:
256,192,41743,128,0,41829:0:0:0:0:
109,192,41915,1,0,0:0:0:50:LR_Clap hollow echo.wav
329,192,41915,128,0,42001:0:0:0:0:
475,192,41915,1,0,0:0:0:0:
402,192,42086,128,0,42258:0:0:0:0:
182,192,42258,1,0,0:0:0:0:
402,192,42429,128,0,42515:0:0:0:0:
36,192,42601,1,4,0:0:0:0:
182,192,42601,128,0,43286:0:0:0:0:
256,192,42601,128,0,42943:0:0:0:0:
475,192,42601,128,0,42943:0:0:0:0:
109,192,42943,1,0,0:0:0:0:
402,192,42943,128,0,43286:0:0:0:0:
36,192,43286,128,4,43972:0:0:0:0:
109,192,43286,128,0,43629:0:0:0:0:
329,192,43286,128,0,43629:0:0:0:0:
475,192,43286,1,0,0:0:0:0:
475,192,43458,1,0,0:0:0:0:
182,192,43629,1,0,0:0:0:50:LR_Clap hollow echo.wav
256,192,43629,128,0,43972:0:0:0:0:
402,192,43801,1,0,0:0:0:50:soft-hitclap.wav
475,192,43801,1,0,0:0:0:0:
109,192,43972,1,4,0:0:0:0:
329,192,43972,1,2,0:0:0:0:
402,192,43972,128,0,44058:0:0:0:0:
475,192,43972,128,0,44058:0:0:0:0:
36,192,44143,1,0,0:0:0:0:
256,192,44143,1,0,0:0:0:0:
182,192,44315,1,0,0:0:0:0:
475,192,44315,1,0,0:0:0:0:
109,192,44486,1,0,0:0:0:0:
329,192,44486,1,0,0:0:0:0:
256,192,44658,1,0,0:0:0:50:LR_Clap hollow echo.wav
402,192,44658,1,0,0:0:0:0:
475,192,44658,1,0,0:0:0:0:
109,192,44829,1,0,0:0:0:0:
475,192,44829,1,0,0:0:0:0:
182,192,45001,1,0,0:0:0:0:
329,192,45001,1,0,0:0:0:0:
402,192,45001,1,0,0:0:0:0:
36,192,45172,1,0,0:0:0:0:
402,192,45172,1,0,0:0:0:0:
109,192,45343,128,0,45429:0:0:0:0:
182,192,45343,128,0,45429:0:0:0:0:
402,192,45515,1,0,0:0:0:0:
475,192,45515,1,0,0:0:0:0:
36,192,45686,1,2,0:0:0:0:
109,192,45686,1,0,0:0:0:0:
329,192,45686,1,0,0:0:0:0:
329,192,45858,1,0,0:0:0:0:
402,192,45858,1,0,0:0:0:0:
109,192,46029,1,0,0:0:0:50:LR_Clap hollow echo.wav
256,192,46029,1,0,0:0:0:0:
475,192,46029,1,0,0:0:0:0:
256,192,46201,1,0,0:0:0:0:
329,192,46201,1,0,0:0:0:0:
36,192,46372,1,0,0:0:0:0:
182,192,46372,1,0,0:0:0:0:
402,192,46372,1,0,0:0:0:0:
182,192,46543,1,0,0:0:0:0:
256,192,46543,1,0,0:0:0:0:
36,192,46715,128,2,46801:0:0:0:0:
109,192,46715,128,0,46801:0:0:0:0:
329,192,46715,1,0,0:0:0:0:
329,192,46886,1,0,0:0:0:0:
475,192,46886,1,0,0:0:0:0:
109,192,47058,1,0,0:0:0:0:
256,192,47058,1,0,0:0:0:0:
402,192,47058,1,0,0:0:0:0:
36,192,47229,1,2,0:0:0:0:
109,192,47229,1,0,0:0:0:0:
182,192,47229,1,0,0:0:0:0:
256,192,47401,1,0,0:0:0:50:LR_Clap hollow echo.wav
402,192,47401,1,0,0:0:0:0:
475,192,47401,1,0,0:0:0:0:
256,192,47572,1,0,0:0:0:0:
329,192,47572,1,0,0:0:0:0:
36,192,47743,1,2,0:0:0:0:
109,192,47743,1,0,0:0:0:0:
475,192,47743,1,0,0:0:0:0:
182,192,47915,1,0,0:0:0:0:
475,192,47915,1,0,0:0:0:0:
256,192,48086,128,0,48172:0:0:0:0:
402,192,48086,128,0,48172:0:0:0:0:
182,192,48258,1,0,0:0:0:0:
475,192,48258,1,0,0:0:0:0:
36,192,48429,1,2,0:0:0:0:
109,192,48429,1,0,0:0:0:0:
329,192,48429,1,0,0:0:0:0:
182,192,48601,1,0,0:0:0:0:
329,192,48601,1,0,0:0:0:0:
109,192,48772,1,0,0:0:0:50:LR_Clap hollow echo.wav
256,192,48772,1,0,0:0:0:0:
475,192,48772,1,0,0:0:0:0:
256,192,48943,1,0,0:0:0:0:
329,192,48943,1,0,0:0:0:0:
36,192,49115,1,0,0:0:0:0:
182,192,49115,1,0,0:0:0:0:
402,192,49115,1,0,0:0:0:0:
182,192,49286,1,0,0:0:0:0:
256,192,49286,1,0,0:0:0:0:
36,192,49458,128,2,49543:0:0:0:0:
109,192,49458,128,0,49543:0:0:0:0:
329,192,49458,1,0,0:0:0:0:
329,192,49629,1,0,0:0:0:0:
475,192,49629,1,0,0:0:0:0:
256,192,49801,1,0,0:0:0:0:
109,192,49801,1,0,0:0:0:0:
36,192,49972,1,0,0:0:0:0:
182,192,49972,1,0,0:0:0:0:
402,192,49972,1,0,0:0:0:0:
36,192,50143,1,0,0:0:0:50:LR_Clap hollow echo.wav
256,192,50143,1,0,0:0:0:0:
475,192,50143,1,0,0:0:0:0:
109,192,50315,1,0,0:0:0:0:
329,192,50315,1,0,0:0:0:0:
182,192,50486,1,0,0:0:0:0:
402,192,50486,1,0,0:0:0:0:
36,192,50658,1,0,0:0:0:0:
256,192,50658,1,0,0:0:0:0:
402,192,50829,128,0,50915:0:0:0:0:
475,192,50829,128,0,50915:0:0:0:0:
256,192,51001,1,0,0:0:0:0:
329,192,51001,1,0,0:0:0:0:
36,192,51172,1,2,0:0:0:0:
109,192,51172,1,0,0:0:0:0:
402,192,51172,1,0,0:0:0:0:
182,192,51343,1,0,0:0:0:0:
329,192,51343,1,0,0:0:0:0:
256,192,51515,1,0,0:0:0:50:LR_Clap hollow echo.wav
402,192,51515,1,0,0:0:0:0:
475,192,51515,1,0,0:0:0:0:
109,192,51686,1,0,0:0:0:0:
182,192,51686,1,0,0:0:0:0:
36,192,51858,1,0,0:0:0:0:
256,192,51858,1,0,0:0:0:0:
182,192,52029,1,0,0:0:0:0:
329,192,52029,1,0,0:0:0:0:
36,192,52201,128,2,52286:0:0:0:0:
109,192,52201,128,0,52286:0:0:0:0:
475,192,52201,1,0,0:0:0:0:
256,192,52372,1,0,0:0:0:0:
329,192,52372,1,0,0:0:0:0:
182,192,52543,1,0,0:0:0:0:
329,192,52543,1,0,0:0:0:0:
402,192,52543,1,0,0:0:0:0:
36,192,52715,1,2,0:0:0:0:
109,192,52715,1,0,0:0:0:0:
256,192,52715,1,0,0:0:0:0:
109,192,52886,1,0,0:0:0:50:LR_Clap hollow echo.wav
329,192,52886,1,0,0:0:0:0:
475,192,52886,1,0,0:0:0:0:
182,192,53058,1,0,0:0:0:0:
329,192,53058,1,0,0:0:0:0:
36,192,53229,1,2,0:0:0:0:
109,192,53229,1,0,0:0:0:0:
402,192,53229,1,0,0:0:0:0:
182,192,53401,1,0,0:0:0:0:
402,192,53401,1,0,0:0:0:0:
36,192,53572,1,2,0:0:0:0:
109,192,53572,1,4,0:0:0:0:
256,192,53572,1,0,0:0:0:0:
329,192,53572,1,0,0:0:0:0:
475,192,53572,1,0,0:0:0:0:
182,192,53743,1,0,0:0:0:0:
475,192,53743,1,0,0:0:0:0:
109,192,53915,1,0,0:0:0:0:
256,192,53915,1,0,0:0:0:0:
329,192,54086,1,0,0:0:0:0:
475,192,54086,1,0,0:0:0:0:
36,192,54258,1,0,0:0:0:50:LR_Clap hollow echo.wav
182,192,54258,1,0,0:0:0:0:
329,192,54258,1,0,0:0:0:0:
402,192,54429,1,0,0:0:0:50:LR_Clap hollow echo.wav
475,192,54429,1,0,0:0:0:0:
36,192,54515,1,0,0:0:0:0:
109,192,54515,1,0,0:0:0:0:
182,192,54601,1,0,0:0:0:50:soft-hitclap.wav
329,192,54601,1,0,0:0:0:0:
475,192,54601,1,0,0:0:0:0:
109,192,54772,1,0,0:0:0:50:soft-hitclap.wav
256,192,54772,1,0,0:0:0:0:
402,192,54772,1,0,0:0:0:0:
36,192,54943,1,2,0:0:0:0:
182,192,54943,1,4,0:0:0:0:
256,192,54943,1,0,0:0:0:0:
329,192,54943,1,0,0:0:0:0:
475,192,54943,1,0,0:0:0:0:
182,192,55115,1,0,0:0:0:0:
329,192,55286,1,0,0:0:0:50:LR_Clap hollow echo.wav
475,192,55286,1,0,0:0:0:0:
109,192,55458,1,0,0:0:0:0:
329,192,55629,1,0,0:0:0:50:LR_Clap hollow echo.wav
475,192,55629,1,0,0:0:0:0:
182,192,55801,1,0,0:0:0:0:
329,192,55972,1,0,0:0:0:50:LR_Clap hollow echo.wav
475,192,55972,1,0,0:0:0:0:
109,192,56143,1,0,0:0:0:0:
36,192,56315,1,0,0:0:0:50:LR_Clap hollow echo.wav
329,192,56315,1,0,0:0:0:0:
256,192,56486,1,0,0:0:0:0:
36,192,56658,1,0,0:0:0:50:LR_Clap hollow echo.wav
182,192,56658,1,0,0:0:0:0:
329,192,56658,1,0,0:0:0:0:
182,192,56829,1,0,0:0:0:0:
109,192,57001,1,0,0:0:0:50:LR_Clap hollow echo.wav
256,192,57001,1,0,0:0:0:0:
402,192,57001,1,0,0:0:0:0:
256,192,57172,1,0,0:0:0:0:
36,192,57343,1,0,0:0:0:50:LR_Clap hollow echo.wav
329,192,57343,1,0,0:0:0:0:
475,192,57343,1,0,0:0:0:0:
329,192,57515,1,0,0:0:0:0:
182,192,57686,1,0,0:0:0:50:LR_Clap hollow echo.wav
402,192,57686,1,0,0:0:0:0:
475,192,57686,1,0,0:0:0:0:
402,192,57858,1,0,0:0:0:0:
182,192,58029,1,0,0:0:0:50:LR_Clap hollow echo.wav
475,192,58029,1,0,0:0:0:0:
256,192,58201,1,0,0:0:0:0:
36,192,58372,1,0,0:0:0:50:LR_Clap hollow echo.wav
329,192,58372,1,0,0:0:0:0:
475,192,58372,1,0,0:0:0:0:
329,192,58543,1,0,0:0:0:0:
36,192,58715,1,0,0:0:0:50:LR_Clap hollow echo.wav
256,192,58715,1,0,0:0:0:0:
402,192,58715,1,0,0:0:0:0:
256,192,58886,1,0,0:0:0:0:
36,192,59058,1,0,0:0:0:50:LR_Clap hollow echo.wav
182,192,59058,1,0,0:0:0:0:
329,192,59058,1,0,0:0:0:0:
182,192,59229,1,0,0:0:0:0:
36,192,59401,1,0,0:0:0:50:LR_Clap hollow echo.wav
329,192,59401,1,0,0:0:0:0:
256,192,59572,1,0,0:0:0:0:
36,192,59743,1,0,0:0:0:50:LR_Clap hollow echo.wav
109,192,59743,1,0,0:0:0:0:
475,192,59743,1,0,0:0:0:0:
402,192,59772,1,0,0:0:0:0:
329,192,59801,1,0,0:0:0:0:
109,192,59915,1,0,0:0:0:0:
36,192,60086,1,0,0:0:0:50:LR_Clap hollow echo.wav
182,192,60086,1,0,0:0:0:0:
475,192,60086,1,0,0:0:0:0:
402,192,60115,1,0,0:0:0:0:
329,192,60143,1,0,0:0:0:0:
256,192,60258,1,0,0:0:0:0:
36,192,60429,1,0,0:0:0:50:LR_Clap hollow echo.wav
402,192,60429,1,0,0:0:0:0:
475,192,60429,1,0,0:0:0:0:
402,192,60601,1,0,0:0:0:0:
329,192,60772,1,0,0:0:0:50:LR_Clap hollow echo.wav
475,192,60772,1,0,0:0:0:0:
109,192,60943,1,0,0:0:0:0:
329,192,61115,1,0,0:0:0:50:LR_Clap hollow echo.wav
475,192,61115,1,0,0:0:0:0:
36,192,61286,1,0,0:0:0:0:
329,192,61458,1,0,0:0:0:50:LR_Clap hollow echo.wav
475,192,61458,1,0,0:0:0:0:
109,192,61629,1,0,0:0:0:0:
36,192,61801,1,0,0:0:0:50:LR_Clap hollow echo.wav
256,192,61801,1,0,0:0:0:0:
475,192,61972,1,0,0:0:0:0:
36,192,62143,1,0,0:0:0:50:LR_Clap hollow echo.wav
256,192,62143,1,0,0:0:0:0:
402,192,62143,1,0,0:0:0:0:
402,192,62315,1,0,0:0:0:0:
36,192,62486,1,0,0:0:0:50:LR_Clap hollow echo.wav
182,192,62486,1,0,0:0:0:0:
329,192,62486,1,0,0:0:0:0:
329,192,62658,1,0,0:0:0:0:
36,192,62829,1,0,0:0:0:50:LR_Clap hollow echo.wav
109,192,62829,1,0,0:0:0:0:
256,192,62829,1,0,0:0:0:0:
256,192,63001,1,0,0:0:0:0:
109,192,63172,1,0,0:0:0:50:LR_Clap hollow echo.wav
329,192,63172,1,0,0:0:0:0:
475,192,63172,1,0,0:0:0:0:
475,192,63343,1,0,0:0:0:0:
36,192,63515,1,0,0:0:0:50:LR_Clap hollow echo.wav
256,192,63515,1,0,0:0:0:0:
402,192,63515,1,0,0:0:0:0:
402,192,63686,1,0,0:0:0:0:
109,192,63858,1,0,0:0:0:50:LR_Clap hollow echo.wav
329,192,63858,1,0,0:0:0:0:
475,192,63858,1,0,0:0:0:0:
329,192,64029,1,0,0:0:0:0:
36,192,64201,1,0,0:0:0:50:LR_Clap hollow echo.wav
256,192,64201,1,0,0:0:0:0:
475,192,64201,1,0,0:0:0:0:
256,192,64372,1,0,0:0:0:0:
36,192,64543,1,0,0:0:0:50:LR_Clap hollow echo.wav
182,192,64543,1,0,0:0:0:0:
402,192,64543,1,0,0:0:0:0:
109,192,64715,1,0,0:0:0:0:
182,192,64715,1,0,0:0:0:0:
36,192,64886,1,0,0:0:0:50:LR_Clap hollow echo.wav
329,192,64886,1,0,0:0:0:0:
475,192,64886,1,0,0:0:0:0:
182,192,65058,1,0,0:0:0:0:
329,192,65058,1,0,0:0:0:0:
36,192,65229,1,0,0:0:0:50:LR_Clap hollow echo.wav
256,192,65229,1,0,0:0:0:0:
402,192,65229,1,0,0:0:0:0:
256,192,65401,1,0,0:0:0:0:
475,192,65401,1,0,0:0:0:0:
36,192,65572,1,0,0:0:0:50:LR_Clap hollow echo.wav
182,192,65572,1,0,0:0:0:0:
329,192,65572,1,0,0:0:0:0:
109,192,65743,1,0,0:0:0:0:
182,192,65743,1,0,0:0:0:0:
329,192,65829,1,0,0:0:0:0:
402,192,65829,1,0,0:0:0:0:
36,192,65915,1,2,0:0:0:0:
182,192,65915,1,4,0:0:0:0:
256,192,65915,1,0,0:0:0:0:
475,192,65915,1,0,0:0:0:0:
329,192,66001,1,0,0:0:0:0:
109,192,66086,1,0,0:0:0:0:
256,192,66172,1,0,0:0:0:0:
182,192,66258,1,2,0:0:0:0:
329,192,66258,128,0,66429:0:0:0:0:
402,192,66258,1,0,0:0:0:0:
109,192,66343,1,0,0:0:0:0:
36,192,66429,1,0,0:0:0:0:
256,192,66515,1,0,0:0:0:0:
182,192,66601,1,2,0:0:0:0:
402,192,66601,128,0,66772:0:0:0:0:
475,192,66601,1,0,0:0:0:0:
109,192,66686,1,0,0:0:0:0:
329,192,66772,1,0,0:0:0:0:
256,192,66858,1,0,0:0:0:0:
182,192,66943,1,2,0:0:0:0:
475,192,66943,128,0,67115:0:0:0:0:
36,192,66943,1,0,0:0:0:0:
329,192,67029,1,0,0:0:0:0:
182,192,67115,1,0,0:0:0:0:
329,192,67201,1,0,0:0:0:0:
36,192,67286,1,2,0:0:0:0:
256,192,67286,1,0,0:0:0:0:
475,192,67286,1,0,0:0:0:0:
182,192,67458,1,0,0:0:0:0:
109,192,67543,1,0,0:0:0:0:
36,192,67629,1,2,0:0:0:0:
329,192,67629,128,0,67801:0:0:0:0:
402,192,67629,1,0,0:0:0:0:
256,192,67801,1,0,0:0:0:0:
182,192,67886,1,0,0:0:0:0:
109,192,67972,1,2,0:0:0:0:
402,192,67972,128,0,68143:0:0:0:0:
475,192,67972,1,0,0:0:0:0:
329,192,68143,1,0,0:0:0:0:
256,192,68229,1,0,0:0:0:0:
182,192,68315,1,2,0:0:0:0:
475,192,68315,128,0,68486:0:0:0:0:
36,192,68315,1,0,0:0:0:0:
329,192,68401,1,0,0:0:0:0:
182,192,68486,1,0,0:0:0:0:
329,192,68572,1,0,0:0:0:0:
36,192,68658,1,2,0:0:0:0:
256,192,68658,1,0,0:0:0:0:
475,192,68658,1,0,0:0:0:0:
182,192,68829,1,0,0:0:0:0:
109,192,68915,1,0,0:0:0:0:
36,192,69001,1,2,0:0:0:0:
329,192,69001,128,0,69172:0:0:0:0:
402,192,69001,1,0,0:0:0:0:
256,192,69172,1,0,0:0:0:0:
182,192,69258,1,0,0:0:0:0:
36,192,69343,1,2,0:0:0:0:
402,192,69343,128,0,69515:0:0:0:0:
475,192,69343,1,0,0:0:0:0:
109,192,69429,1,0,0:0:0:0:
182,192,69515,1,0,0:0:0:0:
329,192,69686,1,2,0:0:0:0:
475,192,69686,128,0,69858:0:0:0:0:
36,192,69686,1,0,0:0:0:0:
182,192,69772,1,0,0:0:0:0:
329,192,69858,1,0,0:0:0:0:
182,192,69943,1,0,0:0:0:0:
36,192,70029,1,2,0:0:0:0:
109,192,70029,128,0,70201:0:0:0:0:
256,192,70029,1,0,0:0:0:0:
329,192,70201,1,0,0:0:0:0:
402,192,70286,1,0,0:0:0:0:
36,192,70372,128,2,70543:0:0:0:0:
182,192,70372,1,0,0:0:0:0:
475,192,70372,1,0,0:0:0:0:
256,192,70543,1,0,0:0:0:0:
329,192,70629,1,0,0:0:0:0:
109,192,70715,1,2,0:0:0:0:
402,192,70715,1,0,0:0:0:0:
475,192,70715,128,0,70886:0:0:0:0:
182,192,70886,1,0,0:0:0:0:
36,192,71058,1,2,0:0:0:0:
329,192,71058,1,0,0:0:0:0:
402,192,71058,128,0,71229:0:0:0:0:
182,192,71143,1,0,0:0:0:0:
36,192,71229,1,0,0:0:0:0:
182,192,71315,1,0,0:0:0:0:
36,192,71401,1,2,0:0:0:0:
256,192,71401,1,0,0:0:0:0:
475,192,71401,1,0,0:0:0:0:
329,192,71486,1,0,0:0:0:0:
109,192,71572,1,0,0:0:0:0:
182,192,71572,1,0,0:0:0:0:
402,192,71658,1,0,0:0:0:0:
36,192,71743,1,2,0:0:0:0:
256,192,71743,1,0,0:0:0:0:
475,192,71743,1,0,0:0:0:0:
182,192,71829,1,0,0:0:0:0:
329,192,71915,1,0,0:0:0:0:
402,192,71915,1,0,0:0:0:0:
109,192,72001,1,0,0:0:0:0:
36,192,72086,1,2,0:0:0:0:
256,192,72086,1,0,0:0:0:0:
475,192,72086,1,0,0:0:0:0:
329,192,72172,1,0,0:0:0:0:
109,192,72258,1,0,0:0:0:0:
182,192,72258,1,0,0:0:0:0:
402,192,72343,1,0,0:0:0:0:
36,192,72429,1,2,0:0:0:0:
256,192,72429,1,0,0:0:0:0:
475,192,72429,1,0,0:0:0:0:
182,192,72515,1,0,0:0:0:0:
329,192,72601,1,0,0:0:0:0:
402,192,72601,1,0,0:0:0:0:
109,192,72686,1,0,0:0:0:0:
36,192,72772,1,2,0:0:0:0:
256,192,72772,1,0,0:0:0:0:
475,192,72772,1,0,0:0:0:0:
402,192,72858,1,0,0:0:0:0:
109,192,72943,1,0,0:0:0:0:
182,192,72943,1,0,0:0:0:0:
329,192,73029,1,0,0:0:0:0:
36,192,73115,1,2,0:0:0:0:
256,192,73115,1,0,0:0:0:0:
475,192,73115,1,0,0:0:0:0:
109,192,73201,1,0,0:0:0:0:
329,192,73286,1,0,0:0:0:0:
402,192,73286,1,0,0:0:0:0:
182,192,73372,1,0,0:0:0:0:
36,192,73458,1,2,0:0:0:0:
256,192,73458,1,0,0:0:0:0:
475,192,73458,1,0,0:0:0:0:
402,192,73543,1,0,0:0:0:0:
109,192,73629,1,0,0:0:0:0:
182,192,73629,1,0,0:0:0:0:
329,192,73715,1,0,0:0:0:0:
36,192,73801,1,2,0:0:0:0:
256,192,73801,1,0,0:0:0:0:
475,192,73801,1,0,0:0:0:0:
109,192,73886,1,0,0:0:0:0:
329,192,73972,1,0,0:0:0:0:
402,192,73972,1,0,0:0:0:0:
182,192,74058,1,0,0:0:0:0:
475,192,74143,1,2,0:0:0:0:
402,192,74143,1,4,0:0:0:0:
329,192,74143,1,0,0:0:0:0:
36,192,74229,1,0,0:0:0:0:
109,192,74229,1,0,0:0:0:0:
475,192,74315,1,2,0:0:0:0:
402,192,74315,1,0,0:0:0:0:
256,192,74315,1,0,0:0:0:0:
109,192,74401,1,0,0:0:0:0:
36,192,74401,1,0,0:0:0:0:
475,192,74486,1,2,0:0:0:0:
402,192,74486,1,0,0:0:0:0:
182,192,74486,1,0,0:0:0:0:
109,192,74572,1,0,0:0:0:0:
36,192,74572,1,0,0:0:0:0:
329,192,74658,1,2,0:0:0:0:
402,192,74658,1,0,0:0:0:0:
475,192,74658,1,0,0:0:0:0:
109,192,74743,1,0,0:0:0:0:
36,192,74743,1,0,0:0:0:0:
475,192,74829,1,2,0:0:0:0:
182,192,74829,1,0,0:0:0:0:
402,192,74829,1,0,0:0:0:0:
36,192,74915,1,0,0:0:0:0:
109,192,74915,1,0,0:0:0:0:
256,192,75001,1,0,0:0:0:0:
475,192,75001,1,2,0:0:0:0:
402,192,75001,1,0,0:0:0:0:
109,192,75086,1,0,0:0:0:0:
36,192,75086,1,0,0:0:0:0:
329,192,75172,1,2,0:0:0:0:
402,192,75172,1,0,0:0:0:0:
475,192,75172,1,0,0:0:0:0:
109,192,75258,1,0,0:0:0:0:
36,192,75258,1,0,0:0:0:0:
402,192,75343,5,0,0:0:0:0:
182,192,75343,1,2,0:0:0:0:
475,192,75343,1,0,0:0:0:0:
36,192,75429,1,0,0:0:0:0:
109,192,75429,1,0,0:0:0:0:
402,192,75515,128,4,75815:0:0:0:0:
329,192,75515,128,0,75772:0:0:0:0:
256,192,75515,128,0,75729:0:0:0:0:
475,192,75515,128,2,75858:0:0:0:0:
36,192,76201,1,0,0:0:0:0:
109,192,76229,1,0,0:0:0:0:
182,192,76258,1,0,0:0:0:0:
475,192,76286,1,0,0:0:0:0:
402,192,76329,1,0,0:0:0:0:
329,192,76372,1,0,0:0:0:0:
256,192,76415,1,0,0:0:0:0:
182,192,76458,1,0,0:0:0:0:
109,192,76501,1,0,0:0:0:0:
475,192,76543,1,0,0:0:0:0:
402,192,76572,1,0,0:0:0:0:
329,192,76601,1,0,0:0:0:0:
36,192,76629,1,0,0:0:0:0:
109,192,76672,1,0,0:0:0:0:
182,192,76715,1,0,0:0:0:0:
256,192,76758,1,0,0:0:0:0:
329,192,76801,1,0,0:0:0:0:
402,192,76843,1,0,0:0:0:0:
36,192,76886,128,2,77572:0:0:0:0:
109,192,76886,128,4,77572:0:0:0:0:
182,192,76886,128,0,77229:0:0:0:0:
475,192,76886,128,0,77058:0:0:0:0:
256,192,77058,128,0,77229:0:0:0:0:
329,192,77058,128,0,77401:0:0:0:0:
402,192,77229,128,0,77401:0:0:0:0:
475,192,77229,128,0,77401:0:0:0:0:
182,192,77401,128,0,77572:0:0:0:0:
256,192,77401,128,0,77743:0:0:0:0:
329,192,77572,128,0,77743:0:0:0:50:LR_Clap hollow echo.wav
402,192,77572,128,0,77743:0:0:0:50:LR4_Snare DWRS.wav
475,192,77572,1,0,0:0:0:0:
36,192,77743,128,2,77915:0:0:0:0:
109,192,77743,128,0,77915:0:0:0:0:
182,192,77743,1,0,0:0:0:0:
329,192,77915,128,0,78086:0:0:0:0:
475,192,77915,128,0,78429:0:0:0:0:
36,192,78086,128,2,78429:0:0:0:0:
109,192,78086,128,0,78429:0:0:0:0:
256,192,78086,128,0,78429:0:0:0:0:
402,192,78086,128,0,78429:0:0:0:0:
182,192,78429,1,0,0:0:0:0:
36,192,78601,128,2,78943:0:0:0:0:
109,192,78601,128,0,78943:0:0:0:0:
182,192,78601,128,0,78772:0:0:0:0:
329,192,78601,128,0,78772:0:0:0:0:
256,192,78772,128,0,78943:0:0:0:0:
402,192,78772,128,0,78943:0:0:0:0:
182,192,78943,1,0,0:0:0:50:LR_Clap hollow echo.wav
329,192,78943,1,0,0:0:0:50:LR4_Snare DWRS.wav
475,192,78943,1,0,0:0:0:0:
182,192,79115,128,0,79286:0:0:0:0:
475,192,79115,128,0,79172:0:0:0:0:
402,192,79172,128,0,79229:0:0:0:0:
329,192,79229,128,0,79286:0:0:0:0:
109,192,79286,128,0,79343:0:0:0:0:
256,192,79286,128,0,79458:0:0:0:0:
36,192,79458,128,0,79515:0:0:0:0:
329,192,79458,128,0,79629:0:0:0:0:
109,192,79515,128,0,79572:0:0:0:0:
182,192,79572,128,0,79629:0:0:0:0:
36,192,79629,128,2,79972:0:0:0:0:
256,192,79629,128,4,79972:0:0:0:0:
402,192,79629,128,0,80315:0:0:0:0:
475,192,79629,128,0,80315:0:0:0:0:
109,192,79972,128,0,80143:0:0:0:0:
182,192,79972,128,0,80143:0:0:0:0:
36,192,80143,128,0,80486:0:0:0:0:
256,192,80143,128,0,80315:0:0:0:0:
109,192,80315,128,0,80486:0:0:0:50:LR_Clap hollow echo.wav
182,192,80315,128,0,80486:0:0:0:50:LR4_Snare DWRS.wav
329,192,80315,1,0,0:0:0:0:
256,192,80486,1,2,0:0:0:0:
402,192,80486,128,0,80658:0:0:0:0:
475,192,80486,128,0,80658:0:0:0:0:
109,192,80658,128,0,81172:0:0:0:0:
182,192,80658,128,0,80829:0:0:0:0:
36,192,80829,128,2,81172:0:0:0:0:
256,192,80829,128,0,81172:0:0:0:0:
329,192,80829,128,0,81172:0:0:0:0:
475,192,80829,128,0,81172:0:0:0:0:
36,192,81343,128,2,81515:0:0:0:0:
182,192,81343,128,0,81515:0:0:0:0:
329,192,81343,128,0,81686:0:0:0:0:
475,192,81343,128,0,81686:0:0:0:0:
36,192,81686,1,0,0:0:0:50:LR_Clap hollow echo.wav
109,192,81686,128,0,81858:0:0:0:50:LR4_Snare DWRS.wav
182,192,81686,1,0,0:0:0:0:
256,192,81686,128,0,81858:0:0:0:0:
109,192,82029,1,0,0:0:0:0:
182,192,82029,128,0,82372:0:0:0:0:
329,192,82029,128,0,82372:0:0:0:0:
475,192,82029,1,0,0:0:0:0:
36,192,82372,128,2,82543:0:0:0:0:
109,192,82372,128,4,82543:0:0:0:0:
256,192,82372,128,0,82543:0:0:0:0:
402,192,82543,128,0,82886:0:0:0:0:
36,192,82715,128,2,83058:0:0:0:0:
109,192,82715,128,0,83058:0:0:0:0:
256,192,82715,128,0,82886:0:0:0:0:
329,192,82715,128,0,82886:0:0:0:0:
182,192,82886,128,0,83058:0:0:0:0:
475,192,82886,128,0,83229:0:0:0:0:
256,192,83058,1,0,0:0:0:50:LR_Clap hollow echo.wav
329,192,83058,128,0,83229:0:0:0:50:LR4_Snare DWRS.wav
402,192,83058,128,0,83229:0:0:0:0:
36,192,83229,128,2,83401:0:0:0:0:
109,192,83229,128,0,83401:0:0:0:0:
182,192,83229,1,0,0:0:0:0:
329,192,83401,128,0,83572:0:0:0:0:
475,192,83401,128,0,83915:0:0:0:0:
36,192,83572,128,2,84086:0:0:0:0:
182,192,83572,128,0,84086:0:0:0:0:
256,192,83572,128,0,83915:0:0:0:0:
402,192,83572,128,0,83915:0:0:0:0:
109,192,83915,128,0,84086:0:0:0:0:
329,192,84086,128,0,84258:0:0:0:0:
475,192,84086,128,0,84258:0:0:0:0:
109,192,84258,128,2,84772:0:0:0:0:
182,192,84258,128,0,84601:0:0:0:0:
256,192,84258,128,0,84601:0:0:0:0:
402,192,84258,128,0,84429:0:0:0:0:
329,192,84429,1,0,0:0:0:70:LR4_Snare DWRS.wav
475,192,84429,1,0,0:0:0:0:
36,192,84429,1,0,0:0:0:70:LR_Clap hollow echo.wav
36,192,84601,128,0,84772:0:0:0:0:
475,192,84601,128,0,84658:0:0:0:0:
402,192,84658,128,0,84715:0:0:0:0:
329,192,84715,128,0,84772:0:0:0:0:
182,192,84772,128,0,84829:0:0:0:0:
256,192,84772,128,0,84943:0:0:0:0:
36,192,84943,128,0,85001:0:0:0:0:
475,192,84943,128,0,85115:0:0:0:0:
109,192,85001,128,0,85058:0:0:0:0:
182,192,85058,128,0,85115:0:0:0:0:
256,192,85115,1,4,0:0:0:0:
329,192,85115,128,2,85458:0:0:0:0:
402,192,85115,128,0,85458:0:0:0:0:
182,192,85286,1,0,0:0:0:0:
36,192,85458,1,0,0:0:0:0:
256,192,85458,1,0,0:0:0:0:
109,192,85629,1,2,0:0:0:0:
402,192,85629,128,4,85972:0:0:0:0:
475,192,85629,128,0,85972:0:0:0:0:
182,192,85801,128,0,86143:0:0:0:50:LR_Clap hollow echo.wav
256,192,85801,128,0,85972:0:0:0:50:LR4_Snare DWRS.wav
329,192,85801,1,0,0:0:0:0:
36,192,85972,128,0,86143:0:0:0:0:
109,192,85972,128,0,86143:0:0:0:0:
256,192,86143,128,2,86658:0:0:0:0:
329,192,86143,128,4,86658:0:0:0:0:
402,192,86143,128,0,86315:0:0:0:0:
475,192,86143,128,0,86658:0:0:0:0:
109,192,86315,128,0,86658:0:0:0:0:
182,192,86315,128,0,86658:0:0:0:0:
402,192,86658,1,0,0:0:0:0:
36,192,86829,128,0,87001:0:0:0:0:
182,192,86829,128,0,87001:0:0:0:0:
256,192,86829,1,0,0:0:0:0:
329,192,87001,1,2,0:0:0:0:
402,192,87001,128,4,87686:0:0:0:0:
475,192,87001,128,0,87686:0:0:0:0:
36,192,87172,1,0,0:0:0:50:LR_Clap hollow echo.wav
109,192,87172,128,0,87343:0:0:0:50:LR4_Snare DWRS.wav
182,192,87172,1,0,0:0:0:0:
256,192,87172,128,0,87343:0:0:0:0:
36,192,87515,128,2,87686:0:0:0:0:
109,192,87515,1,0,0:0:0:0:
182,192,87515,128,0,87686:0:0:0:0:
36,192,87858,128,2,88543:0:0:0:0:
109,192,87858,128,0,88543:0:0:0:0:
329,192,87858,128,0,87972:0:0:0:0:
402,192,87915,128,0,88029:0:0:0:0:
475,192,87972,128,0,88086:0:0:0:0:
182,192,88029,128,0,88372:0:0:0:0:
329,192,88201,128,0,88372:0:0:0:0:
402,192,88201,128,0,88372:0:0:0:0:
256,192,88372,128,0,88715:0:0:0:0:
329,192,88543,1,4,0:0:0:0:
402,192,88543,128,0,88715:0:0:0:50:LR_Clap hollow echo.wav
475,192,88543,128,0,88715:0:0:0:50:LR4_Snare DWRS.wav
36,192,88715,128,2,88886:0:0:0:0:
109,192,88715,128,0,88886:0:0:0:0:
182,192,88715,1,0,0:0:0:0:
329,192,88886,128,0,89058:0:0:0:0:
475,192,88886,128,0,89401:0:0:0:0:
36,192,89058,128,2,89401:0:0:0:0:
109,192,89058,128,0,89401:0:0:0:0:
256,192,89058,128,0,89401:0:0:0:0:
402,192,89058,128,0,89401:0:0:0:0:
182,192,89401,128,0,89743:0:0:0:0:
329,192,89401,128,0,89743:0:0:0:0:
36,192,89572,128,2,89743:0:0:0:0:
109,192,89572,128,0,89743:0:0:0:0:
475,192,89572,128,0,90086:0:0:0:0:
256,192,89743,128,0,90086:0:0:0:0:
402,192,89743,128,0,89915:0:0:0:0:
109,192,89915,1,0,0:0:0:70:LR4_Snare DWRS.wav
36,192,89915,1,0,0:0:0:70:LR_Clap hollow echo.wav
182,192,89915,1,0,0:0:0:0:
329,192,90086,128,0,90143:0:0:0:0:
182,192,90086,128,0,90258:0:0:0:0:
402,192,90143,128,0,90201:0:0:0:0:
475,192,90201,128,0,90258:0:0:0:0:
256,192,90258,128,0,90429:0:0:0:0:
109,192,90258,128,0,90315:0:0:0:0:
36,192,90429,128,0,90486:0:0:0:0:
329,192,90429,128,0,90601:0:0:0:0:
109,192,90486,128,0,90543:0:0:0:0:
182,192,90543,128,0,90601:0:0:0:0:
36,192,90601,128,2,90943:0:0:0:0:
256,192,90601,128,4,90943:0:0:0:0:
402,192,90601,128,0,91115:0:0:0:0:
475,192,90601,128,0,91115:0:0:0:0:
109,192,90943,128,0,91115:0:0:0:0:
182,192,90943,128,0,91115:0:0:0:0:
36,192,91115,128,0,91458:0:0:0:0:
256,192,91115,128,0,91286:0:0:0:0:
109,192,91286,128,0,91458:0:0:0:50:LR_Clap hollow echo.wav
182,192,91286,128,0,91458:0:0:0:50:LR4_Snare DWRS.wav
475,192,91286,1,0,0:0:0:0:
256,192,91458,1,2,0:0:0:0:
329,192,91458,128,0,91629:0:0:0:0:
402,192,91458,128,0,91629:0:0:0:0:
109,192,91629,128,0,92143:0:0:0:0:
182,192,91629,128,0,91801:0:0:0:0:
36,192,91801,128,2,92143:0:0:0:0:
256,192,91801,128,0,92143:0:0:0:0:
329,192,91801,128,0,92143:0:0:0:0:
475,192,91801,128,0,92315:0:0:0:0:
402,192,92143,128,0,92315:0:0:0:0:
36,192,92315,128,0,92486:0:0:0:0:
182,192,92315,128,0,92486:0:0:0:0:
329,192,92315,128,0,92486:0:0:0:0:
256,192,92486,1,2,0:0:0:0:
402,192,92486,128,0,93172:0:0:0:0:
475,192,92486,128,0,93172:0:0:0:0:
36,192,92658,128,0,92829:0:0:0:50:LR_Clap hollow echo.wav
109,192,92658,128,0,92829:0:0:0:50:LR4_Snare DWRS.wav
329,192,92658,1,0,0:0:0:0:
182,192,92829,1,0,0:0:0:0:
109,192,93001,128,0,93343:0:0:0:0:
256,192,93001,128,0,93343:0:0:0:0:
329,192,93172,1,0,0:0:0:0:
36,192,93343,128,2,93686:0:0:0:0:
182,192,93343,128,4,93686:0:0:0:0:
402,192,93343,128,0,94201:0:0:0:0:
475,192,93343,128,0,93686:0:0:0:0:
256,192,93686,128,0,94029:0:0:0:0:
36,192,93858,128,2,94201:0:0:0:0:
109,192,93858,128,4,94201:0:0:0:0:
329,192,93858,128,0,94543:0:0:0:0:
475,192,93858,128,0,94201:0:0:0:0:
256,192,94201,128,0,94543:0:0:0:0:
36,192,94372,128,2,94715:0:0:0:0:
182,192,94372,128,4,94715:0:0:0:0:
402,192,94372,128,0,94543:0:0:0:0:
475,192,94372,128,0,94543:0:0:0:0:
109,192,94715,1,0,0:0:0:0:
256,192,94715,1,0,0:0:0:0:
329,192,94715,128,0,94772:0:0:0:0:
402,192,94772,128,0,94829:0:0:0:0:
475,192,94829,128,0,94886:0:0:0:0:
182,192,94886,128,0,94943:0:0:0:0:
109,192,94943,128,0,95001:0:0:0:0:
36,192,95001,128,0,95058:0:0:0:0:
329,192,95058,1,0,0:0:0:0:
475,192,95058,1,0,0:0:0:0:
36,192,95229,1,0,0:0:0:0:
182,192,95229,128,0,95286:0:0:0:0:
256,192,95401,1,0,0:0:0:50:LR_Clap hollow echo.wav
475,192,95401,128,0,95458:0:0:0:50:LR4_Snare DWRS.wav
402,192,95458,128,0,95515:0:0:0:0:
329,192,95515,128,0,95572:0:0:0:0:
36,192,95572,1,0,0:0:0:0:
109,192,95572,1,0,0:0:0:0:
256,192,95743,1,0,0:0:0:0:
475,192,95743,128,0,95801:0:0:0:0:
402,192,95801,128,0,95858:0:0:0:0:
329,192,95858,128,0,95915:0:0:0:0:
36,192,95915,1,0,0:0:0:0:
182,192,95915,128,0,95972:0:0:0:0:
36,192,96086,128,4,96429:0:0:0:0:
109,192,96086,128,2,96943:0:0:0:0:
329,192,96086,128,0,96429:0:0:0:0:
475,192,96086,128,0,96429:0:0:0:0:
256,192,96429,128,0,96772:0:0:0:0:
36,192,96601,128,2,96943:0:0:0:0:
182,192,96601,128,4,97115:0:0:0:0:
329,192,96601,128,0,96943:0:0:0:0:
402,192,96601,128,0,96943:0:0:0:0:
256,192,96943,128,0,97286:0:0:0:0:
36,192,97115,128,2,97286:0:0:0:0:
109,192,97115,128,4,97286:0:0:0:0:
402,192,97115,128,0,98143:0:0:0:0:
475,192,97115,128,0,98143:0:0:0:0:
182,192,97286,128,0,98143:0:0:0:0:
329,192,97286,128,0,98143:0:0:0:0:
36,192,97801,1,0,0:0:0:0:
36,192,98143,1,0,0:0:0:50:LR_Clap hollow echo.wav
109,192,98143,1,0,0:0:0:50:LR4_Snare DWRS.wav
256,192,98143,1,0,0:0:0:0:
329,192,98315,1,0,0:0:0:0:
475,192,98401,1,0,0:0:0:0:
36,192,98486,1,0,0:0:0:0:
256,192,98486,1,0,0:0:0:0:
182,192,98572,1,0,0:0:0:0:
109,192,98658,1,0,0:0:0:0:
329,192,98658,1,0,0:0:0:0:
256,192,98743,1,0,0:0:0:0:
36,192,98829,128,2,99515:0:0:0:0:
402,192,98829,1,4,0:0:0:0:
182,192,98829,128,0,99515:0:0:0:0:
329,192,98829,128,0,99001:0:0:0:0:
475,192,98829,1,0,0:0:0:0:
329,192,99172,128,0,99343:0:0:0:0:
475,192,99172,1,0,0:0:0:0:
402,192,99343,1,0,0:0:0:0:
256,192,99515,1,0,0:0:0:50:LR_Clap hollow echo.wav
329,192,99515,128,0,99686:0:0:0:50:LR4_Snare DWRS.wav
475,192,99515,1,0,0:0:0:0:
36,192,99686,128,2,99858:0:0:0:0:
109,192,99686,1,0,0:0:0:0:
182,192,99686,128,0,99858:0:0:0:0:
402,192,99686,128,0,100029:0:0:0:0:
256,192,99858,1,0,0:0:0:0:
36,192,100029,128,2,100372:0:0:0:0:
182,192,100029,128,0,100372:0:0:0:0:
329,192,100029,128,0,100543:0:0:0:0:
475,192,100029,1,0,0:0:0:0:
109,192,100201,1,0,0:0:0:0:
402,192,100372,1,0,0:0:0:0:
36,192,100543,128,2,100886:0:0:0:0:
182,192,100543,128,0,100886:0:0:0:0:
256,192,100543,1,0,0:0:0:0:
475,192,100543,128,0,100886:0:0:0:0:
329,192,100715,1,0,0:0:0:0:
109,192,100886,1,0,0:0:0:50:LR_Clap hollow echo.wav
256,192,100886,1,0,0:0:0:50:LR4_Snare DWRS.wav
402,192,100886,128,0,101229:0:0:0:0:
36,192,101058,1,0,0:0:0:0:
182,192,101229,1,0,0:0:0:0:
256,192,101229,128,0,101572:0:0:0:0:
109,192,101272,1,0,0:0:0:0:
36,192,101315,1,0,0:0:0:0:
475,192,101358,1,0,0:0:0:0:
402,192,101401,1,0,0:0:0:0:
329,192,101443,1,0,0:0:0:0:
36,192,101486,1,0,0:0:0:0:
109,192,101529,1,0,0:0:0:0:
182,192,101572,128,2,101915:0:0:0:0:
329,192,101572,128,4,102258:0:0:0:0:
402,192,101572,1,0,0:0:0:0:
475,192,101572,128,0,102258:0:0:0:0:
36,192,101743,1,0,0:0:0:0:
109,192,101915,128,0,102258:0:0:0:0:
256,192,101915,1,0,0:0:0:0:
402,192,102086,1,0,0:0:0:0:
36,192,102258,128,0,102429:0:0:0:50:LR_Clap hollow echo.wav
182,192,102258,1,0,0:0:0:50:LR4_Snare DWRS.wav
256,192,102258,1,0,0:0:0:0:
182,192,102429,128,2,102601:0:0:0:0:
329,192,102429,128,0,102601:0:0:0:0:
402,192,102429,1,0,0:0:0:0:
475,192,102429,128,0,102601:0:0:0:0:
109,192,102601,1,0,0:0:0:0:
36,192,102772,128,2,103286:0:0:0:0:
182,192,102772,1,0,0:0:0:0:
402,192,102772,128,0,103115:0:0:0:0:
475,192,102772,128,0,103115:0:0:0:0:
256,192,102943,1,0,0:0:0:0:
109,192,103115,1,0,0:0:0:0:
329,192,103286,1,2,0:0:0:0:
402,192,103286,128,0,103629:0:0:0:0:
475,192,103286,128,0,103629:0:0:0:0:
182,192,103458,1,0,0:0:0:0:
36,192,103629,128,0,103972:0:0:0:50:LR_Clap hollow echo.wav
109,192,103629,1,0,0:0:0:50:LR4_Snare DWRS.wav
256,192,103629,1,0,0:0:0:0:
182,192,103801,1,0,0:0:0:0:
256,192,103972,128,0,104315:0:0:0:0:
329,192,103972,1,0,0:0:0:0:
402,192,104015,1,0,0:0:0:0:
475,192,104058,1,0,0:0:0:0:
36,192,104101,1,0,0:0:0:0:
109,192,104143,1,0,0:0:0:0:
182,192,104186,1,0,0:0:0:0:
475,192,104229,1,0,0:0:0:0:
402,192,104272,1,0,0:0:0:0:
36,192,104315,128,2,104486:0:0:0:0:
109,192,104315,128,4,104486:0:0:0:0:
329,192,104315,128,0,104486:0:0:0:0:
256,192,104486,1,0,0:0:0:0:
36,192,104658,128,2,105001:0:0:0:0:
109,192,104658,128,0,105001:0:0:0:0:
329,192,104658,128,0,105001:0:0:0:0:
475,192,104658,1,0,0:0:0:0:
402,192,104829,1,0,0:0:0:0:
256,192,105001,128,0,105172:0:0:0:50:LR_Clap hollow echo.wav
182,192,105001,1,0,0:0:0:50:LR4_Snare DWRS.wav
475,192,105001,1,0,0:0:0:0:
36,192,105172,128,2,105343:0:0:0:0:
109,192,105172,128,0,105343:0:0:0:0:
329,192,105172,1,0,0:0:0:0:
402,192,105172,128,0,105343:0:0:0:0:
256,192,105343,1,0,0:0:0:0:
109,192,105515,128,2,106029:0:0:0:0:
182,192,105515,128,0,106029:0:0:0:0:
329,192,105515,1,0,0:0:0:0:
475,192,105515,128,0,106029:0:0:0:0:
402,192,105686,1,0,0:0:0:0:
36,192,105858,1,0,0:0:0:0:
256,192,106029,1,0,0:0:0:0:
402,192,106029,128,0,106372:0:0:0:0:
36,192,106201,128,2,106715:0:0:0:0:
182,192,106201,128,0,106715:0:0:0:0:
475,192,106201,1,0,0:0:0:0:
109,192,106372,1,0,0:0:0:50:LR_Clap hollow echo.wav
256,192,106372,1,0,0:0:0:50:LR4_Snare DWRS.wav
329,192,106372,128,0,106543:0:0:0:0:
402,192,106543,128,0,106715:0:0:0:0:
475,192,106543,1,0,0:0:0:0:
109,192,106715,1,0,0:0:0:0:
256,192,106715,1,0,0:0:0:0:
329,192,106758,1,0,0:0:0:0:
402,192,106801,1,0,0:0:0:0:
475,192,106843,1,0,0:0:0:0:
256,192,106886,128,0,107401:0:0:0:0:
36,192,106929,1,0,0:0:0:0:
109,192,106972,1,0,0:0:0:0:
182,192,107015,1,0,0:0:0:0:
329,192,107058,1,4,0:0:0:0:
402,192,107058,128,2,107401:0:0:0:0:
475,192,107058,128,0,107401:0:0:0:0:
109,192,107229,1,0,0:0:0:0:
36,192,107401,128,0,107572:0:0:0:0:
182,192,107401,1,0,0:0:0:0:
256,192,107572,1,2,0:0:0:0:
329,192,107572,128,4,107915:0:0:0:0:
475,192,107572,128,0,107915:0:0:0:0:
36,192,107743,128,0,107915:0:0:0:50:LR_Clap hollow echo.wav
182,192,107743,1,0,0:0:0:50:LR4_Snare DWRS.wav
402,192,107743,1,0,0:0:0:0:
109,192,107915,128,0,108258:0:0:0:0:
256,192,107915,1,0,0:0:0:0:
329,192,108086,128,2,108429:0:0:0:0:
402,192,108086,128,4,108429:0:0:0:0:
475,192,108086,1,0,0:0:0:0:
36,192,108258,1,0,0:0:0:0:
182,192,108258,128,0,108772:0:0:0:0:
109,192,108429,1,0,0:0:0:0:
329,192,108601,1,0,0:0:0:0:
475,192,108601,1,0,0:0:0:0:
329,192,108772,1,0,0:0:0:0:
475,192,108772,1,0,0:0:0:0:
36,192,108943,128,2,109458:0:0:0:0:
109,192,108943,128,4,109458:0:0:0:0:
256,192,108943,1,0,0:0:0:0:
182,192,109115,1,0,0:0:0:50:LR_Clap hollow echo.wav
402,192,109115,1,0,0:0:0:50:LR4_Snare DWRS.wav
475,192,109115,1,0,0:0:0:0:
329,192,109286,1,0,0:0:0:0:
402,192,109372,1,0,0:0:0:0:
182,192,109458,1,2,0:0:0:0:
256,192,109458,1,0,0:0:0:0:
475,192,109458,1,0,0:0:0:0:
329,192,109543,1,0,0:0:0:0:
109,192,109629,1,0,0:0:0:0:
182,192,109629,1,0,0:0:0:0:
402,192,109629,1,0,0:0:0:0:
256,192,109715,1,0,0:0:0:0:
36,192,109801,128,2,110315:0:0:0:0:
109,192,109801,128,0,110315:0:0:0:0:
329,192,109801,128,0,110315:0:0:0:0:
475,192,109801,128,0,110315:0:0:0:0:
256,192,110143,128,0,110315:0:0:0:0:
402,192,110143,128,0,110315:0:0:0:0:
36,192,110486,1,4,0:0:0:0:
182,192,110486,1,0,0:0:0:50:LR_Clap hollow echo.wav
256,192,110486,128,0,110658:0:0:0:50:LR4_Snare DWRS.wav
402,192,110486,128,0,110658:0:0:0:0:
109,192,110486,1,0,0:0:0:0:
36,192,110658,128,2,110829:0:0:0:0:
109,192,110658,128,0,110829:0:0:0:0:
329,192,110658,128,0,111343:0:0:0:0:
475,192,110658,128,0,111343:0:0:0:0:
36,192,111001,128,2,111343:0:0:0:0:
109,192,111001,128,0,111343:0:0:0:0:
256,192,111001,128,0,111343:0:0:0:0:
402,192,111001,128,0,111343:0:0:0:0:
182,192,111343,1,0,0:0:0:0:
36,192,111515,128,2,111858:0:0:0:0:
109,192,111515,128,0,111858:0:0:0:0:
402,192,111515,128,0,111858:0:0:0:0:
475,192,111515,128,0,111858:0:0:0:0:
182,192,111858,128,0,112201:0:0:0:50:LR_Clap hollow echo.wav
256,192,111858,1,0,0:0:0:50:LR4_Snare DWRS.wav
329,192,111858,128,0,112201:0:0:0:0:
36,192,112201,1,0,0:0:0:0:
256,192,112201,128,0,112543:0:0:0:0:
109,192,112243,1,0,0:0:0:0:
182,192,112286,1,0,0:0:0:0:
329,192,112329,1,0,0:0:0:0:
402,192,112372,1,0,0:0:0:0:
475,192,112415,1,0,0:0:0:0:
36,192,112458,1,0,0:0:0:0:
109,192,112501,1,0,0:0:0:0:
182,192,112543,128,2,112715:0:0:0:0:
402,192,112543,128,4,113229:0:0:0:0:
475,192,112543,128,0,113229:0:0:0:0:
182,192,112886,128,0,113058:0:0:0:0:
36,192,113058,128,0,113229:0:0:0:0:
109,192,113058,128,0,113229:0:0:0:0:
182,192,113229,1,0,0:0:0:50:LR_Clap hollow echo.wav
256,192,113229,1,0,0:0:0:50:LR4_Snare DWRS.wav
329,192,113229,1,0,0:0:0:0:
36,192,113401,128,2,113572:0:0:0:0:
182,192,113401,128,0,113572:0:0:0:0:
329,192,113401,128,0,113572:0:0:0:0:
402,192,113401,128,0,113572:0:0:0:0:
36,192,113743,128,2,114086:0:0:0:0:
256,192,113743,128,0,114086:0:0:0:0:
329,192,113743,128,0,114086:0:0:0:0:
475,192,113743,128,0,114086:0:0:0:0:
182,192,114086,1,0,0:0:0:0:
402,192,114086,128,0,114258:0:0:0:0:
36,192,114258,1,0,0:0:0:0:
329,192,114258,128,0,114429:0:0:0:0:
109,192,114429,1,2,0:0:0:0:
402,192,114429,128,0,114943:0:0:0:0:
475,192,114429,128,0,114943:0:0:0:0:
36,192,114601,128,0,114943:0:0:0:50:LR_Clap hollow echo.wav
182,192,114601,128,0,114943:0:0:0:50:LR4_Snare DWRS.wav
256,192,114601,1,0,0:0:0:0:
109,192,114943,128,0,115115:0:0:0:0:
329,192,114943,128,0,115115:0:0:0:0:
36,192,115115,128,0,115801:0:0:0:0:
256,192,115115,128,0,115801:0:0:0:0:
182,192,115286,128,2,115629:0:0:0:0:
402,192,115286,128,4,115629:0:0:0:0:
475,192,115286,128,0,116658:0:0:0:0:
109,192,115801,128,2,116143:0:0:0:0:
329,192,115801,128,4,116143:0:0:0:0:
402,192,115801,128,0,116658:0:0:0:0:
36,192,115972,1,0,0:0:0:50:LR_Clap hollow echo.wav
256,192,115972,1,0,0:0:0:50:LR4_Snare DWRS.wav
36,192,116315,128,2,116658:0:0:0:0:
256,192,116315,128,4,116658:0:0:0:0:
329,192,116315,128,0,116658:0:0:0:0:
109,192,116658,1,0,0:0:0:0:
182,192,116658,1,0,0:0:0:0:
36,192,116829,1,0,0:0:0:0:
109,192,116872,1,0,0:0:0:0:
182,192,116915,1,0,0:0:0:0:
402,192,117001,128,0,117343:0:0:0:0:
475,192,117001,1,0,0:0:0:0:
109,192,117172,1,0,0:0:0:0:
182,192,117172,1,0,0:0:0:0:
256,192,117343,1,0,0:0:0:50:LR_Clap hollow echo.wav
329,192,117343,128,0,117686:0:0:0:50:LR4_Snare DWRS.wav
475,192,117343,1,0,0:0:0:0:
36,192,117515,1,0,0:0:0:0:
109,192,117515,1,0,0:0:0:0:
256,192,117686,128,0,118029:0:0:0:0:
475,192,117686,1,0,0:0:0:0:
402,192,117729,1,0,0:0:0:0:
329,192,117772,1,0,0:0:0:0:
182,192,117815,1,0,0:0:0:0:
109,192,117858,1,0,0:0:0:0:
36,192,117901,1,0,0:0:0:0:
475,192,117943,1,0,0:0:0:0:
402,192,117986,1,0,0:0:0:0:
36,192,118029,128,4,118372:0:0:0:0:
182,192,118029,128,2,118886:0:0:0:0:
329,192,118029,128,0,118372:0:0:0:0:
256,192,118372,128,0,118715:0:0:0:0:
36,192,118543,128,2,118886:0:0:0:0:
109,192,118543,128,4,120429:0:0:0:0:
329,192,118715,1,0,0:0:0:50:LR_Clap hollow echo.wav
402,192,118715,1,0,0:0:0:50:LR4_Snare DWRS.wav
475,192,118715,1,0,0:0:0:0:
256,192,118886,128,0,119229:0:0:0:0:
36,192,119058,128,2,119572:0:0:0:0:
182,192,119058,128,4,120086:0:0:0:0:
402,192,119058,1,0,0:0:0:0:
475,192,119058,1,0,0:0:0:0:
329,192,119229,128,0,120086:0:0:0:0:
36,192,119743,128,0,120772:0:0:0:0:
475,192,119743,128,0,120772:0:0:0:0:
256,192,120086,1,0,0:0:0:50:LR_Clap hollow echo.wav
402,192,120086,128,0,120772:0:0:0:50:LR4_Snare DWRS.wav
182,192,120429,1,0,0:0:0:0:
329,192,120429,128,0,120772:0:0:0:0:
109,192,120772,1,2,0:0:0:0:
182,192,120772,1,0,0:0:0:0:
256,192,120772,128,0,121458:0:0:0:0:
329,192,121458,128,0,121501:0:0:0:0:
182,192,121801,128,0,121843:0:0:0:0:
36,192,122143,1,0,0:0:0:0:
329,192,122143,128,0,122186:0:0:0:0:
475,192,122143,1,0,0:0:0:0:
109,192,122172,1,0,0:0:0:0:
182,192,122201,1,0,0:0:0:0:
402,192,122486,128,0,122529:0:0:0:0:
256,192,122829,1,0,0:0:0:0:
109,192,123515,1,0,0:0:0:0:
402,192,123515,128,0,123558:0:0:0:0:
182,192,123543,1,0,0:0:0:0:
256,192,123572,1,0,0:0:0:0:
36,192,124201,128,0,124886:0:0:0:0:
329,192,124201,128,0,124243:0:0:0:0:
182,192,124543,128,0,124586:0:0:0:0:
256,192,124886,128,0,124929:0:0:0:0:
329,192,124886,1,0,0:0:0:0:
402,192,124915,1,0,0:0:0:0:
475,192,124943,1,0,0:0:0:0:
182,192,125229,128,0,125272:0:0:0:0:
329,192,125229,128,0,126258:0:0:0:0:
475,192,125572,1,0,0:0:0:0:
36,192,126258,1,2,0:0:0:0:
109,192,126258,1,4,0:0:0:0:
256,192,126258,1,0,0:0:0:0:
402,192,126258,1,0,0:0:0:0:
475,192,126258,1,0,0:0:0:0:
182,192,126429,1,0,0:0:0:0:
329,192,126429,1,0,0:0:0:0:
109,192,126601,1,0,0:0:0:0:
402,192,126601,1,0,0:0:0:0:
36,192,126772,1,0,0:0:0:0:
256,192,126772,1,0,0:0:0:0:
329,192,126943,1,0,0:0:0:50:LR_Clap hollow echo.wav
182,192,126943,1,0,0:0:0:0:
475,192,126943,1,0,0:0:0:0:
256,192,127115,1,0,0:0:0:0:
475,192,127115,1,0,0:0:0:0:
182,192,127286,1,0,0:0:0:0:
329,192,127286,1,0,0:0:0:0:
402,192,127286,1,0,0:0:0:0:
36,192,127458,1,2,0:0:0:0:
109,192,127458,1,0,0:0:0:0:
182,192,127458,1,0,0:0:0:0:
329,192,127629,1,0,0:0:0:0:
256,192,127629,1,0,0:0:0:0:
475,192,127629,1,0,0:0:0:0:
36,192,127801,1,0,0:0:0:0:
329,192,127801,1,0,0:0:0:0:
36,192,127972,1,2,0:0:0:0:
109,192,127972,1,0,0:0:0:0:
402,192,127972,1,0,0:0:0:0:
182,192,128143,1,0,0:0:0:0:
402,192,128143,1,0,0:0:0:0:
36,192,128315,1,0,0:0:0:50:LR_Clap hollow echo.wav
329,192,128315,1,0,0:0:0:0:
475,192,128315,1,0,0:0:0:0:
109,192,128401,1,0,0:0:0:0:
182,192,128486,1,0,0:0:0:0:
402,192,128486,1,0,0:0:0:0:
329,192,128572,1,0,0:0:0:0:
36,192,128658,1,0,0:0:0:0:
109,192,128701,1,0,0:0:0:0:
182,192,128743,1,0,0:0:0:0:
256,192,128786,1,0,0:0:0:0:
475,192,128829,1,0,0:0:0:0:
402,192,128872,1,0,0:0:0:0:
329,192,128915,1,0,0:0:0:0:
256,192,128958,1,0,0:0:0:0:
36,192,129001,1,2,0:0:0:0:
109,192,129001,1,0,0:0:0:0:
182,192,129001,1,0,0:0:0:0:
36,192,129172,1,0,0:0:0:0:
256,192,129172,1,0,0:0:0:0:
402,192,129172,1,0,0:0:0:0:
329,192,129343,1,0,0:0:0:0:
475,192,129343,1,0,0:0:0:0:
36,192,129515,1,0,0:0:0:0:
182,192,129515,1,0,0:0:0:0:
256,192,129515,1,0,0:0:0:0:
329,192,129686,1,0,0:0:0:50:LR_Clap hollow echo.wav
402,192,129686,1,0,0:0:0:0:
475,192,129686,1,0,0:0:0:0:
36,192,129858,1,2,0:0:0:0:
109,192,129858,1,0,0:0:0:0:
475,192,129858,1,0,0:0:0:0:
182,192,130029,1,0,0:0:0:0:
402,192,130029,1,0,0:0:0:0:
36,192,130201,1,2,0:0:0:0:
109,192,130201,1,0,0:0:0:0:
256,192,130201,1,0,0:0:0:0:
329,192,130243,1,0,0:0:0:0:
402,192,130286,1,0,0:0:0:0:
475,192,130329,1,0,0:0:0:0:
36,192,130372,1,0,0:0:0:0:
182,192,130372,1,0,0:0:0:0:
256,192,130372,1,0,0:0:0:0:
109,192,130543,1,0,0:0:0:0:
402,192,130543,1,0,0:0:0:0:
475,192,130543,1,0,0:0:0:0:
182,192,130715,1,0,0:0:0:0:
402,192,130715,1,0,0:0:0:0:
475,192,130715,1,0,0:0:0:0:
36,192,130886,1,2,0:0:0:0:
109,192,130886,1,0,0:0:0:0:
256,192,130886,1,0,0:0:0:0:
36,192,131058,1,0,0:0:0:50:LR_Clap hollow echo.wav
329,192,131058,1,0,0:0:0:0:
475,192,131058,1,0,0:0:0:0:
256,192,131143,1,0,0:0:0:0:
109,192,131229,1,0,0:0:0:0:
402,192,131229,1,0,0:0:0:0:
182,192,131315,1,0,0:0:0:0:
475,192,131401,1,0,0:0:0:0:
402,192,131443,1,0,0:0:0:0:
329,192,131486,1,0,0:0:0:0:
256,192,131529,1,0,0:0:0:0:
36,192,131572,1,0,0:0:0:0:
109,192,131615,1,0,0:0:0:0:
182,192,131658,1,0,0:0:0:0:
256,192,131701,1,0,0:0:0:0:
329,192,131743,1,2,0:0:0:0:
402,192,131743,1,0,0:0:0:0:
475,192,131743,1,0,0:0:0:0:
36,192,131915,1,0,0:0:0:0:
256,192,131915,1,0,0:0:0:0:
182,192,132086,1,0,0:0:0:0:
475,192,132086,1,0,0:0:0:0:
109,192,132258,1,0,0:0:0:0:
329,192,132258,1,0,0:0:0:0:
36,192,132429,1,0,0:0:0:50:LR_Clap hollow echo.wav
182,192,132429,1,0,0:0:0:0:
402,192,132429,1,0,0:0:0:0:
402,192,132601,1,0,0:0:0:0:
36,192,132772,1,0,0:0:0:0:
256,192,132772,1,0,0:0:0:0:
109,192,132772,1,0,0:0:0:0:
402,192,132943,1,2,0:0:0:0:
475,192,132943,1,0,0:0:0:0:
36,192,132943,1,0,0:0:0:0:
109,192,132986,1,0,0:0:0:0:
182,192,133029,1,0,0:0:0:0:
256,192,133072,1,0,0:0:0:0:
402,192,133115,1,0,0:0:0:0:
475,192,133115,1,0,0:0:0:0:
329,192,133115,1,0,0:0:0:0:
329,192,133286,1,0,0:0:0:0:
36,192,133286,1,0,0:0:0:0:
109,192,133458,1,2,0:0:0:0:
402,192,133458,1,0,0:0:0:0:
475,192,133458,1,0,0:0:0:0:
256,192,133629,1,0,0:0:0:0:
402,192,133629,1,0,0:0:0:0:
36,192,133801,1,0,0:0:0:50:LR_Clap hollow echo.wav
182,192,133801,1,0,0:0:0:0:
475,192,133801,1,0,0:0:0:0:
402,192,133886,1,0,0:0:0:0:
109,192,133972,1,0,0:0:0:0:
256,192,133972,1,0,0:0:0:0:
475,192,134058,1,0,0:0:0:0:
256,192,134143,1,0,0:0:0:0:
329,192,134186,1,0,0:0:0:0:
402,192,134229,1,0,0:0:0:0:
475,192,134272,1,0,0:0:0:0:
36,192,134315,1,0,0:0:0:0:
109,192,134358,1,0,0:0:0:0:
182,192,134401,1,0,0:0:0:0:
256,192,134443,1,0,0:0:0:0:
329,192,134486,1,2,0:0:0:0:
402,192,134486,1,0,0:0:0:0:
475,192,134486,1,0,0:0:0:0:
109,192,134658,1,0,0:0:0:0:
182,192,134658,1,0,0:0:0:0:
329,192,134658,1,0,0:0:0:0:
256,192,134829,1,2,0:0:0:0:
402,192,134829,1,0,0:0:0:0:
475,192,134829,1,0,0:0:0:0:
36,192,135001,1,0,0:0:0:0:
109,192,135001,1,0,0:0:0:0:
182,192,135001,1,0,0:0:0:0:
36,192,135172,1,0,0:0:0:50:LR_Clap hollow echo.wav
182,192,135172,1,0,0:0:0:0:
329,192,135172,1,0,0:0:0:0:
256,192,135343,1,2,0:0:0:0:
402,192,135343,1,0,0:0:0:0:
475,192,135343,1,0,0:0:0:0:
36,192,135515,1,0,0:0:0:0:
182,192,135515,1,0,0:0:0:0:
329,192,135686,1,2,0:0:0:0:
402,192,135686,1,0,0:0:0:0:
475,192,135686,1,0,0:0:0:0:
36,192,135729,1,0,0:0:0:0:
109,192,135772,1,0,0:0:0:0:
182,192,135815,1,0,0:0:0:0:
256,192,135858,1,0,0:0:0:0:
329,192,135858,1,0,0:0:0:0:
475,192,135858,1,0,0:0:0:0:
36,192,136029,1,0,0:0:0:0:
109,192,136029,1,0,0:0:0:0:
182,192,136201,1,0,0:0:0:0:
256,192,136201,1,0,0:0:0:0:
402,192,136201,1,0,0:0:0:0:
109,192,136372,1,2,0:0:0:0:
402,192,136372,1,0,0:0:0:0:
475,192,136372,1,0,0:0:0:0:
36,192,136543,1,0,0:0:0:50:LR_Clap hollow echo.wav
182,192,136543,1,0,0:0:0:0:
256,192,136543,1,0,0:0:0:0:
475,192,136629,1,0,0:0:0:0:
182,192,136715,1,0,0:0:0:0:
402,192,136715,1,0,0:0:0:0:
329,192,136801,1,0,0:0:0:0:
36,192,136886,1,0,0:0:0:50:soft-hitclap.wav
109,192,136886,1,0,0:0:0:0:
475,192,136886,1,0,0:0:0:0:
109,192,137058,1,0,0:0:0:0:
256,192,137058,1,0,0:0:0:0:
36,192,137229,1,2,0:0:0:0:
182,192,137229,1,4,0:0:0:0:
329,192,137229,1,0,0:0:0:0:
402,192,137229,1,0,0:0:0:0:
475,192,137229,1,0,0:0:0:0:
36,192,137401,1,0,0:0:0:0:
256,192,137401,1,0,0:0:0:0:
109,192,137572,1,0,0:0:0:0:
475,192,137572,1,0,0:0:0:0:
182,192,137743,1,0,0:0:0:0:
402,192,137743,1,0,0:0:0:0:
109,192,137915,1,0,0:0:0:50:LR_Clap hollow echo.wav
329,192,137915,1,0,0:0:0:0:
475,192,137915,1,0,0:0:0:0:
256,192,138086,1,0,0:0:0:0:
475,192,138086,1,0,0:0:0:0:
182,192,138258,1,0,0:0:0:0:
329,192,138258,1,0,0:0:0:0:
402,192,138258,1,0,0:0:0:0:
36,192,138429,1,2,0:0:0:0:
109,192,138429,1,0,0:0:0:0:
402,192,138429,1,0,0:0:0:0:
329,192,138601,128,0,138686:0:0:0:0:
475,192,138601,128,0,138686:0:0:0:0:
182,192,138772,1,0,0:0:0:0:
402,192,138772,1,0,0:0:0:0:
36,192,138943,1,2,0:0:0:0:
109,192,138943,1,0,0:0:0:0:
256,192,138943,1,0,0:0:0:0:
256,192,139115,1,0,0:0:0:0:
402,192,139115,1,0,0:0:0:0:
109,192,139286,1,0,0:0:0:50:LR_Clap hollow echo.wav
329,192,139286,1,0,0:0:0:0:
475,192,139286,1,0,0:0:0:0:
109,192,139458,1,0,0:0:0:0:
256,192,139458,1,0,0:0:0:0:
182,192,139629,1,0,0:0:0:0:
402,192,139629,1,0,0:0:0:0:
475,192,139629,1,0,0:0:0:0:
109,192,139672,1,0,0:0:0:0:
36,192,139715,1,0,0:0:0:0:
329,192,139758,1,0,0:0:0:0:
256,192,139801,1,0,0:0:0:0:
182,192,139843,1,0,0:0:0:0:
475,192,139886,1,0,0:0:0:0:
402,192,139929,1,0,0:0:0:0:
36,192,139972,128,2,140058:0:0:0:0:
109,192,139972,128,0,140058:0:0:0:0:
329,192,139972,1,0,0:0:0:0:
109,192,140143,1,0,0:0:0:0:
256,192,140143,1,0,0:0:0:0:
36,192,140315,1,0,0:0:0:0:
182,192,140315,1,0,0:0:0:0:
402,192,140315,1,0,0:0:0:0:
36,192,140486,1,0,0:0:0:0:
256,192,140486,1,0,0:0:0:0:
182,192,140658,1,0,0:0:0:50:LR_Clap hollow echo.wav
329,192,140658,1,0,0:0:0:0:
475,192,140658,1,0,0:0:0:0:
36,192,140829,1,2,0:0:0:0:
109,192,140829,1,0,0:0:0:0:
182,192,140829,1,0,0:0:0:0:
256,192,141001,1,0,0:0:0:0:
329,192,141001,1,0,0:0:0:0:
475,192,141001,1,0,0:0:0:0:
36,192,141172,1,2,0:0:0:0:
109,192,141172,1,0,0:0:0:0:
329,192,141172,1,0,0:0:0:0:
256,192,141343,128,0,141429:0:0:0:0:
475,192,141343,128,0,141429:0:0:0:0:
36,192,141515,1,0,0:0:0:0:
329,192,141515,1,0,0:0:0:0:
256,192,141686,1,0,0:0:0:0:
402,192,141686,1,0,0:0:0:0:
475,192,141686,1,0,0:0:0:0:
36,192,141858,1,2,0:0:0:0:
109,192,141858,1,0,0:0:0:0:
402,192,141858,1,0,0:0:0:0:
182,192,142029,1,0,0:0:0:50:LR_Clap hollow echo.wav
329,192,142029,1,0,0:0:0:0:
475,192,142029,1,0,0:0:0:0:
109,192,142115,1,0,0:0:0:0:
36,192,142201,1,0,0:0:0:0:
329,192,142201,1,0,0:0:0:0:
256,192,142286,1,0,0:0:0:0:
182,192,142372,1,0,0:0:0:0:
402,192,142372,1,0,0:0:0:0:
475,192,142372,1,0,0:0:0:0:
109,192,142415,1,0,0:0:0:0:
36,192,142458,1,0,0:0:0:0:
329,192,142501,1,0,0:0:0:0:
256,192,142543,1,0,0:0:0:0:
182,192,142586,1,0,0:0:0:0:
475,192,142629,1,0,0:0:0:0:
402,192,142672,1,0,0:0:0:0:
36,192,142715,128,2,142801:0:0:0:0:
109,192,142715,128,0,142801:0:0:0:0:
329,192,142715,1,0,0:0:0:0:
182,192,142886,1,0,0:0:0:0:
475,192,142886,1,0,0:0:0:0:
329,192,143058,1,0,0:0:0:0:
402,192,143058,1,0,0:0:0:0:
36,192,143229,1,0,0:0:0:0:
109,192,143229,1,0,0:0:0:0:
256,192,143229,1,0,0:0:0:0:
109,192,143401,1,0,0:0:0:50:LR_Clap hollow echo.wav
329,192,143401,1,0,0:0:0:0:
475,192,143401,1,0,0:0:0:0:
256,192,143572,1,0,0:0:0:0:
402,192,143572,1,0,0:0:0:0:
182,192,143743,1,0,0:0:0:0:
329,192,143743,1,0,0:0:0:0:
36,192,143915,1,2,0:0:0:0:
109,192,143915,1,0,0:0:0:0:
256,192,143915,1,0,0:0:0:0:
182,192,144086,128,0,144172:0:0:0:0:
329,192,144086,128,0,144172:0:0:0:0:
402,192,144258,1,0,0:0:0:0:
475,192,144258,1,0,0:0:0:0:
36,192,144429,1,2,0:0:0:0:
109,192,144429,1,0,0:0:0:0:
256,192,144429,1,0,0:0:0:0:
182,192,144601,1,0,0:0:0:0:
402,192,144601,1,0,0:0:0:0:
329,192,144772,1,0,0:0:0:50:LR_Clap hollow echo.wav
475,192,144772,1,0,0:0:0:0:
109,192,144858,1,0,0:0:0:0:
256,192,144943,1,0,0:0:0:0:
402,192,145029,1,0,0:0:0:0:
182,192,145115,1,0,0:0:0:0:
475,192,145115,1,0,0:0:0:0:
109,192,145158,1,0,0:0:0:0:
36,192,145201,1,0,0:0:0:0:
329,192,145243,1,0,0:0:0:0:
256,192,145286,1,0,0:0:0:0:
182,192,145329,1,0,0:0:0:0:
475,192,145372,1,0,0:0:0:0:
402,192,145415,1,0,0:0:0:0:
36,192,145458,128,2,145543:0:0:0:0:
109,192,145458,128,0,145543:0:0:0:0:
329,192,145458,1,0,0:0:0:0:
182,192,145629,1,0,0:0:0:0:
402,192,145629,1,0,0:0:0:0:
36,192,145801,1,2,0:0:0:0:
109,192,145801,1,0,0:0:0:0:
256,192,145801,1,0,0:0:0:0:
109,192,145972,1,0,0:0:0:0:
402,192,145972,1,0,0:0:0:0:
182,192,146143,1,0,0:0:0:50:LR_Clap hollow echo.wav
329,192,146143,1,0,0:0:0:0:
475,192,146143,1,0,0:0:0:0:
36,192,146315,1,2,0:0:0:0:
109,192,146315,1,0,0:0:0:0:
182,192,146315,1,0,0:0:0:0:
256,192,146486,1,0,0:0:0:0:
402,192,146486,1,0,0:0:0:0:
475,192,146486,1,0,0:0:0:0:
109,192,146658,1,0,0:0:0:0:
256,192,146658,1,0,0:0:0:0:
36,192,146829,1,2,0:0:0:0:
109,192,146829,1,4,0:0:0:0:
182,192,146829,1,0,0:0:0:0:
329,192,146829,1,0,0:0:0:0:
256,192,147001,1,0,0:0:0:0:
329,192,147001,1,0,0:0:0:0:
109,192,147172,1,0,0:0:0:0:
402,192,147172,1,0,0:0:0:0:
256,192,147343,1,0,0:0:0:0:
475,192,147343,1,0,0:0:0:0:
36,192,147515,1,0,0:0:0:50:LR_Clap hollow echo.wav
329,192,147515,1,0,0:0:0:0:
182,192,147515,1,0,0:0:0:0:
402,192,147601,1,0,0:0:0:0:
109,192,147686,1,0,0:0:0:50:LR_Clap hollow echo.wav
256,192,147686,1,0,0:0:0:0:
475,192,147686,1,0,0:0:0:0:
329,192,147772,1,0,0:0:0:0:
36,192,147858,1,0,0:0:0:50:soft-hitclap.wav
182,192,147858,1,0,0:0:0:0:
402,192,147858,1,0,0:0:0:0:
256,192,147943,1,0,0:0:0:0:
475,192,148029,1,0,0:0:0:50:soft-hitclap.wav
109,192,148029,1,0,0:0:0:0:
329,192,148029,1,0,0:0:0:0:
182,192,148115,1,0,0:0:0:0:
36,192,148201,1,4,0:0:0:0:
109,192,148201,1,2,0:0:0:0:
256,192,148201,128,0,149229:0:0:0:0:
329,192,148201,1,0,0:0:0:0:
475,192,148201,1,0,0:0:0:0:
182,192,148372,1,0,0:0:0:0:
329,192,148543,1,0,0:0:0:50:LR_Clap hollow echo.wav
475,192,148543,1,0,0:0:0:0:
109,192,148715,1,0,0:0:0:0:
329,192,148886,1,0,0:0:0:50:LR_Clap hollow echo.wav
475,192,148886,1,0,0:0:0:0:
182,192,149058,1,0,0:0:0:0:
329,192,149229,1,0,0:0:0:50:LR_Clap hollow echo.wav
475,192,149229,1,0,0:0:0:0:
109,192,149401,1,0,0:0:0:0:
402,192,149572,128,0,149658:0:0:0:50:LR_Clap hollow echo.wav
475,192,149572,128,0,149658:0:0:0:0:
109,192,149743,1,0,0:0:0:0:
36,192,149915,128,0,150943:0:0:0:50:LR_Clap hollow echo.wav
402,192,149915,1,0,0:0:0:0:
475,192,149915,1,0,0:0:0:0:
182,192,150086,1,0,0:0:0:0:
109,192,150258,128,0,150943:0:0:0:50:LR_Clap hollow echo.wav
329,192,150258,128,0,150343:0:0:0:0:
475,192,150258,128,0,150343:0:0:0:0:
256,192,150429,1,0,0:0:0:0:
182,192,150601,128,0,150943:0:0:0:50:LR_Clap hollow echo.wav
402,192,150601,1,0,0:0:0:0:
475,192,150601,1,0,0:0:0:0:
329,192,150772,1,0,0:0:0:0:
329,192,150943,128,0,151972:0:0:0:50:LR_Clap hollow echo.wav
402,192,150943,128,0,151029:0:0:0:0:
475,192,150943,128,0,151029:0:0:0:0:
256,192,151115,1,0,0:0:0:0:
36,192,151286,1,0,0:0:0:50:LR_Clap hollow echo.wav
182,192,151286,1,0,0:0:0:0:
402,192,151458,1,0,0:0:0:0:
36,192,151629,1,0,0:0:0:50:LR_Clap hollow echo.wav
182,192,151629,1,0,0:0:0:0:
475,192,151629,128,0,152658:0:0:0:0:
256,192,151801,1,0,0:0:0:0:
36,192,151972,1,0,0:0:0:50:LR_Clap hollow echo.wav
182,192,151972,1,0,0:0:0:0:
402,192,151972,128,0,153001:0:0:0:0:
256,192,152143,1,0,0:0:0:0:
36,192,152315,128,0,152401:0:0:0:50:LR_Clap hollow echo.wav
109,192,152315,128,0,152401:0:0:0:0:
329,192,152315,128,0,153686:0:0:0:0:
182,192,152486,1,0,0:0:0:0:
36,192,152658,1,0,0:0:0:50:LR_Clap hollow echo.wav
109,192,152658,1,0,0:0:0:0:
256,192,152829,1,0,0:0:0:0:
36,192,153001,1,0,0:0:0:50:LR_Clap hollow echo.wav
475,192,153001,128,0,153686:0:0:0:0:
109,192,153029,1,0,0:0:0:0:
182,192,153058,1,0,0:0:0:0:
402,192,153172,1,0,0:0:0:0:
36,192,153343,1,0,0:0:0:50:LR_Clap hollow echo.wav
109,192,153372,1,0,0:0:0:0:
182,192,153401,1,0,0:0:0:0:
402,192,153515,1,0,0:0:0:0:
36,192,153686,128,0,154886:0:0:0:50:LR_Clap hollow echo.wav
109,192,153686,128,0,153772:0:0:0:0:
256,192,153686,128,0,153772:0:0:0:0:
329,192,153858,1,0,0:0:0:0:
402,192,154029,1,0,0:0:0:50:LR_Clap hollow echo.wav
475,192,154029,1,0,0:0:0:0:
182,192,154201,1,0,0:0:0:0:
402,192,154372,1,0,0:0:0:50:LR_Clap hollow echo.wav
475,192,154372,1,0,0:0:0:0:
329,192,154543,1,0,0:0:0:0:
402,192,154715,1,0,0:0:0:50:LR_Clap hollow echo.wav
475,192,154715,1,0,0:0:0:0:
182,192,154886,1,0,0:0:0:0:
329,192,155058,128,0,155143:0:0:0:50:LR_Clap hollow echo.wav
475,192,155058,128,0,155143:0:0:0:0:
36,192,155229,1,0,0:0:0:0:
182,192,155401,128,0,156086:0:0:0:50:LR_Clap hollow echo.wav
329,192,155401,1,0,0:0:0:0:
475,192,155401,1,0,0:0:0:0:
256,192,155572,1,0,0:0:0:0:
109,192,155743,128,0,156429:0:0:0:50:LR_Clap hollow echo.wav
402,192,155743,128,0,155829:0:0:0:0:
475,192,155743,128,0,155829:0:0:0:0:
256,192,155915,1,0,0:0:0:0:
36,192,156086,128,0,156429:0:0:0:50:LR_Clap hollow echo.wav
329,192,156086,1,0,0:0:0:0:
475,192,156086,1,0,0:0:0:0:
402,192,156258,1,0,0:0:0:0:
182,192,156429,128,0,156515:0:0:0:50:LR_Clap hollow echo.wav
256,192,156429,128,0,156515:0:0:0:0:
475,192,156429,128,0,157115:0:0:0:0:
329,192,156601,1,0,0:0:0:0:
36,192,156772,1,0,0:0:0:50:LR_Clap hollow echo.wav
109,192,156772,1,0,0:0:0:0:
402,192,156772,128,0,157458:0:0:0:0:
256,192,156943,1,0,0:0:0:0:
36,192,157115,1,0,0:0:0:50:LR_Clap hollow echo.wav
109,192,157115,1,0,0:0:0:0:
329,192,157115,128,0,158486:0:0:0:0:
182,192,157286,1,0,0:0:0:0:
36,192,157458,1,0,0:0:0:50:LR_Clap hollow echo.wav
109,192,157458,1,0,0:0:0:0:
475,192,157458,128,0,157801:0:0:0:0:
256,192,157629,1,0,0:0:0:0:
36,192,157801,128,0,157886:0:0:0:50:LR_Clap hollow echo.wav
182,192,157801,128,0,157886:0:0:0:0:
402,192,157801,128,0,158143:0:0:0:0:
109,192,157972,1,0,0:0:0:0:
36,192,158143,1,0,0:0:0:50:LR_Clap hollow echo.wav
182,192,158143,1,0,0:0:0:0:
475,192,158143,128,0,158829:0:0:0:0:
256,192,158315,1,0,0:0:0:0:
36,192,158486,128,0,158572:0:0:0:50:LR_Clap hollow echo.wav
109,192,158486,128,0,158572:0:0:0:0:
402,192,158486,128,0,159172:0:0:0:0:
256,192,158658,1,0,0:0:0:0:
36,192,158829,1,0,0:0:0:50:LR_Clap hollow echo.wav
182,192,158829,1,0,0:0:0:0:
329,192,158829,128,0,159172:0:0:0:0:
109,192,159001,1,0,0:0:0:0:
256,192,159001,1,0,0:0:0:0:
182,192,159086,1,0,0:0:0:0:
36,192,159172,1,2,0:0:0:0:
109,192,159172,1,4,0:0:0:0:
256,192,159172,1,0,0:0:0:0:
475,192,159172,1,0,0:0:0:0:
329,192,159343,1,0,0:0:0:0:
256,192,159429,1,0,0:0:0:0:
36,192,159515,128,2,159686:0:0:0:0:
182,192,159515,1,0,0:0:0:0:
475,192,159515,1,0,0:0:0:0:
402,192,159686,1,0,0:0:0:0:
329,192,159772,1,0,0:0:0:0:
36,192,159858,1,2,0:0:0:0:
109,192,159858,128,0,160029:0:0:0:0:
256,192,159858,1,0,0:0:0:0:
475,192,160029,1,0,0:0:0:0:
402,192,160115,1,0,0:0:0:0:
109,192,160201,1,2,0:0:0:0:
182,192,160201,128,0,160372:0:0:0:0:
329,192,160201,1,0,0:0:0:0:
475,192,160286,1,0,0:0:0:0:
329,192,160372,1,0,0:0:0:0:
475,192,160458,1,0,0:0:0:0:
36,192,160543,1,2,0:0:0:0:
109,192,160543,1,0,0:0:0:0:
256,192,160543,1,0,0:0:0:0:
329,192,160715,1,0,0:0:0:0:
256,192,160801,1,0,0:0:0:0:
36,192,160886,128,2,161058:0:0:0:0:
182,192,160886,1,0,0:0:0:0:
475,192,160886,1,0,0:0:0:0:
402,192,161058,1,0,0:0:0:0:
329,192,161143,1,0,0:0:0:0:
36,192,161229,1,2,0:0:0:0:
109,192,161229,128,0,161401:0:0:0:0:
256,192,161229,1,0,0:0:0:0:
475,192,161401,1,0,0:0:0:0:
402,192,161486,1,0,0:0:0:0:
109,192,161572,1,2,0:0:0:0:
182,192,161572,128,0,161743:0:0:0:0:
329,192,161572,1,0,0:0:0:0:
475,192,161658,1,0,0:0:0:0:
329,192,161743,1,0,0:0:0:0:
475,192,161829,1,0,0:0:0:0:
36,192,161915,1,2,0:0:0:0:
109,192,161915,1,0,0:0:0:0:
256,192,161915,1,0,0:0:0:0:
329,192,162086,1,0,0:0:0:0:
256,192,162172,1,0,0:0:0:0:
36,192,162258,128,2,162429:0:0:0:0:
182,192,162258,1,0,0:0:0:0:
475,192,162258,1,0,0:0:0:0:
402,192,162429,1,0,0:0:0:0:
329,192,162515,1,0,0:0:0:0:
36,192,162601,1,2,0:0:0:0:
109,192,162601,128,0,162772:0:0:0:0:
256,192,162601,1,0,0:0:0:0:
402,192,162686,1,0,0:0:0:0:
475,192,162772,1,0,0:0:0:0:
109,192,162943,1,2,0:0:0:0:
182,192,162943,128,0,163115:0:0:0:0:
329,192,162943,1,0,0:0:0:0:
475,192,163029,1,0,0:0:0:0:
329,192,163115,1,0,0:0:0:0:
475,192,163201,1,0,0:0:0:0:
36,192,163286,1,2,0:0:0:0:
109,192,163286,128,0,163458:0:0:0:0:
256,192,163286,1,0,0:0:0:0:
329,192,163458,1,0,0:0:0:0:
402,192,163543,1,0,0:0:0:0:
36,192,163629,128,2,163801:0:0:0:0:
182,192,163629,1,0,0:0:0:0:
475,192,163629,1,0,0:0:0:0:
256,192,163801,1,0,0:0:0:0:
329,192,163886,1,0,0:0:0:0:
109,192,163972,1,2,0:0:0:0:
402,192,163972,1,0,0:0:0:0:
475,192,163972,128,0,164143:0:0:0:0:
182,192,164143,1,0,0:0:0:0:
36,192,164315,1,2,0:0:0:0:
329,192,164315,1,0,0:0:0:0:
402,192,164315,128,0,164486:0:0:0:0:
182,192,164401,1,0,0:0:0:0:
36,192,164486,1,0,0:0:0:0:
182,192,164572,1,0,0:0:0:0:
36,192,164658,1,2,0:0:0:0:
329,192,164658,1,0,0:0:0:0:
475,192,164658,1,0,0:0:0:0:
256,192,164743,1,0,0:0:0:0:
109,192,164829,1,0,0:0:0:0:
182,192,164829,1,0,0:0:0:0:
329,192,164915,1,0,0:0:0:0:
36,192,165001,1,2,0:0:0:0:
182,192,165001,1,0,0:0:0:0:
475,192,165001,1,0,0:0:0:0:
256,192,165086,1,0,0:0:0:0:
329,192,165172,1,0,0:0:0:0:
402,192,165172,1,0,0:0:0:0:
182,192,165258,1,0,0:0:0:0:
36,192,165343,1,2,0:0:0:0:
329,192,165343,1,0,0:0:0:0:
475,192,165343,1,0,0:0:0:0:
256,192,165429,1,0,0:0:0:0:
109,192,165515,1,0,0:0:0:0:
182,192,165515,1,0,0:0:0:0:
329,192,165601,1,0,0:0:0:0:
36,192,165686,1,2,0:0:0:0:
182,192,165686,1,0,0:0:0:0:
475,192,165686,1,0,0:0:0:0:
256,192,165772,1,0,0:0:0:0:
109,192,165858,1,0,0:0:0:0:
402,192,165858,1,0,0:0:0:0:
329,192,165943,1,0,0:0:0:0:
36,192,166029,1,2,0:0:0:0:
182,192,166029,1,0,0:0:0:0:
475,192,166029,1,0,0:0:0:0:
256,192,166115,1,0,0:0:0:0:
329,192,166201,1,0,0:0:0:0:
402,192,166201,1,0,0:0:0:0:
182,192,166286,1,0,0:0:0:0:
36,192,166372,1,2,0:0:0:0:
329,192,166372,1,0,0:0:0:0:
475,192,166372,1,0,0:0:0:0:
256,192,166458,1,0,0:0:0:0:
109,192,166543,1,0,0:0:0:0:
182,192,166543,1,0,0:0:0:0:
329,192,166629,1,0,0:0:0:0:
36,192,166715,1,2,0:0:0:0:
182,192,166715,1,0,0:0:0:0:
475,192,166715,1,0,0:0:0:0:
256,192,166801,1,0,0:0:0:0:
329,192,166886,1,0,0:0:0:0:
402,192,166886,1,0,0:0:0:0:
182,192,166972,1,0,0:0:0:0:
36,192,167058,1,2,0:0:0:0:
329,192,167058,1,0,0:0:0:0:
475,192,167058,1,0,0:0:0:0:
256,192,167143,1,0,0:0:0:0:
109,192,167229,1,0,0:0:0:0:
182,192,167229,1,0,0:0:0:0:
329,192,167315,1,0,0:0:0:0:
36,192,167401,1,2,0:0:0:0:
109,192,167401,1,4,0:0:0:0:
182,192,167401,1,0,0:0:0:0:
475,192,167486,1,0,0:0:0:0:
402,192,167486,1,0,0:0:0:0:
36,192,167572,1,2,0:0:0:0:
109,192,167572,1,0,0:0:0:0:
256,192,167572,1,0,0:0:0:0:
402,192,167658,1,0,0:0:0:0:
475,192,167658,1,0,0:0:0:0:
36,192,167743,1,2,0:0:0:0:
109,192,167743,1,0,0:0:0:0:
329,192,167743,1,0,0:0:0:0:
402,192,167829,1,0,0:0:0:0:
475,192,167829,1,0,0:0:0:0:
182,192,167915,1,2,0:0:0:0:
109,192,167915,1,0,0:0:0:0:
36,192,167915,1,0,0:0:0:0:
402,192,168001,1,0,0:0:0:0:
475,192,168001,1,0,0:0:0:0:
36,192,168086,1,2,0:0:0:0:
329,192,168086,1,0,0:0:0:0:
109,192,168086,1,0,0:0:0:0:
475,192,168172,1,0,0:0:0:0:
402,192,168172,1,0,0:0:0:0:
256,192,168258,1,0,0:0:0:0:
36,192,168258,1,2,0:0:0:0:
109,192,168258,1,0,0:0:0:0:
402,192,168343,1,0,0:0:0:0:
475,192,168343,1,0,0:0:0:0:
182,192,168429,1,2,0:0:0:0:
109,192,168429,1,0,0:0:0:0:
36,192,168429,1,0,0:0:0:0:
402,192,168515,1,0,0:0:0:0:
475,192,168515,1,0,0:0:0:0:
109,192,168601,5,0,0:0:0:0:
329,192,168601,1,2,0:0:0:0:
36,192,168601,1,0,0:0:0:0:
475,192,168686,1,0,0:0:0:0:
402,192,168686,1,0,0:0:0:0:
109,192,168772,128,4,169072:0:0:0:0:
182,192,168772,128,0,169029:0:0:0:0:
256,192,168772,128,0,168986:0:0:0:0:
36,192,168772,128,2,169115:0:0:0:0:
402,192,169115,128,0,169286:0:0:0:0:
402,192,169458,128,0,169801:0:0:0:0:
109,192,169801,128,0,170143:0:0:0:0:
256,192,169801,128,0,170143:0:0:0:0:
36,192,170143,1,4,0:0:0:0:
329,192,170143,128,2,170486:0:0:0:0:
402,192,170143,128,0,170829:0:0:0:0:
475,192,170143,128,0,170829:0:0:0:0:
182,192,170315,128,0,170486:0:0:0:0:
36,192,170486,128,0,170829:0:0:0:0:
182,192,170658,128,0,170829:0:0:0:0:
256,192,170829,128,0,171172:0:0:0:0:
109,192,171001,128,0,171172:0:0:0:0:
329,192,171172,128,0,171686:0:0:0:0:
182,192,171343,128,0,171686:0:0:0:0:
36,192,171429,128,0,171686:0:0:0:0:
402,192,171515,128,0,171858:0:0:0:0:
475,192,171515,128,0,171858:0:0:0:0:
256,192,171686,128,0,171858:0:0:0:0:
36,192,171858,128,0,172372:0:0:0:0:
182,192,172029,128,0,172372:0:0:0:0:
402,192,172029,128,0,172201:0:0:0:0:
475,192,172029,128,0,172201:0:0:0:0:
329,192,172372,128,0,172543:0:0:0:0:
182,192,172543,128,0,172886:0:0:0:0:
475,192,172629,128,0,172715:0:0:0:0:
329,192,172715,128,0,172886:0:0:0:0:
402,192,172801,128,0,172886:0:0:0:0:
36,192,172886,128,0,173572:0:0:0:0:
109,192,172886,128,0,173572:0:0:0:0:
475,192,172886,128,0,173229:0:0:0:0:
329,192,173058,128,0,173229:0:0:0:0:
256,192,173229,128,0,173401:0:0:0:0:
402,192,173401,128,0,173743:0:0:0:0:
256,192,173572,128,0,173743:0:0:0:0:
109,192,173743,128,0,174086:0:0:0:0:
256,192,173915,128,0,174429:0:0:0:0:
475,192,174086,128,0,174429:0:0:0:0:
36,192,174258,128,0,174601:0:0:0:0:
182,192,174258,128,0,174601:0:0:0:0:
329,192,174429,128,0,174601:0:0:0:0:
402,192,174601,128,0,174943:0:0:0:0:
36,192,174772,128,0,174943:0:0:0:0:
182,192,174772,128,0,174943:0:0:0:0:
256,192,174772,128,0,174943:0:0:0:0:
329,192,174943,128,0,175286:0:0:0:0:
182,192,175115,128,0,175286:0:0:0:0:
36,192,175286,128,0,175372:0:0:0:0:
402,192,175286,128,0,175629:0:0:0:0:
109,192,175372,128,0,175458:0:0:0:0:
182,192,175458,128,0,175543:0:0:0:0:
256,192,175543,128,0,175629:0:0:0:0:
36,192,175629,128,0,175972:0:0:0:0:
109,192,175629,1,0,0:0:0:0:
329,192,175629,128,0,176315:0:0:0:0:
475,192,175629,128,0,176315:0:0:0:0:
182,192,175801,128,0,175972:0:0:0:0:
109,192,175972,128,0,176315:0:0:0:0:
402,192,175972,1,0,0:0:0:0:
256,192,176143,128,0,176315:0:0:0:0:
36,192,176315,1,0,0:0:0:50:LR_Clap hollow echo.wav
182,192,176315,128,0,176658:0:0:0:0:
402,192,176315,1,0,0:0:0:0:
36,192,176486,128,0,176658:0:0:0:0:
256,192,176658,128,0,177172:0:0:0:0:
402,192,176658,1,0,0:0:0:0:
109,192,176829,128,0,177172:0:0:0:0:
329,192,177001,128,0,177343:0:0:0:0:
402,192,177001,128,0,177343:0:0:0:0:
475,192,177001,1,0,0:0:0:0:
182,192,177172,128,0,177343:0:0:0:0:
36,192,177343,128,0,177858:0:0:0:0:
256,192,177343,1,0,0:0:0:0:
109,192,177515,128,0,177858:0:0:0:0:
329,192,177515,128,0,177686:0:0:0:0:
402,192,177515,128,0,177686:0:0:0:0:
182,192,177686,1,0,0:0:0:50:LR_Clap hollow echo.wav
256,192,177686,1,0,0:0:0:0:
329,192,177858,128,0,178029:0:0:0:0:
402,192,177858,128,0,178201:0:0:0:0:
475,192,177858,128,0,178201:0:0:0:0:
36,192,178029,1,0,0:0:0:0:
182,192,178029,128,0,178372:0:0:0:0:
329,192,178201,128,0,178372:0:0:0:0:
36,192,178372,128,0,178886:0:0:0:0:
109,192,178372,128,0,178886:0:0:0:0:
256,192,178372,1,0,0:0:0:0:
475,192,178372,128,0,178715:0:0:0:0:
329,192,178543,128,0,178715:0:0:0:0:
182,192,178715,1,0,0:0:0:0:
256,192,178715,128,0,178886:0:0:0:0:
402,192,178886,128,0,179058:0:0:0:0:
36,192,179058,128,0,179572:0:0:0:50:LR_Clap hollow echo.wav
109,192,179058,1,0,0:0:0:0:
182,192,179058,128,0,179572:0:0:0:0:
475,192,179058,128,0,179229:0:0:0:0:
329,192,179229,128,0,179915:0:0:0:0:
256,192,179401,1,0,0:0:0:0:
402,192,179401,128,0,179915:0:0:0:0:
475,192,179572,128,0,179915:0:0:0:0:
109,192,179743,128,0,180258:0:0:0:0:
182,192,179743,128,0,180258:0:0:0:0:
256,192,179743,128,0,180429:0:0:0:0:
402,192,180086,128,0,180258:0:0:0:0:
475,192,180086,1,0,0:0:0:0:
36,192,180429,128,2,180943:0:0:0:0:
109,192,180429,128,0,180943:0:0:0:0:
329,192,180429,1,0,0:0:0:0:
475,192,180429,128,0,180601:0:0:0:0:
182,192,180601,1,0,0:0:0:0:
256,192,180772,128,0,181115:0:0:0:0:
402,192,180772,1,0,0:0:0:0:
36,192,181115,128,2,181201:0:0:0:0:
182,192,181115,128,4,181201:0:0:0:0:
329,192,181115,1,0,0:0:0:0:
402,192,181115,1,0,0:0:0:0:
475,192,181115,1,0,0:0:0:0:
109,192,181286,1,0,0:0:0:0:
402,192,181286,1,0,0:0:0:0:
329,192,181372,1,0,0:0:0:0:
36,192,181458,128,0,181543:0:0:0:50:LR_Clap hollow echo.wav
256,192,181458,128,0,181543:0:0:0:0:
475,192,181458,1,0,0:0:0:0:
109,192,181629,128,0,181715:0:0:0:0:
329,192,181629,128,0,181715:0:0:0:0:
182,192,181801,128,0,181972:0:0:0:50:LR_Clap hollow echo.wav
402,192,181801,128,0,181972:0:0:0:0:
475,192,181801,1,0,0:0:0:0:
36,192,181972,1,0,0:0:0:0:
256,192,181972,1,0,0:0:0:0:
109,192,182058,1,0,0:0:0:0:
329,192,182143,1,0,0:0:0:50:LR_Clap hollow echo.wav
402,192,182143,128,0,182315:0:0:0:0:
475,192,182143,128,0,182315:0:0:0:0:
182,192,182229,1,0,0:0:0:0:
36,192,182315,128,0,182486:0:0:0:0:
109,192,182315,128,0,182486:0:0:0:0:
329,192,182401,1,0,0:0:0:0:
182,192,182486,1,0,0:0:0:50:LR_Clap hollow echo.wav
256,192,182486,1,0,0:0:0:0:
475,192,182486,1,0,0:0:0:0:
109,192,182658,1,0,0:0:0:0:
402,192,182658,1,0,0:0:0:0:
36,192,182829,1,0,0:0:0:50:LR_Clap hollow echo.wav
182,192,182829,128,0,183001:0:0:0:0:
256,192,182829,128,0,183001:0:0:0:0:
402,192,183001,128,0,183172:0:0:0:0:
475,192,183001,128,0,183172:0:0:0:0:
36,192,183172,1,0,0:0:0:50:LR_Clap hollow echo.wav
109,192,183172,1,0,0:0:0:0:
329,192,183172,1,0,0:0:0:0:
182,192,183343,128,0,183429:0:0:0:0:
329,192,183343,128,0,183429:0:0:0:0:
402,192,183429,1,0,0:0:0:0:
36,192,183515,1,0,0:0:0:50:LR_Clap hollow echo.wav
109,192,183515,128,0,183601:0:0:0:0:
256,192,183515,128,0,183601:0:0:0:0:
475,192,183601,1,0,0:0:0:0:
182,192,183686,128,0,183772:0:0:0:0:
329,192,183686,128,0,183772:0:0:0:0:
109,192,183772,1,0,0:0:0:0:
256,192,183858,128,0,183943:0:0:0:50:LR_Clap hollow echo.wav
402,192,183858,128,0,183943:0:0:0:0:
475,192,183858,1,0,0:0:0:0:
182,192,184029,128,0,184115:0:0:0:0:
329,192,184029,1,0,0:0:0:0:
402,192,184115,1,0,0:0:0:0:
36,192,184201,128,0,184372:0:0:0:50:LR_Clap hollow echo.wav
109,192,184201,128,0,184372:0:0:0:0:
475,192,184201,1,0,0:0:0:0:
256,192,184372,128,0,184543:0:0:0:0:
402,192,184372,128,0,184543:0:0:0:0:
36,192,184543,128,0,184715:0:0:0:50:LR_Clap hollow echo.wav
109,192,184543,128,0,184715:0:0:0:0:
475,192,184543,1,0,0:0:0:0:
182,192,184715,128,0,184886:0:0:0:0:
329,192,184715,128,0,184886:0:0:0:0:
36,192,184886,128,0,185058:0:0:0:50:LR_Clap hollow echo.wav
109,192,184886,128,0,185058:0:0:0:0:
402,192,184886,1,0,0:0:0:0:
329,192,185058,128,0,185229:0:0:0:0:
475,192,185058,128,0,185229:0:0:0:0:
36,192,185229,1,0,0:0:0:50:LR_Clap hollow echo.wav
256,192,185229,1,0,0:0:0:0:
402,192,185229,1,0,0:0:0:0:
182,192,185401,1,0,0:0:0:0:
475,192,185401,1,0,0:0:0:0:
36,192,185572,1,0,0:0:0:50:LR_Clap hollow echo.wav
256,192,185572,128,0,185743:0:0:0:0:
402,192,185572,128,0,185743:0:0:0:0:
109,192,185743,1,0,0:0:0:0:
475,192,185743,1,0,0:0:0:0:
36,192,185915,1,0,0:0:0:50:LR_Clap hollow echo.wav
182,192,185915,128,0,186086:0:0:0:0:
329,192,185915,128,0,186086:0:0:0:0:
256,192,186086,1,0,0:0:0:0:
475,192,186086,1,0,0:0:0:0:
36,192,186258,1,0,0:0:0:50:LR_Clap hollow echo.wav
329,192,186258,128,0,186515:0:0:0:0:
402,192,186258,128,0,186515:0:0:0:0:
109,192,186343,1,0,0:0:0:0:
256,192,186429,1,0,0:0:0:0:
182,192,186515,1,0,0:0:0:0:
36,192,186601,1,2,0:0:0:0:
109,192,186601,1,4,0:0:0:0:
329,192,186601,1,0,0:0:0:0:
402,192,186601,1,0,0:0:0:0:
475,192,186601,1,0,0:0:0:0:
182,192,186772,1,0,0:0:0:0:
256,192,186772,1,0,0:0:0:0:
402,192,186772,1,0,0:0:0:0:
36,192,186943,128,2,187029:0:0:0:0:
182,192,186943,128,0,187029:0:0:0:0:
329,192,186943,1,0,0:0:0:0:
475,192,186943,1,0,0:0:0:0:
109,192,187115,1,0,0:0:0:0:
256,192,187115,128,0,187201:0:0:0:0:
402,192,187115,128,0,187201:0:0:0:0:
36,192,187286,1,2,0:0:0:0:
182,192,187286,1,0,0:0:0:0:
329,192,187286,1,0,0:0:0:0:
475,192,187286,1,0,0:0:0:0:
109,192,187458,128,0,187543:0:0:0:0:
256,192,187458,128,0,187543:0:0:0:0:
402,192,187458,1,0,0:0:0:0:
36,192,187629,1,2,0:0:0:0:
182,192,187629,1,0,0:0:0:0:
402,192,187629,128,0,187715:0:0:0:0:
475,192,187629,128,0,187715:0:0:0:0:
109,192,187801,1,0,0:0:0:0:
256,192,187801,1,0,0:0:0:0:
329,192,187801,1,0,0:0:0:0:
182,192,187972,1,2,0:0:0:0:
329,192,187972,128,0,188058:0:0:0:0:
475,192,187972,128,0,188058:0:0:0:0:
36,192,188143,128,0,188229:0:0:0:0:
182,192,188143,128,0,188229:0:0:0:0:
402,192,188143,1,0,0:0:0:0:
36,192,188315,1,2,0:0:0:0:
256,192,188315,1,0,0:0:0:0:
329,192,188315,1,0,0:0:0:0:
475,192,188315,1,0,0:0:0:0:
109,192,188486,1,0,0:0:0:0:
329,192,188486,128,0,188572:0:0:0:0:
402,192,188486,128,0,188572:0:0:0:0:
36,192,188658,128,2,188743:0:0:0:0:
182,192,188658,128,0,188743:0:0:0:0:
475,192,188658,1,0,0:0:0:0:
109,192,188829,1,0,0:0:0:0:
329,192,188829,128,0,188915:0:0:0:0:
402,192,188829,128,0,188915:0:0:0:0:
36,192,189001,128,2,189086:0:0:0:0:
182,192,189001,128,0,189086:0:0:0:0:
256,192,189001,1,0,0:0:0:0:
475,192,189001,1,0,0:0:0:0:
329,192,189172,1,0,0:0:0:0:
402,192,189172,128,0,189258:0:0:0:0:
475,192,189172,128,0,189258:0:0:0:0:
36,192,189343,1,2,0:0:0:0:
109,192,189343,1,4,0:0:0:0:
256,192,189343,1,0,0:0:0:0:
402,192,189343,1,0,0:0:0:0:
475,192,189343,1,0,0:0:0:0:
329,192,189429,1,0,0:0:0:0:
182,192,189515,1,0,0:0:0:0:
329,192,189601,1,0,0:0:0:0:
36,192,189686,1,2,0:0:0:0:
109,192,189686,1,4,0:0:0:0:
402,192,189686,1,0,0:0:0:0:
475,192,189686,1,0,0:0:0:0:
256,192,189772,1,0,0:0:0:0:
36,192,189858,1,2,0:0:0:0:
109,192,189858,1,4,0:0:0:0:
402,192,189858,1,0,0:0:0:0:
475,192,189858,1,0,0:0:0:0:
182,192,189943,1,0,0:0:0:0:
329,192,190029,1,0,0:0:0:0:
256,192,190115,1,0,0:0:0:0:
36,192,190201,1,2,0:0:0:0:
109,192,190201,1,4,0:0:0:0:
402,192,190201,1,0,0:0:0:0:
475,192,190201,1,0,0:0:0:0:
329,192,190286,1,0,0:0:0:0:
36,192,190372,1,2,0:0:0:0:
109,192,190372,1,4,0:0:0:0:
402,192,190372,1,0,0:0:0:0:
475,192,190372,1,0,0:0:0:0:
182,192,190458,1,0,0:0:0:0:
36,192,190543,1,2,0:0:0:0:
109,192,190543,1,4,0:0:0:0:
402,192,190543,1,0,0:0:0:0:
475,192,190543,1,0,0:0:0:0:
329,192,190629,1,0,0:0:0:0:
36,192,190715,1,2,0:0:0:0:
182,192,190715,1,0,0:0:0:0:
256,192,190715,1,0,0:0:0:0:
36,192,190886,1,2,0:0:0:0:
182,192,190886,1,0,0:0:0:0:
256,192,191058,1,0,0:0:0:50:LR_Clap hollow echo.wav
329,192,191058,1,0,0:0:0:0:
475,192,191058,1,0,0:0:0:0:
109,192,191229,1,2,0:0:0:0:
182,192,191229,1,0,0:0:0:0:
329,192,191315,1,0,0:0:0:0:
475,192,191315,1,0,0:0:0:0:
109,192,191401,1,0,0:0:0:50:LR_Clap hollow echo.wav
182,192,191401,1,0,0:0:0:0:
329,192,191486,1,0,0:0:0:0:
475,192,191486,1,0,0:0:0:0:
36,192,191572,1,2,0:0:0:0:
182,192,191572,1,0,0:0:0:0:
256,192,191572,1,0,0:0:0:0:
36,192,191743,1,0,0:0:0:50:soft-hitclap.wav
109,192,191743,1,0,0:0:0:0:
256,192,191743,1,0,0:0:0:0:
402,192,191743,1,0,0:0:0:0:
475,192,191743,1,0,0:0:0:0:
36,192,192086,128,2,192258:0:0:0:0:
109,192,192086,128,4,192258:0:0:0:0:
182,192,192086,1,0,0:0:0:0:
329,192,192086,128,0,192258:0:0:0:0:
475,192,192086,128,0,192258:0:0:0:0:
256,192,192258,128,0,192601:0:0:0:0:
402,192,192258,128,0,192429:0:0:0:0:
36,192,192429,128,0,192772:0:0:0:50:soft-hitclap.wav
109,192,192429,1,0,0:0:0:0:
182,192,192429,128,0,192601:0:0:0:0:
475,192,192429,1,0,0:0:0:0:
329,192,192601,128,0,192943:0:0:0:0:
475,192,192601,128,0,192772:0:0:0:0:
109,192,192772,128,2,193115:0:0:0:0:
182,192,192772,1,0,0:0:0:0:
256,192,192772,128,0,192943:0:0:0:0:
402,192,192943,128,0,193115:0:0:0:0:
36,192,193115,1,0,0:0:0:50:soft-hitclap.wav
256,192,193115,1,0,0:0:0:0:
329,192,193115,128,0,193458:0:0:0:0:
475,192,193115,128,0,193458:0:0:0:0:
36,192,193286,128,0,193801:0:0:0:0:
182,192,193286,128,0,193801:0:0:0:0:
256,192,193458,1,2,0:0:0:0:
109,192,193458,1,0,0:0:0:0:
402,192,193458,1,0,0:0:0:0:
329,192,193629,1,0,0:0:0:0:
256,192,193801,128,0,193972:0:0:0:50:soft-hitclap.wav
109,192,193801,1,0,0:0:0:0:
402,192,193801,128,0,194143:0:0:0:0:
475,192,193801,1,0,0:0:0:0:
36,192,193972,128,0,194315:0:0:0:0:
182,192,193972,128,0,194315:0:0:0:0:
109,192,194143,1,2,0:0:0:0:
256,192,194143,1,0,0:0:0:0:
475,192,194143,1,0,0:0:0:0:
329,192,194315,128,0,194486:0:0:0:0:
402,192,194315,128,0,194486:0:0:0:0:
36,192,194486,1,0,0:0:0:50:soft-hitclap.wav
109,192,194486,128,0,194658:0:0:0:0:
182,192,194486,128,0,194658:0:0:0:0:
475,192,194486,1,0,0:0:0:0:
329,192,194658,128,0,195001:0:0:0:0:
402,192,194658,128,0,194829:0:0:0:0:
36,192,194829,128,2,195001:0:0:0:0:
182,192,194829,128,0,195001:0:0:0:0:
256,192,194829,1,0,0:0:0:0:
475,192,195001,128,0,195172:0:0:0:0:
36,192,195172,128,0,195343:0:0:0:50:soft-hitclap.wav
109,192,195172,128,0,195343:0:0:0:0:
256,192,195172,1,0,0:0:0:0:
402,192,195172,1,0,0:0:0:0:
329,192,195343,128,0,195515:0:0:0:0:
475,192,195343,128,0,195686:0:0:0:0:
36,192,195515,128,2,195686:0:0:0:0:
109,192,195515,128,0,195686:0:0:0:0:
182,192,195515,1,0,0:0:0:0:
256,192,195686,128,0,195858:0:0:0:0:
36,192,195858,128,0,196029:0:0:0:50:soft-hitclap.wav
182,192,195858,1,0,0:0:0:0:
402,192,195858,1,0,0:0:0:0:
475,192,195858,1,0,0:0:0:0:
182,192,196029,128,0,196372:0:0:0:0:
329,192,196029,128,0,196372:0:0:0:0:
36,192,196201,1,2,0:0:0:0:
109,192,196201,1,0,0:0:0:0:
402,192,196201,1,0,0:0:0:0:
475,192,196372,128,0,196543:0:0:0:0:
36,192,196543,1,0,0:0:0:50:soft-hitclap.wav
109,192,196543,128,0,196715:0:0:0:0:
256,192,196543,128,0,196886:0:0:0:0:
329,192,196543,1,0,0:0:0:0:
402,192,196715,128,0,196886:0:0:0:0:
36,192,196886,128,2,197058:0:0:0:0:
182,192,196886,128,0,197229:0:0:0:0:
475,192,196886,1,0,0:0:0:0:
329,192,197058,128,0,197229:0:0:0:0:
36,192,197229,1,0,0:0:0:50:soft-hitclap.wav
109,192,197229,128,0,197572:0:0:0:0:
402,192,197229,128,0,197572:0:0:0:0:
475,192,197229,1,0,0:0:0:0:
256,192,197401,128,0,197572:0:0:0:0:
36,192,197572,128,2,197743:0:0:0:0:
182,192,197572,128,0,197915:0:0:0:0:
475,192,197572,1,0,0:0:0:0:
329,192,197743,128,0,197915:0:0:0:0:
402,192,197743,128,0,197915:0:0:0:0:
36,192,197915,1,0,0:0:0:50:soft-hitclap.wav
109,192,197915,128,0,198086:0:0:0:0:
256,192,197915,128,0,198258:0:0:0:0:
475,192,197915,1,0,0:0:0:0:
402,192,198086,128,0,198258:0:0:0:0:
475,192,198086,128,0,198258:0:0:0:0:
182,192,198258,128,2,198429:0:0:0:0:
329,192,198258,128,0,198601:0:0:0:0:
109,192,198258,1,0,0:0:0:0:
36,192,198429,128,0,198601:0:0:0:0:
109,192,198601,1,0,0:0:0:50:soft-hitclap.wav
256,192,198601,1,0,0:0:0:0:
402,192,198601,128,0,198772:0:0:0:0:
475,192,198601,128,0,198943:0:0:0:0:
36,192,198772,128,0,199286:0:0:0:0:
182,192,198772,128,0,199286:0:0:0:0:
109,192,198943,1,2,0:0:0:0:
329,192,198943,1,0,0:0:0:0:
402,192,198943,1,0,0:0:0:0:
256,192,199115,1,0,0:0:0:0:
109,192,199286,1,0,0:0:0:50:soft-hitclap.wav
329,192,199286,128,0,199629:0:0:0:0:
402,192,199286,1,0,0:0:0:0:
475,192,199286,128,0,199458:0:0:0:0:
36,192,199458,128,0,199801:0:0:0:0:
182,192,199458,128,0,199629:0:0:0:0:
109,192,199629,1,2,0:0:0:0:
256,192,199629,1,0,0:0:0:0:
475,192,199629,1,0,0:0:0:0:
329,192,199801,128,0,199972:0:0:0:0:
402,192,199801,128,0,199972:0:0:0:0:
36,192,199972,1,0,0:0:0:50:soft-hitclap.wav
109,192,199972,128,0,200143:0:0:0:0:
182,192,199972,128,0,200143:0:0:0:0:
475,192,199972,1,0,0:0:0:0:
329,192,200143,128,0,200486:0:0:0:0:
402,192,200143,128,0,200315:0:0:0:0:
36,192,200315,128,2,200658:0:0:0:0:
182,192,200315,128,0,200486:0:0:0:0:
256,192,200315,1,0,0:0:0:0:
475,192,200486,128,0,200658:0:0:0:0:
109,192,200658,1,0,0:0:0:50:soft-hitclap.wav
256,192,200658,128,0,201001:0:0:0:0:
329,192,200658,128,0,200829:0:0:0:0:
402,192,200658,1,0,0:0:0:0:
36,192,200829,128,0,201001:0:0:0:0:
182,192,200829,128,0,201001:0:0:0:0:
329,192,201001,128,2,201343:0:0:0:0:
402,192,201001,128,0,201172:0:0:0:0:
475,192,201001,1,0,0:0:0:0:
109,192,201172,128,0,201343:0:0:0:0:
256,192,201172,128,0,201343:0:0:0:0:
36,192,201343,1,0,0:0:0:50:soft-hitclap.wav
182,192,201343,1,0,0:0:0:0:
402,192,201343,128,0,201858:0:0:0:0:
475,192,201343,128,0,201515:0:0:0:0:
182,192,201515,128,0,201858:0:0:0:0:
329,192,201515,128,0,201858:0:0:0:0:
109,192,201686,1,2,0:0:0:0:
256,192,201686,1,0,0:0:0:0:
475,192,201686,1,0,0:0:0:0:
36,192,201858,128,0,202029:0:0:0:0:
182,192,202029,1,0,0:0:0:50:soft-hitclap.wav
256,192,202029,128,0,202372:0:0:0:0:
329,192,202029,1,0,0:0:0:0:
402,192,202029,128,0,202201:0:0:0:0:
109,192,202201,128,0,202372:0:0:0:0:
329,192,202372,128,2,202715:0:0:0:0:
402,192,202372,1,0,0:0:0:0:
475,192,202372,128,0,202543:0:0:0:0:
182,192,202543,128,0,202715:0:0:0:0:
36,192,202715,1,0,0:0:0:50:soft-hitclap.wav
109,192,202715,128,0,203058:0:0:0:0:
402,192,202715,128,0,203058:0:0:0:0:
475,192,202715,1,0,0:0:0:0:
256,192,202886,128,0,203058:0:0:0:0:
36,192,203058,128,4,203229:0:0:0:0:
182,192,203058,128,2,203229:0:0:0:0:
329,192,203058,128,0,203229:0:0:0:0:
475,192,203058,128,0,203401:0:0:0:0:
256,192,203229,128,0,203572:0:0:0:0:
402,192,203229,128,0,203401:0:0:0:0:
36,192,203401,128,2,203572:0:0:0:0:
109,192,203401,1,0,0:0:0:50:soft-hitclap.wav
182,192,203401,128,0,203572:0:0:0:0:
329,192,203401,1,0,0:0:0:0:
329,192,203572,128,0,203915:0:0:0:0:
475,192,203572,128,0,203743:0:0:0:0:
109,192,203743,128,2,203915:0:0:0:0:
182,192,203743,1,0,0:0:0:50:soft-hitclap.wav
256,192,203743,128,0,203915:0:0:0:0:
402,192,203743,1,0,0:0:0:0:
36,192,203915,128,0,204086:0:0:0:0:
475,192,203915,128,0,204086:0:0:0:0:
109,192,204086,1,2,0:0:0:0:
256,192,204086,128,0,204258:0:0:0:50:soft-hitclap.wav
329,192,204086,1,0,0:0:0:0:
402,192,204086,128,0,204258:0:0:0:0:
36,192,204258,128,0,204772:0:0:0:0:
182,192,204258,128,0,204772:0:0:0:0:
256,192,204429,1,2,0:0:0:0:
402,192,204429,1,0,0:0:0:0:
475,192,204429,1,0,0:0:0:0:
109,192,204429,1,0,0:0:0:50:soft-hitclap.wav
329,192,204601,1,0,0:0:0:0:
256,192,204772,128,2,205115:0:0:0:0:
109,192,204772,1,0,0:0:0:50:soft-hitclap.wav
475,192,204772,128,0,204943:0:0:0:0:
402,192,204772,1,0,0:0:0:0:
36,192,204943,128,0,205286:0:0:0:0:
182,192,204943,128,0,205115:0:0:0:0:
109,192,205115,1,2,0:0:0:0:
402,192,205115,1,0,0:0:0:50:soft-hitclap.wav
329,192,205115,1,0,0:0:0:0:
475,192,205115,1,0,0:0:0:0:
329,192,205286,128,0,205458:0:0:0:0:
402,192,205286,128,0,205458:0:0:0:0:
36,192,205458,1,2,0:0:0:0:
109,192,205458,128,0,205629:0:0:0:50:soft-hitclap.wav
182,192,205458,128,0,205629:0:0:0:0:
475,192,205458,1,0,0:0:0:0:
329,192,205629,128,0,205972:0:0:0:0:
402,192,205629,128,0,205801:0:0:0:0:
36,192,205801,128,2,205972:0:0:0:0:
109,192,205801,128,0,205972:0:0:0:50:soft-hitclap.wav
182,192,205801,128,0,205972:0:0:0:0:
256,192,205801,1,0,0:0:0:0:
475,192,205972,128,0,206143:0:0:0:0:
36,192,206143,128,2,206315:0:0:0:0:
109,192,206143,128,0,206315:0:0:0:50:soft-hitclap.wav
256,192,206143,128,0,206315:0:0:0:0:
402,192,206143,1,0,0:0:0:0:
329,192,206315,128,0,206658:0:0:0:0:
475,192,206315,128,0,206486:0:0:0:0:
36,192,206486,128,2,206658:0:0:0:0:
109,192,206486,128,0,206658:0:0:0:50:soft-hitclap.wav
256,192,206486,128,0,206658:0:0:0:0:
402,192,206486,1,0,0:0:0:0:
182,192,206658,128,0,206829:0:0:0:0:
36,192,206829,128,2,207001:0:0:0:0:
256,192,206829,1,0,0:0:0:50:soft-hitclap.wav
402,192,206829,128,0,207001:0:0:0:0:
475,192,206829,1,0,0:0:0:0:
182,192,207001,128,0,207172:0:0:0:0:
329,192,207001,128,0,207343:0:0:0:0:
36,192,207172,1,2,0:0:0:0:
109,192,207172,1,0,0:0:0:50:soft-hitclap.wav
256,192,207172,1,0,0:0:0:0:
402,192,207172,1,0,0:0:0:0:
182,192,207343,128,0,207515:0:0:0:0:
475,192,207343,128,0,207515:0:0:0:0:
36,192,207515,1,2,0:0:0:0:
109,192,207515,128,0,207686:0:0:0:50:soft-hitclap.wav
256,192,207515,128,0,207858:0:0:0:0:
329,192,207515,1,0,0:0:0:0:
402,192,207686,128,0,207858:0:0:0:0:
36,192,207858,128,2,208029:0:0:0:0:
109,192,207858,1,0,0:0:0:50:soft-hitclap.wav
182,192,207858,128,0,208201:0:0:0:0:
475,192,207858,128,0,208029:0:0:0:0:
329,192,208029,128,0,208201:0:0:0:0:
36,192,208201,1,2,0:0:0:0:
109,192,208201,128,0,208543:0:0:0:50:soft-hitclap.wav
402,192,208201,128,0,208543:0:0:0:0:
475,192,208201,128,0,208372:0:0:0:0:
256,192,208372,128,0,208543:0:0:0:0:
36,192,208543,1,4,0:0:0:0:
182,192,208543,1,2,0:0:0:0:
329,192,208543,1,0,0:0:0:0:
475,192,208543,1,0,0:0:0:0:
109,192,208715,1,0,0:0:0:0:
256,192,208715,1,0,0:0:0:0:
402,192,208715,1,0,0:0:0:0:
36,192,208886,128,2,208972:0:0:0:0:
182,192,208886,128,0,208972:0:0:0:50:soft-hitclap.wav
329,192,208886,1,0,0:0:0:0:
475,192,208886,1,0,0:0:0:0:
109,192,209058,1,0,0:0:0:0:
256,192,209058,128,0,209143:0:0:0:0:
402,192,209058,128,0,209143:0:0:0:0:
36,192,209229,1,2,0:0:0:0:
182,192,209229,1,0,0:0:0:0:
329,192,209229,1,0,0:0:0:0:
475,192,209229,1,0,0:0:0:0:
109,192,209401,128,0,209486:0:0:0:0:
256,192,209401,128,0,209486:0:0:0:0:
402,192,209401,1,0,0:0:0:0:
36,192,209572,1,2,0:0:0:0:
182,192,209572,1,0,0:0:0:50:soft-hitclap.wav
402,192,209572,128,0,209658:0:0:0:0:
475,192,209572,128,0,209658:0:0:0:0:
109,192,209743,1,0,0:0:0:0:
256,192,209743,1,0,0:0:0:0:
329,192,209743,1,0,0:0:0:0:
182,192,209915,1,2,0:0:0:0:
329,192,209915,128,0,210001:0:0:0:0:
475,192,209915,128,0,210001:0:0:0:0:
36,192,210086,128,0,210172:0:0:0:0:
182,192,210086,128,0,210172:0:0:0:0:
402,192,210086,1,0,0:0:0:0:
36,192,210258,1,2,0:0:0:0:
256,192,210258,1,0,0:0:0:50:soft-hitclap.wav
329,192,210258,1,0,0:0:0:0:
475,192,210258,1,0,0:0:0:0:
109,192,210429,1,0,0:0:0:0:
329,192,210429,128,0,210515:0:0:0:0:
402,192,210429,128,0,210515:0:0:0:0:
36,192,210601,128,2,210686:0:0:0:0:
182,192,210601,128,0,210686:0:0:0:0:
475,192,210601,1,0,0:0:0:0:
109,192,210772,1,0,0:0:0:0:
329,192,210772,128,0,210858:0:0:0:0:
402,192,210772,128,0,210858:0:0:0:0:
36,192,210943,128,2,211029:0:0:0:0:
182,192,210943,128,0,211029:0:0:0:50:soft-hitclap.wav
256,192,210943,1,0,0:0:0:0:
475,192,210943,1,0,0:0:0:0:
329,192,211115,1,0,0:0:0:0:
402,192,211115,128,0,211201:0:0:0:0:
475,192,211115,128,0,211201:0:0:0:0:
36,192,211286,1,4,0:0:0:0:
109,192,211286,1,2,0:0:0:0:
256,192,211286,1,0,0:0:0:0:
402,192,211286,1,0,0:0:0:0:
475,192,211286,1,0,0:0:0:0:
329,192,211372,1,0,0:0:0:0:
182,192,211458,1,0,0:0:0:0:
329,192,211543,1,0,0:0:0:0:
36,192,211629,1,4,0:0:0:0:
109,192,211629,1,0,0:0:0:50:soft-hitclap.wav
402,192,211629,1,0,0:0:0:0:
475,192,211629,1,0,0:0:0:0:
182,192,211715,1,0,0:0:0:0:
36,192,211801,1,4,0:0:0:0:
109,192,211801,1,2,0:0:0:0:
402,192,211801,1,0,0:0:0:0:
475,192,211801,1,0,0:0:0:0:
256,192,211886,1,0,0:0:0:0:
329,192,211972,1,0,0:0:0:0:
182,192,212058,1,0,0:0:0:0:
36,192,212143,1,2,0:0:0:0:
109,192,212143,1,0,0:0:0:0:
402,192,212143,1,0,0:0:0:0:
475,192,212143,1,0,0:0:0:0:
329,192,212229,1,0,0:0:0:0:
36,192,212315,1,4,0:0:0:0:
109,192,212315,1,0,0:0:0:50:soft-hitclap.wav
402,192,212315,1,0,0:0:0:0:
475,192,212315,1,0,0:0:0:0:
182,192,212401,1,0,0:0:0:0:
36,192,212486,1,2,0:0:0:0:
109,192,212486,1,4,0:0:0:0:
402,192,212486,1,0,0:0:0:0:
475,192,212486,1,0,0:0:0:0:
329,192,212572,1,0,0:0:0:0:
36,192,212658,1,2,0:0:0:0:
182,192,212658,1,0,0:0:0:0:
256,192,212658,1,0,0:0:0:0:
36,192,212829,1,2,0:0:0:0:
182,192,212829,1,0,0:0:0:0:
256,192,213001,1,0,0:0:0:50:LR_Clap hollow echo.wav
329,192,213001,1,0,0:0:0:0:
475,192,213001,1,0,0:0:0:0:
109,192,213172,1,2,0:0:0:0:
182,192,213172,1,0,0:0:0:0:
329,192,213258,1,0,0:0:0:0:
475,192,213258,1,0,0:0:0:0:
109,192,213343,1,0,0:0:0:50:LR_Clap hollow echo.wav
182,192,213343,1,0,0:0:0:0:
329,192,213429,1,0,0:0:0:0:
475,192,213429,1,0,0:0:0:0:
36,192,213515,1,2,0:0:0:0:
182,192,213515,1,0,0:0:0:0:
256,192,213515,1,0,0:0:0:0:
36,192,213686,1,0,0:0:0:50:soft-hitclap.wav
109,192,213686,1,0,0:0:0:0:
329,192,213686,1,0,0:0:0:0:
402,192,213686,1,0,0:0:0:0:
475,192,213686,1,0,0:0:0:0:
36,192,214029,1,2,0:0:0:0:
109,192,214029,1,4,0:0:0:0:
256,192,214029,1,0,0:0:0:0:
402,192,214029,1,0,0:0:0:0:
475,192,214029,1,0,0:0:0:0:
329,192,214115,1,0,0:0:0:0:
182,192,214201,1,0,0:0:0:0:
402,192,214201,1,0,0:0:0:0:
329,192,214286,1,0,0:0:0:0:
36,192,214372,1,0,0:0:0:50:soft-hitclap.wav
109,192,214372,1,0,0:0:0:0:
256,192,214372,1,0,0:0:0:0:
475,192,214372,1,0,0:0:0:0:
402,192,214458,1,0,0:0:0:0:
182,192,214543,1,0,0:0:0:0:
329,192,214543,1,0,0:0:0:0:
402,192,214629,1,0,0:0:0:0:
36,192,214715,1,2,0:0:0:0:
109,192,214715,1,0,0:0:0:0:
256,192,214715,1,0,0:0:0:0:
475,192,214801,1,0,0:0:0:0:
109,192,214886,1,0,0:0:0:0:
182,192,214886,1,0,0:0:0:0:
329,192,214886,1,0,0:0:0:0:
402,192,214972,1,0,0:0:0:0:
36,192,215058,1,0,0:0:0:50:soft-hitclap.wav
182,192,215058,1,0,0:0:0:0:
256,192,215058,1,0,0:0:0:0:
475,192,215058,1,0,0:0:0:0:
402,192,215143,1,0,0:0:0:0:
36,192,215229,1,0,0:0:0:0:
109,192,215229,1,0,0:0:0:0:
256,192,215229,1,0,0:0:0:0:
329,192,215315,1,0,0:0:0:0:
182,192,215401,1,2,0:0:0:0:
402,192,215401,1,0,0:0:0:0:
475,192,215401,1,0,0:0:0:0:
256,192,215486,1,0,0:0:0:0:
109,192,215572,1,0,0:0:0:0:
329,192,215572,1,0,0:0:0:0:
182,192,215658,1,0,0:0:0:0:
36,192,215743,1,0,0:0:0:50:soft-hitclap.wav
256,192,215743,1,0,0:0:0:0:
402,192,215743,1,0,0:0:0:0:
475,192,215743,1,0,0:0:0:0:
182,192,215829,1,0,0:0:0:0:
109,192,215915,1,0,0:0:0:0:
475,192,215915,1,0,0:0:0:0:
256,192,216001,1,0,0:0:0:0:
182,192,216086,1,2,0:0:0:0:
329,192,216086,1,0,0:0:0:0:
402,192,216086,1,0,0:0:0:0:
36,192,216172,1,0,0:0:0:0:
402,192,216258,1,0,0:0:0:0:
109,192,216258,1,0,0:0:0:0:
182,192,216343,1,0,0:0:0:0:
36,192,216429,1,0,0:0:0:50:soft-hitclap.wav
256,192,216429,1,0,0:0:0:0:
329,192,216429,1,0,0:0:0:0:
475,192,216429,1,0,0:0:0:0:
109,192,216515,1,0,0:0:0:0:
182,192,216601,1,0,0:0:0:0:
329,192,216601,1,0,0:0:0:0:
402,192,216686,1,0,0:0:0:0:
256,192,216772,1,2,0:0:0:0:
36,192,216772,1,0,0:0:0:0:
109,192,216772,1,0,0:0:0:0:
475,192,216858,1,0,0:0:0:0:
256,192,216943,1,0,0:0:0:0:
402,192,216943,1,0,0:0:0:0:
329,192,217029,1,0,0:0:0:0:
36,192,217115,1,0,0:0:0:50:soft-hitclap.wav
109,192,217115,1,0,0:0:0:0:
182,192,217115,1,0,0:0:0:0:
475,192,217115,1,0,0:0:0:0:
329,192,217201,1,0,0:0:0:0:
256,192,217286,1,0,0:0:0:0:
402,192,217286,1,0,0:0:0:0:
475,192,217372,1,0,0:0:0:0:
36,192,217458,1,2,0:0:0:0:
109,192,217458,1,0,0:0:0:0:
182,192,217458,1,0,0:0:0:0:
329,192,217543,1,0,0:0:0:0:
182,192,217629,1,0,0:0:0:0:
256,192,217629,1,0,0:0:0:0:
402,192,217629,1,0,0:0:0:0:
109,192,217715,1,0,0:0:0:0:
36,192,217801,1,0,0:0:0:50:soft-hitclap.wav
256,192,217801,1,0,0:0:0:0:
329,192,217801,1,0,0:0:0:0:
475,192,217801,1,0,0:0:0:0:
402,192,217886,1,0,0:0:0:0:
36,192,217972,1,0,0:0:0:0:
109,192,217972,1,0,0:0:0:0:
182,192,217972,1,0,0:0:0:0:
329,192,218058,1,0,0:0:0:0:
182,192,218143,1,2,0:0:0:0:
402,192,218143,1,0,0:0:0:0:
475,192,218143,1,0,0:0:0:0:
109,192,218229,1,0,0:0:0:0:
36,192,218315,1,0,0:0:0:0:
256,192,218315,1,0,0:0:0:0:
329,192,218401,1,0,0:0:0:0:
109,192,218486,1,0,0:0:0:50:soft-hitclap.wav
182,192,218486,1,0,0:0:0:0:
402,192,218486,1,0,0:0:0:0:
475,192,218486,1,0,0:0:0:0:
329,192,218572,1,0,0:0:0:0:
36,192,218658,1,0,0:0:0:0:
256,192,218658,1,0,0:0:0:0:
402,192,218743,1,0,0:0:0:0:
109,192,218829,1,2,0:0:0:0:
182,192,218829,1,0,0:0:0:0:
329,192,218829,1,0,0:0:0:0:
475,192,218915,1,0,0:0:0:0:
36,192,219001,1,0,0:0:0:0:
329,192,219001,1,0,0:0:0:0:
109,192,219086,1,0,0:0:0:0:
182,192,219172,1,0,0:0:0:50:soft-hitclap.wav
256,192,219172,1,0,0:0:0:0:
402,192,219172,1,0,0:0:0:0:
475,192,219172,1,0,0:0:0:0:
36,192,219258,1,0,0:0:0:0:
109,192,219343,1,0,0:0:0:0:
402,192,219343,1,0,0:0:0:0:
182,192,219429,1,0,0:0:0:0:
256,192,219515,1,2,0:0:0:0:
329,192,219515,1,0,0:0:0:0:
475,192,219515,1,0,0:0:0:0:
109,192,219601,1,0,0:0:0:0:
182,192,219686,1,0,0:0:0:0:
402,192,219686,1,0,0:0:0:0:
36,192,219772,1,0,0:0:0:0:
109,192,219858,1,0,0:0:0:50:soft-hitclap.wav
256,192,219858,1,0,0:0:0:0:
329,192,219858,1,0,0:0:0:0:
475,192,219858,1,0,0:0:0:0:
182,192,219943,1,0,0:0:0:0:
36,192,220029,1,0,0:0:0:0:
475,192,220029,1,0,0:0:0:0:
402,192,220115,1,0,0:0:0:0:
109,192,220201,1,2,0:0:0:0:
182,192,220201,1,0,0:0:0:0:
329,192,220201,1,0,0:0:0:0:
475,192,220286,1,0,0:0:0:0:
182,192,220372,1,0,0:0:0:0:
256,192,220372,1,0,0:0:0:0:
402,192,220372,1,0,0:0:0:0:
329,192,220458,1,0,0:0:0:0:
36,192,220543,1,0,0:0:0:50:soft-hitclap.wav
109,192,220543,1,0,0:0:0:0:
402,192,220543,1,0,0:0:0:0:
475,192,220543,1,0,0:0:0:0:
182,192,220629,1,0,0:0:0:0:
256,192,220715,1,0,0:0:0:0:
329,192,220715,1,0,0:0:0:0:
475,192,220715,1,0,0:0:0:0:
109,192,220801,1,0,0:0:0:0:
36,192,220886,1,2,0:0:0:0:
182,192,220886,1,0,0:0:0:0:
402,192,220886,1,0,0:0:0:0:
329,192,220972,1,0,0:0:0:0:
36,192,221058,1,0,0:0:0:0:
109,192,221058,1,0,0:0:0:0:
256,192,221143,1,0,0:0:0:0:
182,192,221229,1,0,0:0:0:50:soft-hitclap.wav
329,192,221229,1,0,0:0:0:0:
402,192,221229,1,0,0:0:0:0:
475,192,221229,1,0,0:0:0:0:
36,192,221315,1,0,0:0:0:0:
182,192,221401,1,0,0:0:0:0:
475,192,221401,1,0,0:0:0:0:
329,192,221486,1,0,0:0:0:0:
36,192,221572,1,2,0:0:0:0:
109,192,221572,1,0,0:0:0:0:
256,192,221572,1,0,0:0:0:0:
402,192,221658,1,0,0:0:0:0:
109,192,221743,1,0,0:0:0:0:
182,192,221743,1,0,0:0:0:0:
329,192,221743,1,0,0:0:0:0:
256,192,221829,1,0,0:0:0:0:
36,192,221915,1,0,0:0:0:50:soft-hitclap.wav
329,192,221915,1,0,0:0:0:0:
402,192,221915,1,0,0:0:0:0:
475,192,221915,1,0,0:0:0:0:
182,192,222001,1,0,0:0:0:0:
36,192,222086,1,0,0:0:0:0:
109,192,222086,1,0,0:0:0:0:
256,192,222086,1,0,0:0:0:0:
402,192,222172,1,0,0:0:0:0:
182,192,222258,1,2,0:0:0:0:
329,192,222258,1,0,0:0:0:0:
475,192,222258,1,0,0:0:0:0:
36,192,222343,1,0,0:0:0:0:
256,192,222429,1,0,0:0:0:0:
402,192,222429,1,0,0:0:0:0:
329,192,222515,1,0,0:0:0:0:
36,192,222601,1,0,0:0:0:50:soft-hitclap.wav
109,192,222601,1,0,0:0:0:0:
182,192,222601,1,0,0:0:0:0:
475,192,222601,1,0,0:0:0:0:
402,192,222686,1,0,0:0:0:0:
182,192,222772,1,0,0:0:0:0:
329,192,222772,1,0,0:0:0:0:
475,192,222858,1,0,0:0:0:0:
36,192,222943,1,2,0:0:0:0:
109,192,222943,1,0,0:0:0:0:
256,192,222943,1,0,0:0:0:0:
402,192,223029,1,0,0:0:0:0:
109,192,223115,1,0,0:0:0:0:
182,192,223115,1,0,0:0:0:0:
329,192,223115,1,0,0:0:0:0:
256,192,223201,1,0,0:0:0:0:
36,192,223286,1,0,0:0:0:50:soft-hitclap.wav
329,192,223286,1,0,0:0:0:0:
402,192,223286,1,0,0:0:0:0:
475,192,223286,1,0,0:0:0:0:
109,192,223372,1,0,0:0:0:0:
182,192,223458,1,0,0:0:0:0:
256,192,223458,1,0,0:0:0:0:
402,192,223458,1,0,0:0:0:0:
109,192,223543,1,0,0:0:0:0:
36,192,223629,1,2,0:0:0:0:
329,192,223629,1,0,0:0:0:0:
475,192,223629,1,0,0:0:0:0:
256,192,223715,1,0,0:0:0:0:
109,192,223801,1,0,0:0:0:0:
329,192,223801,1,0,0:0:0:0:
182,192,223886,1,0,0:0:0:0:
36,192,223972,1,0,0:0:0:50:soft-hitclap.wav
256,192,223972,1,0,0:0:0:0:
402,192,223972,1,0,0:0:0:0:
475,192,223972,1,0,0:0:0:0:
109,192,224058,1,0,0:0:0:0:
182,192,224143,1,0,0:0:0:0:
329,192,224143,1,0,0:0:0:0:
402,192,224229,1,0,0:0:0:0:
36,192,224315,1,2,0:0:0:0:
109,192,224315,1,0,0:0:0:0:
475,192,224315,1,0,0:0:0:0:
256,192,224401,1,0,0:0:0:0:
182,192,224486,1,0,0:0:0:0:
402,192,224486,1,0,0:0:0:0:
329,192,224572,1,0,0:0:0:0:
36,192,224658,1,0,0:0:0:50:soft-hitclap.wav
109,192,224658,1,0,0:0:0:0:
256,192,224658,1,0,0:0:0:0:
475,192,224658,1,0,0:0:0:0:
402,192,224743,1,0,0:0:0:0:
182,192,224829,1,0,0:0:0:0:
329,192,224829,1,0,0:0:0:0:
109,192,224915,1,0,0:0:0:0:
36,192,225001,1,4,0:0:0:0:
182,192,225001,1,2,0:0:0:0:
256,192,225001,1,0,0:0:0:0:
475,192,225001,1,0,0:0:0:0:
402,192,225086,1,0,0:0:0:0:
109,192,225172,1,0,0:0:0:0:
329,192,225172,1,0,0:0:0:0:
402,192,225258,1,0,0:0:0:0:
36,192,225343,1,2,0:0:0:0:
182,192,225343,1,0,0:0:0:50:soft-hitclap.wav
256,192,225343,1,0,0:0:0:0:
475,192,225343,1,0,0:0:0:0:
329,192,225429,1,0,0:0:0:0:
109,192,225515,1,0,0:0:0:0:
402,192,225515,1,0,0:0:0:0:
256,192,225601,1,0,0:0:0:0:
36,192,225686,1,2,0:0:0:0:
182,192,225686,1,0,0:0:0:50:soft-hitclap.wav
402,192,225686,1,0,0:0:0:0:
475,192,225686,1,0,0:0:0:0:
329,192,225772,1,0,0:0:0:0:
109,192,225858,1,0,0:0:0:0:
256,192,225858,1,0,0:0:0:0:
329,192,225943,1,0,0:0:0:0:
36,192,226029,1,2,0:0:0:0:
182,192,226029,1,0,0:0:0:50:soft-hitclap.wav
402,192,226029,1,0,0:0:0:0:
475,192,226029,1,0,0:0:0:0:
256,192,226115,1,0,0:0:0:0:
109,192,226201,1,0,0:0:0:0:
402,192,226201,1,0,0:0:0:0:
329,192,226286,1,0,0:0:0:0:
36,192,226372,1,2,0:0:0:0:
182,192,226372,1,0,0:0:0:50:soft-hitclap.wav
256,192,226372,1,0,0:0:0:0:
475,192,226372,1,0,0:0:0:0:
402,192,226458,1,0,0:0:0:0:
182,192,226543,1,0,0:0:0:0:
329,192,226543,1,0,0:0:0:0:
109,192,226629,1,0,0:0:0:0:
36,192,226715,1,2,0:0:0:0:
256,192,226715,1,0,0:0:0:50:soft-hitclap.wav
402,192,226715,1,0,0:0:0:0:
475,192,226715,1,0,0:0:0:0:
182,192,226801,1,0,0:0:0:0:
109,192,226886,1,0,0:0:0:0:
402,192,226886,1,0,0:0:0:0:
256,192,226972,1,0,0:0:0:0:
36,192,227058,1,2,0:0:0:0:
109,192,227058,1,0,0:0:0:50:soft-hitclap.wav
329,192,227058,1,0,0:0:0:0:
475,192,227058,1,0,0:0:0:0:
182,192,227143,1,0,0:0:0:0:
256,192,227229,1,0,0:0:0:0:
402,192,227229,1,0,0:0:0:0:
182,192,227315,1,0,0:0:0:0:
36,192,227401,1,2,0:0:0:0:
109,192,227401,1,0,0:0:0:50:soft-hitclap.wav
329,192,227401,1,0,0:0:0:0:
475,192,227401,1,0,0:0:0:0:
256,192,227486,1,0,0:0:0:0:
109,192,227572,1,0,0:0:0:0:
402,192,227572,1,0,0:0:0:0:
182,192,227658,1,0,0:0:0:0:
36,192,227743,1,2,0:0:0:0:
256,192,227743,1,0,0:0:0:50:soft-hitclap.wav
402,192,227743,1,0,0:0:0:0:
475,192,227743,1,0,0:0:0:0:
182,192,227829,1,0,0:0:0:0:
109,192,227915,1,0,0:0:0:0:
329,192,227915,1,0,0:0:0:0:
402,192,228001,1,0,0:0:0:0:
36,192,228086,1,2,0:0:0:0:
109,192,228086,1,0,0:0:0:50:soft-hitclap.wav
256,192,228086,1,0,0:0:0:0:
475,192,228086,1,0,0:0:0:0:
329,192,228172,1,0,0:0:0:0:
182,192,228258,1,0,0:0:0:0:
402,192,228258,1,0,0:0:0:0:
109,192,228343,1,0,0:0:0:0:
36,192,228429,1,2,0:0:0:0:
256,192,228429,1,0,0:0:0:50:soft-hitclap.wav
329,192,228429,1,0,0:0:0:0:
475,192,228429,1,0,0:0:0:0:
109,192,228515,1,0,0:0:0:0:
182,192,228601,1,0,0:0:0:0:
402,192,228601,1,0,0:0:0:0:
329,192,228686,1,0,0:0:0:0:
36,192,228772,1,2,0:0:0:0:
109,192,228772,1,0,0:0:0:50:soft-hitclap.wav
256,192,228772,1,0,0:0:0:0:
475,192,228772,1,0,0:0:0:0:
402,192,228858,1,0,0:0:0:0:
109,192,228943,1,0,0:0:0:0:
329,192,228943,1,0,0:0:0:0:
182,192,229029,1,0,0:0:0:0:
36,192,229115,1,2,0:0:0:0:
256,192,229115,1,0,0:0:0:50:soft-hitclap.wav
402,192,229115,1,0,0:0:0:0:
475,192,229115,1,0,0:0:0:0:
109,192,229201,1,0,0:0:0:0:
329,192,229286,1,0,0:0:0:0:
402,192,229286,1,0,0:0:0:0:
182,192,229372,1,0,0:0:0:0:
36,192,229458,1,2,0:0:0:0:
109,192,229458,1,0,0:0:0:50:soft-hitclap.wav
256,192,229458,1,0,0:0:0:0:
475,192,229458,1,0,0:0:0:0:
402,192,229543,1,0,0:0:0:0:
109,192,229629,1,0,0:0:0:0:
182,192,229629,1,0,0:0:0:0:
329,192,229715,1,0,0:0:0:0:
36,192,229801,1,2,0:0:0:0:
256,192,229801,1,0,0:0:0:50:soft-hitclap.wav
402,192,229801,1,0,0:0:0:0:
475,192,229801,1,0,0:0:0:0:
109,192,229886,1,0,0:0:0:0:
182,192,229972,1,0,0:0:0:0:
329,192,229972,1,0,0:0:0:0:
402,192,230058,1,0,0:0:0:0:
36,192,230143,1,2,0:0:0:0:
109,192,230143,1,0,0:0:0:50:soft-hitclap.wav
256,192,230143,1,0,0:0:0:0:
475,192,230143,1,0,0:0:0:0:
402,192,230229,1,0,0:0:0:0:
182,192,230315,1,0,0:0:0:0:
329,192,230315,1,0,0:0:0:0:
109,192,230401,1,0,0:0:0:0:
36,192,230486,1,4,0:0:0:0:
256,192,230486,1,2,0:0:0:0:
402,192,230486,1,0,0:0:0:0:
475,192,230486,1,0,0:0:0:0:
109,192,230572,1,0,0:0:0:0:
329,192,230572,1,0,0:0:0:0:
182,192,230658,1,0,0:0:0:0:
402,192,230658,1,0,0:0:0:0:
36,192,230743,1,0,0:0:0:0:
256,192,230743,1,0,0:0:0:0:
329,192,230829,1,2,0:0:0:0:
182,192,230829,1,0,0:0:0:50:soft-hitclap.wav
475,192,230829,1,0,0:0:0:0:
109,192,230915,1,0,0:0:0:0:
402,192,230915,1,0,0:0:0:0:
329,192,231001,1,0,0:0:0:0:
36,192,231001,1,0,0:0:0:0:
182,192,231086,1,0,0:0:0:0:
475,192,231086,1,0,0:0:0:0:
36,192,231172,1,2,0:0:0:0:
256,192,231172,1,0,0:0:0:0:
402,192,231172,1,0,0:0:0:0:
109,192,231258,1,0,0:0:0:0:
329,192,231258,1,0,0:0:0:0:
182,192,231343,1,0,0:0:0:0:
475,192,231343,1,0,0:0:0:0:
36,192,231429,1,0,0:0:0:0:
256,192,231429,1,0,0:0:0:0:
182,192,231515,128,0,231772:0:0:0:50:soft-hitclap.wav
329,192,231515,128,0,231772:0:0:0:0:
475,192,231515,128,0,231772:0:0:0:0:
475,192,231858,1,4,0:0:0:0:
256,192,231858,1,2,0:0:0:0:
109,192,231858,1,0,0:0:0:0:
36,192,231858,1,0,0:0:0:0:
402,192,231943,1,0,0:0:0:0:
182,192,231943,1,0,0:0:0:0:
329,192,232029,1,0,0:0:0:0:
109,192,232029,1,0,0:0:0:0:
475,192,232115,1,0,0:0:0:0:
256,192,232115,1,0,0:0:0:0:
182,192,232201,1,2,0:0:0:0:
329,192,232201,1,0,0:0:0:50:soft-hitclap.wav
36,192,232201,1,0,0:0:0:0:
402,192,232286,1,0,0:0:0:0:
109,192,232286,1,0,0:0:0:0:
182,192,232372,1,0,0:0:0:0:
475,192,232372,1,0,0:0:0:0:
329,192,232458,1,0,0:0:0:0:
36,192,232458,1,0,0:0:0:0:
475,192,232543,1,2,0:0:0:0:
256,192,232543,1,0,0:0:0:0:
109,192,232543,1,0,0:0:0:0:
402,192,232629,1,0,0:0:0:0:
182,192,232629,1,0,0:0:0:0:
329,192,232715,1,0,0:0:0:0:
36,192,232715,1,0,0:0:0:0:
475,192,232801,1,0,0:0:0:0:
256,192,232801,1,0,0:0:0:0:
36,192,232886,1,2,0:0:0:0:
109,192,232886,1,0,0:0:0:0:
182,192,232886,1,0,0:0:0:0:
256,192,232929,1,0,0:0:0:0:
329,192,232972,1,0,0:0:0:0:
402,192,233015,1,0,0:0:0:0:
475,192,233058,1,0,0:0:0:0:
36,192,233101,1,0,0:0:0:0:
109,192,233143,1,0,0:0:0:0:
182,192,233186,1,0,0:0:0:0:
256,192,233229,1,4,0:0:0:0:
329,192,233229,1,2,0:0:0:0:
402,192,233229,1,0,0:0:0:0:
475,192,233229,1,0,0:0:0:0:
36,192,233315,1,0,0:0:0:0:
109,192,233315,1,0,0:0:0:0:
182,192,233401,1,0,0:0:0:0:
329,192,233401,1,0,0:0:0:0:
402,192,233486,1,0,0:0:0:0:
475,192,233486,1,0,0:0:0:0:
36,192,233572,1,2,0:0:0:0:
109,192,233572,1,0,0:0:0:50:soft-hitclap.wav
182,192,233572,1,0,0:0:0:0:
256,192,233572,1,0,0:0:0:0:
402,192,233658,1,0,0:0:0:0:
475,192,233658,1,0,0:0:0:0:
182,192,233743,1,0,0:0:0:0:
329,192,233743,1,0,0:0:0:0:
36,192,233829,1,0,0:0:0:0:
109,192,233829,1,0,0:0:0:0:
256,192,233915,1,2,0:0:0:0:
329,192,233915,1,0,0:0:0:0:
402,192,233915,1,0,0:0:0:0:
475,192,233915,1,0,0:0:0:0:
36,192,234001,1,0,0:0:0:0:
182,192,234001,1,0,0:0:0:0:
256,192,234086,1,0,0:0:0:50:soft-hitclap.wav
329,192,234086,1,2,0:0:0:0:
402,192,234086,1,0,0:0:0:0:
475,192,234086,1,0,0:0:0:0:
36,192,234172,1,0,0:0:0:0:
109,192,234172,1,0,0:0:0:0:
182,192,234258,1,0,0:0:0:0:
329,192,234258,1,0,0:0:0:0:
402,192,234343,1,0,0:0:0:0:
475,192,234343,1,0,0:0:0:0:
36,192,234429,1,2,0:0:0:0:
109,192,234429,1,0,0:0:0:0:
182,192,234429,1,0,0:0:0:0:
256,192,234429,1,0,0:0:0:0:
329,192,234515,1,0,0:0:0:0:
402,192,234515,1,0,0:0:0:0:
36,192,234601,1,4,0:0:0:0:
256,192,234601,1,2,0:0:0:0:
475,192,234601,1,0,0:0:0:0:
475,192,234943,128,0,235629:0:0:0:0:
256,192,235286,128,0,235972:0:0:0:0:
36,192,235629,128,0,235972:0:0:0:0:
329,192,235972,1,2,0:0:0:0:
182,192,235972,1,0,0:0:0:0:
475,192,235972,128,0,236486:0:0:0:0:
402,192,235972,128,0,236143:0:0:0:0:
109,192,235972,128,4,236143:0:0:0:0:
182,192,236315,128,0,236658:0:0:0:0:
256,192,236486,128,0,236829:0:0:0:0:
329,192,236658,128,0,237001:0:0:0:0:
109,192,236829,128,0,237001:0:0:0:0:
475,192,237001,128,0,237515:0:0:0:0:
402,192,237172,128,0,237515:0:0:0:0:
36,192,237343,128,0,237601:0:0:0:0:
256,192,237343,128,0,237515:0:0:0:0:
109,192,237515,128,0,237601:0:0:0:0:
182,192,237686,128,0,237858:0:0:0:0:
402,192,237858,128,0,238715:0:0:0:0:
256,192,238201,1,0,0:0:0:0:
475,192,238372,1,0,0:0:0:0:
256,192,238543,128,0,238586:0:0:0:0:
109,192,238715,128,0,238886:0:0:0:0:
36,192,238715,128,0,238886:0:0:0:0:
329,192,238886,1,0,0:0:0:0:
475,192,239058,1,0,0:0:0:0:
36,192,239229,1,0,0:0:0:0:
329,192,239401,1,0,0:0:0:0:
475,192,239572,1,0,0:0:0:0:
36,192,239743,1,0,0:0:0:0:
329,192,239915,1,0,0:0:0:0:
475,192,240086,1,0,0:0:0:0:
402,192,240086,128,0,240258:0:0:0:0:
182,192,240086,128,0,240258:0:0:0:0:
36,192,240258,1,0,0:0:0:0:
329,192,240429,1,0,0:0:0:0:
475,192,240601,1,0,0:0:0:0:
36,192,240772,1,0,0:0:0:0:
109,192,240943,1,0,0:0:0:0:
182,192,241115,1,0,0:0:0:0:
256,192,241286,1,0,0:0:0:0:
329,192,241458,128,0,241629:0:0:0:0:
475,192,241458,128,0,241629:0:0:0:0:
36,192,241629,128,0,241715:0:0:0:0:
182,192,241801,128,0,241886:0:0:0:0:
475,192,241801,1,0,0:0:0:0:
256,192,241972,128,0,242058:0:0:0:0:
329,192,242143,128,0,242401:0:0:0:0:
109,192,242315,128,0,242401:0:0:0:0:
475,192,242486,128,0,243086:0:0:0:0:
402,192,242658,128,0,243086:0:0:0:0:
256,192,242829,128,0,243001:0:0:0:0:
36,192,242829,128,0,243001:0:0:0:0:
109,192,243001,128,0,243086:0:0:0:0:
182,192,243172,128,0,243343:0:0:0:0:
402,192,243343,128,0,245572:0:0:0:0:
329,192,243515,128,0,243686:0:0:0:0:
109,192,243515,128,0,243686:0:0:0:0:
256,192,243686,1,0,0:0:0:0:
475,192,243858,1,0,0:0:0:0:
109,192,244029,1,0,0:0:0:0:
256,192,244029,128,0,244072:0:0:0:0:
182,192,244201,128,0,244372:0:0:0:0:
36,192,244201,128,0,244372:0:0:0:0:
329,192,244372,1,0,0:0:0:0:
475,192,244543,1,0,0:0:0:0:
36,192,244715,1,0,0:0:0:0:
329,192,244886,1,0,0:0:0:0:
475,192,245058,1,0,0:0:0:0:
36,192,245229,1,0,0:0:0:0:
329,192,245401,1,0,0:0:0:0:
36,192,245572,128,0,245658:0:0:0:0:
256,192,245572,128,0,245658:0:0:0:0:
475,192,245572,1,0,0:0:0:0:
109,192,245743,1,0,0:0:0:0:
329,192,245915,1,0,0:0:0:0:
475,192,246086,1,0,0:0:0:0:
182,192,246258,128,0,246429:0:0:0:0:
402,192,246258,128,0,246429:0:0:0:0:
36,192,246429,1,0,0:0:0:0:
256,192,246601,128,0,246943:0:0:0:0:
475,192,246772,1,0,0:0:0:0:
36,192,246943,128,0,247029:0:0:0:0:
402,192,246943,1,0,0:0:0:0:
182,192,246943,128,0,247115:0:0:0:0:
329,192,247115,1,0,0:0:0:0:
475,192,247286,1,0,0:0:0:0:
36,192,247458,1,0,0:0:0:0:
182,192,247629,128,0,247715:0:0:0:0:
329,192,247629,1,0,0:0:0:0:
475,192,247801,1,0,0:0:0:0:
36,192,247972,1,0,0:0:0:0:
329,192,248143,1,0,0:0:0:0:
475,192,248315,1,0,0:0:0:0:
256,192,248315,128,0,248401:0:0:0:0:
36,192,248315,128,0,248486:0:0:0:0:
109,192,248486,1,0,0:0:0:0:
256,192,248658,1,0,0:0:0:0:
475,192,248829,1,0,0:0:0:0:
36,192,249012,128,0,249101:0:0:0:0:
182,192,249012,1,0,0:0:0:0:
402,192,249190,1,0,0:0:0:0:
109,192,249369,128,0,249458:0:0:0:0:
256,192,249369,1,0,0:0:0:0:
475,192,249547,1,0,0:0:0:0:
182,192,249726,128,0,249815:0:0:0:0:
256,192,249726,1,0,0:0:0:0:
329,192,249726,128,0,249904:0:0:0:0:
36,192,249904,1,0,0:0:0:0:
256,192,250083,128,0,250172:0:0:0:0:
402,192,250083,1,0,0:0:0:0:
109,192,250261,1,0,0:0:0:0:
329,192,250440,128,0,250529:0:0:0:0:
475,192,250440,1,0,0:0:0:0:
256,192,250618,1,0,0:0:0:0:
36,192,250797,128,0,250886:0:0:0:0:
182,192,250797,1,0,0:0:0:0:
475,192,250976,1,0,0:0:0:0:
256,192,251154,1,0,0:0:0:0:
36,192,251154,128,0,251335:0:0:0:0:
182,192,251154,128,0,251335:0:0:0:0:
329,192,251517,1,0,0:0:0:0:
475,192,251517,128,0,251608:0:0:0:0:
256,192,251881,1,0,0:0:0:0:
402,192,251881,128,0,251972:0:0:0:0:
182,192,252244,1,0,0:0:0:0:
329,192,252244,128,0,252335:0:0:0:0:
109,192,252608,1,0,0:0:0:0:
256,192,252608,128,0,252700:0:0:0:0:
36,192,252608,128,0,252792:0:0:0:0:
329,192,252792,1,0,0:0:0:0:
475,192,252976,1,0,0:0:0:0:
36,192,253160,1,0,0:0:0:0:
329,192,253344,1,0,0:0:0:0:
475,192,253528,1,0,0:0:0:0:
36,192,253712,1,0,0:0:0:0:
329,192,253896,1,0,0:0:0:0:
475,192,254080,1,0,0:0:0:0:
36,192,254264,1,0,0:0:0:0:
329,192,254448,1,0,0:0:0:0:
475,192,254632,1,0,0:0:0:0:
36,192,254818,1,0,0:0:0:0:
329,192,255004,1,0,0:0:0:0:
475,192,255198,1,0,0:0:0:0:
36,192,255403,1,0,0:0:0:0:
475,192,255608,128,0,255822:0:0:0:0:
329,192,255608,128,0,255822:0:0:0:0:
36,192,255822,1,0,0:0:0:0:
475,192,256036,1,0,0:0:0:0:
36,192,256250,1,0,0:0:0:0:
256,192,256465,1,0,0:0:0:0:
475,192,256705,1,0,0:0:0:0:
36,192,256945,1,0,0:0:0:0:
256,192,257185,1,0,0:0:0:0:
475,192,257432,1,0,0:0:0:0:
36,192,257712,1,0,0:0:0:0:
182,192,257997,1,0,0:0:0:0:
475,192,258283,1,0,0:0:0:0:
256,192,258589,1,0,0:0:0:0:
402,192,258968,1,0,0:0:0:0:
109,192,259444,1,0,0:0:0:0:
36,192,259920,1,0,0:0:0:0:
36,192,260428,128,0,260541:0:0:0:0:
182,192,260428,128,0,260541:0:0:0:0:
329,192,260428,128,0,264064:0:0:0:0:
402,192,260484,128,0,264064:0:0:0:0:
475,192,260541,128,0,264064:0:0:0:0:
