osu file format v14

[General]
AudioFilename: audio.mp3
AudioLeadIn: 0
PreviewTime: -1
Countdown: 1
SampleSet: None
StackLeniency: 0.7
Mode: 0
LetterboxInBreaks: 0
WidescreenStoryboard: 0

[Editor]
Bookmarks: 16220,25282,31532,39813,45360,51923
DistanceSpacing: 1
BeatDivisor: 8
GridSize: 8
TimelineZoom: 1

[Metadata]
Title:Notice Me feat. MACO
TitleUnicode:Notice Me feat. MACO
Artist:tofubeats
ArtistUnicode:tofubeats
Creator:TimeGoesOn
Version:Insane
Source:
Tags:
BeatmapID:1410531
BeatmapSetID:666403

[Difficulty]
HPDrainRate:5
CircleSize:4
OverallDifficulty:5
ApproachRate:9
SliderMultiplier:1.99999990463257
SliderTickRate:3

[Events]
//Background and Video events
0,0,"HD-Cute-Anime-Couple-Backgrounds-hd-desktop-wallpapers-1080p-windows-wallpapers-smart-phone-background-photos-free-images-widescreen-dual-monitors-colourful-1920x1080.jpg",0,0
//Break Periods
//Storyboard Layer 0 (Background)
//Storyboard Layer 1 (Fail)
//Storyboard Layer 2 (Pass)
//Storyboard Layer 3 (Foreground)
//Storyboard Sound Samples

[TimingPoints]
38326.8779904306,625,4,1,0,100,1,0
61063,-100,4,1,0,100,0,1

[HitObjects]
152,72,10438,5,0,0:0:0:0:
256,192,10751,1,0,0:0:0:0:
376,72,11063,1,0,0:0:0:0:
256,192,11688,1,0,0:0:0:0:
120,296,12001,1,0,0:0:0:0:
384,296,12313,1,0,0:0:0:0:
256,192,12626,12,0,15204,0:0:0:0:
416,72,15517,5,0,0:0:0:0:
416,312,15829,1,0,0:0:0:0:
256,192,16142,1,0,0:0:0:0:
72,88,16767,5,0,0:0:0:0:
72,288,17079,1,0,0:0:0:0:
256,192,17392,1,0,0:0:0:0:
344,96,18017,5,0,0:0:0:0:
72,264,18329,1,0,0:0:0:0:
120,72,18642,1,0,0:0:0:0:
368,64,19267,5,0,0:0:0:0:
136,128,19579,1,0,0:0:0:0:
376,280,19892,1,0,0:0:0:0:
152,88,20204,1,0,0:0:0:0:
76,190,20517,5,0,0:0:0:0:
365,306,20829,1,0,0:0:0:0:
325,73,21142,1,0,0:0:0:0:
316,205,21845,1,0,0:0:0:0:
90,286,22157,1,0,0:0:0:0:
89,65,22470,1,0,0:0:0:0:
72,200,23095,5,0,0:0:0:0:
168,72,23407,1,0,0:0:0:0:
272,160,23720,1,0,0:0:0:0:
184,288,24032,1,0,0:0:0:0:
328,288,24345,1,0,0:0:0:0:
96,184,24657,1,0,0:0:0:0:
328,48,24970,1,0,0:0:0:0:
200,96,25595,5,0,0:0:0:0:
272,192,25907,1,0,0:0:0:0:
176,272,26220,2,0,L|312:280,1,124.999994039535
304,280,26845,5,0,0:0:0:0:
280,160,27157,1,0,0:0:0:0:
304,96,27470,2,0,B|160:192,1,149.999992847443
176,240,28173,5,0,0:0:0:0:
128,96,28485,1,0,0:0:0:0:
208,128,28798,1,0,0:0:0:0:
127,73,29110,5,0,0:0:0:0:
196,120,29267,1,0,0:0:0:0:
276,164,29423,1,0,0:0:0:0:
72,232,29735,5,0,0:0:0:0:
200,224,30048,2,0,L|352:240,1,149.999992847443
264,144,30673,1,0,0:0:0:0:
280,128,30985,1,0,0:0:0:0:
192,248,31298,1,0,0:0:0:0:
240,120,31923,5,0,0:0:0:0:
168,200,32235,1,0,0:0:0:0:
80,88,32548,1,0,0:0:0:0:
240,160,32860,1,0,0:0:0:0:
104,256,33173,1,0,0:0:0:0:
408,96,33485,1,0,0:0:0:0:
336,272,33798,1,0,0:0:0:0:
160,128,34110,1,0,0:0:0:0:
128,280,34423,1,0,0:0:0:0:
256,176,34735,2,0,L|360:192,1,99.9999952316283
240,120,35751,5,0,0:0:0:0:
168,200,36063,1,0,0:0:0:0:
240,160,36376,1,0,0:0:0:0:
104,256,37001,5,0,0:0:0:0:
408,96,37313,1,0,0:0:0:0:
336,272,37626,1,0,0:0:0:0:
160,128,37938,1,0,0:0:0:0:
128,280,38251,1,0,0:0:0:0:
304,120,38563,1,0,0:0:0:0:
96,120,38876,1,0,0:0:0:0:
208,216,39188,1,0,0:0:0:0:
328,80,39501,1,0,0:0:0:0:
80,104,40126,2,0,L|288:176,1,199.999990463257
239,181,41061,5,0,0:0:0:0:
74,80,41376,2,0,L|151:171,1,99.9999952316283
160,184,41845,1,0,0:0:0:0:
176,204,41923,1,0,0:0:0:0:
208,236,42001,1,0,0:0:0:0:
224,252,42079,1,0,0:0:0:0:
248,268,42157,1,0,0:0:0:0:
280,260,42235,1,0,0:0:0:0:
312,236,42313,1,0,0:0:0:0:
328,220,42392,1,0,0:0:0:0:
360,188,42470,1,0,0:0:0:0:
376,172,42548,1,0,0:0:0:0:
400,140,42626,1,0,0:0:0:0:
416,116,42704,1,0,0:0:0:0:
359,76,43017,5,0,0:0:0:0:
91,102,43329,1,0,0:0:0:0:
110,65,43642,1,0,0:0:0:0:
183,140,43798,1,0,0:0:0:0:
231,201,43954,2,0,L|361:275,1,149.999992847443
375,273,44579,2,0,L|416:176,1,99.9999952316285
422,121,45204,1,0,0:0:0:0:
279,109,45517,2,0,L|332:194,1,99.9999952316283
272,160,46142,5,0,0:0:0:0:
104,104,46454,1,0,0:0:0:0:
64,256,46610,1,0,0:0:0:0:
240,48,46767,1,0,0:0:0:0:
224,304,46923,1,0,0:0:0:0:
352,304,47079,5,0,0:0:0:0:
320,280,47157,1,0,0:0:0:0:
296,256,47235,1,0,0:0:0:0:
264,232,47313,1,0,0:0:0:0:
232,208,47392,1,0,0:0:0:0:
200,192,47470,1,0,0:0:0:0:
160,176,47548,1,0,0:0:0:0:
128,152,47626,1,0,0:0:0:0:
120,112,47704,6,0,P|232:72|264:112,1,174.99999165535
168,232,48642,1,0,0:0:0:0:
240,120,48954,1,0,0:0:0:0:
288,232,49267,1,0,0:0:0:0:
88,136,49579,2,8,L|248:192,1,149.999992847443,4|4,0:0|0:0,0:0:0:0:
336,200,50282,1,0,0:0:0:0:
376,288,50595,1,0,0:0:0:0:
160,88,50907,1,0,0:0:0:0:
160,88,51532,5,0,0:0:0:0:
96,136,52157,5,0,0:0:0:0:
120,168,52235,1,0,0:0:0:0:
144,192,52313,1,0,0:0:0:0:
168,224,52392,1,0,0:0:0:0:
192,248,52470,1,0,0:0:0:0:
224,272,52548,1,0,0:0:0:0:
248,296,52626,1,0,0:0:0:0:
280,272,52704,1,0,0:0:0:0:
304,248,52782,1,0,0:0:0:0:
328,224,52860,1,0,0:0:0:0:
352,200,52938,1,0,0:0:0:0:
376,176,53017,1,0,0:0:0:0:
400,152,53095,1,0,0:0:0:0:
424,128,53173,1,0,0:0:0:0:
400,96,53251,2,0,L|248:72,1,149.999992847443
272,48,54032,5,0,0:0:0:0:
88,224,54345,1,0,0:0:0:0:
192,184,54657,2,0,P|256:160|368:120,1,174.99999165535
376,232,55595,1,0,0:0:0:0:
128,208,55907,1,0,0:0:0:0:
256,48,56220,1,0,0:0:0:0:
424,136,56532,1,0,0:0:0:0:
240,128,56845,1,0,0:0:0:0:
104,96,57157,5,0,0:0:0:0:
128,128,57235,1,0,0:0:0:0:
152,160,57313,1,0,0:0:0:0:
176,192,57392,1,0,0:0:0:0:
200,216,57470,1,0,0:0:0:0:
232,240,57548,1,0,0:0:0:0:
216,288,57626,1,0,0:0:0:0:
160,304,57704,1,0,0:0:0:0:
112,280,57782,1,0,0:0:0:0:
136,240,57860,1,0,0:0:0:0:
168,208,57938,1,0,0:0:0:0:
192,184,58017,1,0,0:0:0:0:
224,160,58095,1,0,0:0:0:0:
256,144,58173,1,0,0:0:0:0:
256,40,58485,5,0,0:0:0:0:
448,192,58798,1,0,0:0:0:0:
80,192,59110,1,0,0:0:0:0:
256,344,59423,1,0,0:0:0:0:
448,192,59735,1,0,0:0:0:0:
256,40,60048,1,0,0:0:0:0:
256,192,60360,1,0,0:0:0:0:
64,56,60985,5,0,0:0:0:0:
168,336,61295,1,0,0:0:0:0:
256,56,61608,1,0,0:0:0:0:
336,336,61920,1,0,0:0:0:0:
464,56,62233,1,0,0:0:0:0:
320,192,62545,1,0,0:0:0:0:
112,232,62858,1,0,0:0:0:0:
216,40,63170,1,0,0:0:0:0:
96,144,63483,2,0,L|432:232,1,324.999984502793
32,96,64811,1,0,0:0:0:0:
152,280,65123,1,0,0:0:0:0:
472,288,65436,1,0,0:0:0:0:
320,104,65748,1,0,0:0:0:0:
8,144,66061,1,0,0:0:0:0:
256,272,66373,1,0,0:0:0:0:
304,152,66686,1,0,0:0:0:0:
88,88,66998,1,0,0:0:0:0:
144,208,67311,1,0,0:0:0:0:
176,120,67623,1,0,0:0:0:0:
64,104,67936,1,0,0:0:0:0:
144,168,68248,2,0,B|256:168|296:176|328:176,1,174.99999165535
144,64,69498,2,0,B|288:88|360:176|344:256|296:320|192:328|192:328|192:328,1,424.999979734421
