osu file format v14

[General]
AudioFilename: audio.mp3
AudioLeadIn: 0
PreviewTime: 128664
Countdown: 1
SampleSet: Normal
StackLeniency: 0.7
Mode: 1
LetterboxInBreaks: 0
WidescreenStoryboard: 0

[Editor]
Bookmarks: 76080,150747,172080
DistanceSpacing: 0.8
BeatDivisor: 4
GridSize: 32
TimelineZoom: 2.5

[Metadata]
Title:Fumetsu no Kokoro
TitleUnicode:ふめつのこころ
Artist:tofubeats
ArtistUnicode:tofubeats
Creator:KinomiCandy
Version:Immortal Love
Source:Den'ai Shojo: VIDEO GIRL AI 2018
Tags:leave a like if you love memes
BeatmapID:1570348
BeatmapSetID:744839

[Difficulty]
HPDrainRate:5
CircleSize:4
OverallDifficulty:5
ApproachRate:5
SliderMultiplier:1.4
SliderTickRate:1

[Events]
//Background and Video events
0,0,"test.jpg",0,70
//Break Periods
//Storyboard Layer 0 (Background)
//Storyboard Layer 1 (Fail)
//Storyboard Layer 2 (Pass)
//Storyboard Layer 3 (Foreground)
//Storyboard Sound Samples

[TimingPoints]
81,333.333333333333,4,1,0,65,1,0
4414,-111.111111111111,4,1,0,65,0,0
30580,-105.263157894737,4,1,0,65,0,0
31997,-100,4,1,0,65,0,0
33414,-100,4,1,0,65,0,1
38664,-111.111111111111,4,1,0,65,0,1
41247,-100,4,1,0,65,0,1
49330,-105.263157894737,4,1,0,65,0,1
53330,-100,4,1,0,65,0,1
54747,-100,4,1,0,65,0,0
78830,-111.111111111111,4,1,0,65,0,0
105247,-105.263157894737,4,1,0,65,0,0
106664,-100,4,1,0,65,0,0
107497,-100,4,1,0,5,0,0
107997,-117.647058823529,4,1,0,65,0,0
118664,-111.111111111111,4,1,0,65,0,0
123997,-105.263157894737,4,1,0,65,0,0
127997,-100,4,1,0,65,0,0
128080,-100,4,1,0,65,0,1
128164,-100,4,1,0,65,0,0
128247,-100,4,1,0,65,0,1
128330,-100,4,1,0,65,0,0
128414,-100,4,1,0,65,0,1
128497,-100,4,1,0,65,0,0
128580,-100,4,1,0,65,0,1
128664,-100,4,1,0,65,0,0
129330,-100,4,1,0,85,0,0
129414,-95.2380952380952,4,1,0,85,0,1
129497,-95.2380952380952,4,1,0,65,0,1
134664,-111.111111111111,4,1,0,65,0,1
137247,-95.2380952380952,4,1,0,65,0,1
145330,-105.263157894737,4,1,0,65,0,1
149330,-100,4,1,0,65,0,1
150747,-100,4,1,0,65,0,0
172164,-105.263157894737,4,1,0,65,0,0
192414,-111.111111111111,4,1,0,50,0,0
193414,-117.647058823529,4,1,0,5,0,0

[HitObjects]
256,192,81,5,0,0:0:0:0:
256,192,164,1,8,0:0:0:0:
256,192,247,1,8,0:0:0:0:
256,192,330,1,0,0:0:0:0:
256,192,414,1,8,0:0:0:0:
256,192,497,1,8,0:0:0:0:
256,192,580,1,0,0:0:0:0:
256,192,664,1,0,0:0:0:0:
256,192,747,1,8,0:0:0:0:
256,192,914,1,0,0:0:0:0:
256,192,1080,1,0,0:0:0:0:
256,192,1247,1,8,0:0:0:0:
256,192,1414,1,0,0:0:0:0:
256,192,1497,1,0,0:0:0:0:
256,192,1580,1,0,0:0:0:0:
256,192,1664,1,0,0:0:0:0:
256,192,1747,1,8,0:0:0:0:
256,192,1830,1,8,0:0:0:0:
256,192,1914,1,0,0:0:0:0:
256,192,1997,1,0,0:0:0:0:
256,192,2080,1,8,0:0:0:0:
256,192,2164,1,8,0:0:0:0:
256,192,2247,1,0,0:0:0:0:
256,192,2330,1,0,0:0:0:0:
256,192,2414,1,8,0:0:0:0:
256,192,2580,1,0,0:0:0:0:
256,192,2747,1,8,0:0:0:0:
256,192,2914,1,0,0:0:0:0:
256,192,2997,1,0,0:0:0:0:
256,192,3080,1,0,0:0:0:0:
256,192,3247,1,0,0:0:0:0:
256,192,3414,1,8,0:0:0:0:
256,192,3580,1,8,0:0:0:0:
256,192,3747,1,0,0:0:0:0:
256,192,3914,1,0,0:0:0:0:
256,192,4080,1,0,0:0:0:0:
256,192,4580,1,0,0:0:0:0:
256,192,4747,1,8,0:0:0:0:
256,192,5080,1,0,0:0:0:0:
256,192,5414,1,0,0:0:0:0:
256,192,5747,1,0,0:0:0:0:
256,192,5914,1,0,0:0:0:0:
256,192,6080,1,8,0:0:0:0:
256,192,6414,1,0,0:0:0:0:
256,192,6747,1,0,0:0:0:0:
256,192,7080,1,0,0:0:0:0:
256,192,7247,1,0,0:0:0:0:
256,192,7414,1,8,0:0:0:0:
256,192,7580,1,0,0:0:0:0:
256,192,7747,1,8,0:0:0:0:
256,192,7914,1,8,0:0:0:0:
256,192,8247,1,8,0:0:0:0:
256,192,8414,1,0,0:0:0:0:
256,192,8747,1,8,0:0:0:0:
256,192,8914,1,0,0:0:0:0:
256,192,9080,1,8,0:0:0:0:
256,192,9247,1,8,0:0:0:0:
256,192,9414,1,0,0:0:0:0:
256,192,9580,1,8,0:0:0:0:
256,192,9747,1,0,0:0:0:0:
256,192,9830,1,0,0:0:0:0:
256,192,9914,1,0,0:0:0:0:
256,192,9997,1,0,0:0:0:0:
256,192,10080,1,8,0:0:0:0:
256,192,10247,1,8,0:0:0:0:
256,192,10414,1,0,0:0:0:0:
256,192,10580,1,0,0:0:0:0:
256,192,10747,1,8,0:0:0:0:
256,192,10830,1,8,0:0:0:0:
256,192,10914,1,8,0:0:0:0:
256,192,10997,1,8,0:0:0:0:
256,192,11080,1,0,0:0:0:0:
256,192,11164,1,0,0:0:0:0:
256,192,11247,1,0,0:0:0:0:
256,192,11330,1,0,0:0:0:0:
256,192,11414,1,8,0:0:0:0:
256,192,11747,1,0,0:0:0:0:
256,192,12080,1,0,0:0:0:0:
256,192,12247,1,8,0:0:0:0:
256,192,12414,1,0,0:0:0:0:
256,192,12497,1,0,0:0:0:0:
256,192,12580,1,0,0:0:0:0:
256,192,12664,1,0,0:0:0:0:
256,192,12747,1,8,0:0:0:0:
256,192,12914,1,8,0:0:0:0:
256,192,12997,1,8,0:0:0:0:
256,192,13080,1,0,0:0:0:0:
256,192,13247,1,8,0:0:0:0:
256,192,13580,1,8,0:0:0:0:
256,192,13747,1,0,0:0:0:0:
256,192,13830,1,0,0:0:0:0:
256,192,13914,1,8,0:0:0:0:
256,192,14080,1,8,0:0:0:0:
256,192,14247,1,0,0:0:0:0:
256,192,14414,1,8,0:0:0:0:
256,192,14580,1,8,0:0:0:0:
256,192,14747,1,0,0:0:0:0:
256,192,15080,1,8,0:0:0:0:
256,192,15247,1,0,0:0:0:0:
256,192,15414,1,8,0:0:0:0:
256,192,15580,1,0,0:0:0:0:
256,192,15747,1,0,0:0:0:0:
256,192,15914,1,8,0:0:0:0:
256,192,15997,1,8,0:0:0:0:
256,192,16080,1,0,0:0:0:0:
256,192,16247,1,0,0:0:0:0:
256,192,16414,1,0,0:0:0:0:
256,192,16747,1,8,0:0:0:0:
256,192,16914,1,0,0:0:0:0:
256,192,17080,1,8,0:0:0:0:
256,192,17247,1,0,0:0:0:0:
256,192,17330,1,0,0:0:0:0:
256,192,17414,1,0,0:0:0:0:
256,192,17580,1,0,0:0:0:0:
256,192,17747,1,8,0:0:0:0:
256,192,17914,1,0,0:0:0:0:
256,192,18080,1,8,0:0:0:0:
256,192,18247,1,0,0:0:0:0:
256,192,18414,1,0,0:0:0:0:
256,192,18580,1,8,0:0:0:0:
256,192,18664,1,8,0:0:0:0:
256,192,18747,1,0,0:0:0:0:
256,192,18914,1,0,0:0:0:0:
256,192,19080,1,0,0:0:0:0:
256,192,19414,1,8,0:0:0:0:
256,192,19580,1,0,0:0:0:0:
256,192,19747,1,8,0:0:0:0:
256,192,19914,1,0,0:0:0:0:
256,192,20080,1,0,0:0:0:0:
256,192,20247,1,8,0:0:0:0:
256,192,20414,1,8,0:0:0:0:
256,192,20580,1,0,0:0:0:0:
256,192,20664,1,0,0:0:0:0:
256,192,20747,1,8,0:0:0:0:
256,192,21080,1,0,0:0:0:0:
256,192,21247,1,8,0:0:0:0:
256,192,21414,1,0,0:0:0:0:
256,192,21497,1,8,0:0:0:0:
256,192,21580,1,8,0:0:0:0:
256,192,21664,1,0,0:0:0:0:
256,192,21747,1,8,0:0:0:0:
256,192,21830,1,8,0:0:0:0:
256,192,21914,1,0,0:0:0:0:
256,192,21997,1,8,0:0:0:0:
256,192,22080,1,0,0:0:0:0:
256,192,22164,1,0,0:0:0:0:
256,192,22247,1,8,0:0:0:0:
256,192,22330,1,8,0:0:0:0:
256,192,22414,1,0,0:0:0:0:
256,192,22497,1,0,0:0:0:0:
256,192,22580,1,0,0:0:0:0:
256,192,22664,1,0,0:0:0:0:
256,192,22747,1,8,0:0:0:0:
256,192,23080,1,0,0:0:0:0:
256,192,23164,1,0,0:0:0:0:
256,192,23247,1,0,0:0:0:0:
256,192,23330,1,0,0:0:0:0:
256,192,23414,1,8,0:0:0:0:
256,192,23747,1,0,0:0:0:0:
256,192,23914,1,8,0:0:0:0:
256,192,24080,1,0,0:0:0:0:
256,192,24192,1,8,0:0:0:0:
256,192,24303,1,8,0:0:0:0:
256,192,24414,1,0,0:0:0:0:
256,192,24497,1,0,0:0:0:0:
256,192,24580,1,0,0:0:0:0:
256,192,24664,1,0,0:0:0:0:
256,192,24747,1,8,0:0:0:0:
256,192,25080,1,0,0:0:0:0:
256,192,25414,1,0,0:0:0:0:
256,192,25580,1,8,0:0:0:0:
256,192,25747,1,0,0:0:0:0:
256,192,25830,1,0,0:0:0:0:
256,192,25914,1,0,0:0:0:0:
256,192,25997,1,0,0:0:0:0:
256,192,26080,1,8,0:0:0:0:
256,192,26247,1,0,0:0:0:0:
256,192,26331,1,0,0:0:0:0:
256,192,26414,1,0,0:0:0:0:
256,192,26580,1,8,0:0:0:0:
256,192,26664,1,8,0:0:0:0:
256,192,26747,1,0,0:0:0:0:
256,192,26858,1,0,0:0:0:0:
256,192,26969,1,0,0:0:0:0:
256,192,27080,1,8,0:0:0:0:
256,192,27247,1,0,0:0:0:0:
256,192,27330,1,0,0:0:0:0:
256,192,27414,1,8,0:0:0:0:
256,192,27747,1,8,0:0:0:0:
256,192,27914,1,0,0:0:0:0:
256,192,28080,1,8,0:0:0:0:
256,192,28414,1,0,0:0:0:0:
256,192,28580,1,0,0:0:0:0:
256,192,28747,1,8,0:0:0:0:
256,192,29080,1,0,0:0:0:0:
256,192,29247,1,0,0:0:0:0:
256,192,29414,1,8,0:0:0:0:
256,192,29580,1,0,0:0:0:0:
256,192,29747,1,0,0:0:0:0:
256,192,30080,1,8,0:0:0:0:
256,192,30414,1,0,0:0:0:0:
256,192,30747,1,8,0:0:0:0:
256,192,30914,1,8,0:0:0:0:
256,192,31080,1,0,0:0:0:0:
256,192,31247,1,0,0:0:0:0:
256,192,31414,1,8,0:0:0:0:
256,192,31580,1,8,0:0:0:0:
256,192,31747,1,0,0:0:0:0:
256,192,31914,1,0,0:0:0:0:
256,192,32080,1,8,0:0:0:0:
256,192,32164,1,0,0:0:0:0:
256,192,32247,1,8,0:0:0:0:
256,192,32330,1,0,0:0:0:0:
256,192,32414,1,8,0:0:0:0:
256,192,32497,1,0,0:0:0:0:
256,192,32580,1,0,0:0:0:0:
256,192,32664,1,0,0:0:0:0:
256,192,32747,1,8,0:0:0:0:
256,192,32914,1,0,0:0:0:0:
256,192,33080,1,8,0:0:0:0:
256,192,33247,1,8,0:0:0:0:
256,192,33414,1,4,0:0:0:0:
256,192,33580,1,0,0:0:0:0:
256,192,33747,1,8,0:0:0:0:
256,192,33914,1,0,0:0:0:0:
256,192,33997,1,8,0:0:0:0:
256,192,34080,1,0,0:0:0:0:
256,192,34247,1,0,0:0:0:0:
256,192,34414,1,8,0:0:0:0:
256,192,34580,1,8,0:0:0:0:
256,192,34664,1,8,0:0:0:0:
256,192,34747,1,0,0:0:0:0:
256,192,34914,1,0,0:0:0:0:
256,192,35080,1,8,0:0:0:0:
256,192,35247,1,8,0:0:0:0:
256,192,35414,1,0,0:0:0:0:
256,192,35497,1,8,0:0:0:0:
256,192,35580,1,0,0:0:0:0:
256,192,35664,1,0,0:0:0:0:
256,192,35747,1,8,0:0:0:0:
256,192,35914,1,8,0:0:0:0:
256,192,36080,1,0,0:0:0:0:
256,192,36164,1,0,0:0:0:0:
256,192,36247,1,8,0:0:0:0:
256,192,36330,1,8,0:0:0:0:
256,192,36414,1,0,0:0:0:0:
256,192,36497,1,8,0:0:0:0:
256,192,36580,1,0,0:0:0:0:
256,192,36664,1,0,0:0:0:0:
256,192,36747,1,8,0:0:0:0:
256,192,36830,1,8,0:0:0:0:
256,192,36914,1,8,0:0:0:0:
256,192,36997,1,8,0:0:0:0:
256,192,37080,1,0,0:0:0:0:
256,192,37247,1,8,0:0:0:0:
256,192,37330,1,8,0:0:0:0:
256,192,37414,1,0,0:0:0:0:
256,192,37580,1,0,0:0:0:0:
256,192,37747,1,8,0:0:0:0:
256,192,37914,1,8,0:0:0:0:
256,192,38080,1,0,0:0:0:0:
256,192,38164,1,0,0:0:0:0:
256,192,38247,1,8,0:0:0:0:
256,192,38330,1,8,0:0:0:0:
256,192,38414,1,0,0:0:0:0:
256,192,38580,1,8,0:0:0:0:
256,192,38747,1,0,0:0:0:0:
256,192,38914,1,0,0:0:0:0:
256,192,39080,1,0,0:0:0:0:
256,192,39414,1,8,0:0:0:0:
256,192,39747,1,0,0:0:0:0:
256,192,39914,1,0,0:0:0:0:
256,192,40080,1,8,0:0:0:0:
256,192,40247,1,0,0:0:0:0:
256,192,40414,1,0,0:0:0:0:
256,192,40747,1,8,0:0:0:0:
256,192,41080,1,0,0:0:0:0:
256,192,41414,1,0,0:0:0:0:
256,192,41497,1,0,0:0:0:0:
256,192,41580,1,0,0:0:0:0:
256,192,41664,1,0,0:0:0:0:
256,192,41747,1,8,0:0:0:0:
256,192,41914,1,8,0:0:0:0:
256,192,42080,1,0,0:0:0:0:
256,192,42247,1,0,0:0:0:0:
256,192,42414,1,8,0:0:0:0:
256,192,42580,1,8,0:0:0:0:
256,192,42747,1,0,0:0:0:0:
256,192,42830,1,8,0:0:0:0:
256,192,42914,1,8,0:0:0:0:
256,192,42997,1,0,0:0:0:0:
256,192,43080,1,8,0:0:0:0:
256,192,43164,1,8,0:0:0:0:
256,192,43247,1,0,0:0:0:0:
256,192,43330,1,0,0:0:0:0:
256,192,43414,1,8,0:0:0:0:
256,192,43580,1,0,0:0:0:0:
256,192,43664,1,0,0:0:0:0:
256,192,43747,1,0,0:0:0:0:
256,192,43914,1,8,0:0:0:0:
256,192,44080,1,4,0:0:0:0:
256,192,44247,1,0,0:0:0:0:
256,192,44414,1,8,0:0:0:0:
256,192,44580,1,0,0:0:0:0:
256,192,44664,1,0,0:0:0:0:
256,192,44747,1,0,0:0:0:0:
256,192,44914,1,0,0:0:0:0:
256,192,45080,1,8,0:0:0:0:
256,192,45247,1,0,0:0:0:0:
256,192,45414,1,8,0:0:0:0:
256,192,45497,1,0,0:0:0:0:
256,192,45580,1,0,0:0:0:0:
256,192,45664,1,0,0:0:0:0:
256,192,45747,1,8,0:0:0:0:
256,192,45914,1,0,0:0:0:0:
256,192,46080,1,8,0:0:0:0:
256,192,46247,1,0,0:0:0:0:
256,192,46330,1,0,0:0:0:0:
256,192,46414,1,8,0:0:0:0:
256,192,46580,1,0,0:0:0:0:
256,192,46747,1,8,0:0:0:0:
256,192,46830,1,8,0:0:0:0:
256,192,46914,1,8,0:0:0:0:
256,192,46997,1,8,0:0:0:0:
256,192,47080,1,0,0:0:0:0:
256,192,47164,1,0,0:0:0:0:
256,192,47247,1,8,0:0:0:0:
256,192,47330,1,8,0:0:0:0:
256,192,47414,1,0,0:0:0:0:
256,192,47580,1,8,0:0:0:0:
256,192,47664,1,8,0:0:0:0:
256,192,47747,1,0,0:0:0:0:
256,192,47914,1,0,0:0:0:0:
256,192,48080,1,8,0:0:0:0:
256,192,48247,1,0,0:0:0:0:
256,192,48330,1,8,0:0:0:0:
256,192,48414,1,0,0:0:0:0:
256,192,48580,1,8,0:0:0:0:
256,192,48747,1,0,0:0:0:0:
256,192,48830,1,8,0:0:0:0:
256,192,48914,1,8,0:0:0:0:
256,192,48997,1,8,0:0:0:0:
256,192,49080,1,0,0:0:0:0:
256,192,49247,1,8,0:0:0:0:
256,192,49414,1,0,0:0:0:0:
256,192,49580,1,0,0:0:0:0:
256,192,49747,1,0,0:0:0:0:
256,192,50080,1,8,0:0:0:0:
256,192,50414,1,0,0:0:0:0:
256,192,50580,1,0,0:0:0:0:
256,192,50914,1,0,0:0:0:0:
256,192,51080,1,0,0:0:0:0:
256,192,51414,1,8,0:0:0:0:
256,192,51747,1,0,0:0:0:0:
256,192,52080,1,4,0:0:0:0:
256,192,52414,1,0,0:0:0:0:
256,192,52580,1,8,0:0:0:0:
256,192,52747,1,0,0:0:0:0:
256,192,52914,1,0,0:0:0:0:
256,192,53080,1,8,0:0:0:0:
256,192,53247,1,8,0:0:0:0:
256,192,53414,1,0,0:0:0:0:
256,192,53497,1,8,0:0:0:0:
256,192,53580,1,8,0:0:0:0:
256,192,53664,1,0,0:0:0:0:
256,192,53747,1,8,0:0:0:0:
256,192,53830,1,8,0:0:0:0:
256,192,53914,1,0,0:0:0:0:
256,192,53997,1,8,0:0:0:0:
256,192,54080,1,0,0:0:0:0:
256,192,54164,1,0,0:0:0:0:
256,192,54247,1,8,0:0:0:0:
256,192,54330,1,8,0:0:0:0:
256,192,54414,1,0,0:0:0:0:
256,192,54497,1,8,0:0:0:0:
256,192,54580,1,0,0:0:0:0:
256,192,54664,1,0,0:0:0:0:
256,192,54747,1,8,0:0:0:0:
256,192,54914,1,0,0:0:0:0:
256,192,55080,1,8,0:0:0:0:
256,192,55247,1,0,0:0:0:0:
256,192,55330,1,0,0:0:0:0:
256,192,55414,1,8,0:0:0:0:
256,192,55580,1,0,0:0:0:0:
256,192,55747,1,8,0:0:0:0:
256,192,55914,1,8,0:0:0:0:
256,192,56080,1,0,0:0:0:0:
256,192,56414,1,8,0:0:0:0:
256,192,56580,1,0,0:0:0:0:
256,192,56747,1,8,0:0:0:0:
256,192,56914,1,0,0:0:0:0:
256,192,56997,1,0,0:0:0:0:
256,192,57080,1,0,0:0:0:0:
256,192,57247,1,8,0:0:0:0:
256,192,57414,1,0,0:0:0:0:
256,192,57525,1,8,0:0:0:0:
256,192,57636,1,8,0:0:0:0:
256,192,57747,1,0,0:0:0:0:
256,192,57830,1,0,0:0:0:0:
256,192,57914,1,0,0:0:0:0:
256,192,57997,1,0,0:0:0:0:
256,192,58080,1,8,0:0:0:0:
256,192,58247,1,0,0:0:0:0:
256,192,58414,1,8,0:0:0:0:
256,192,58580,1,8,0:0:0:0:
256,192,58664,1,8,0:0:0:0:
256,192,58747,1,0,0:0:0:0:
256,192,58914,1,0,0:0:0:0:
256,192,59080,1,8,0:0:0:0:
256,192,59247,1,0,0:0:0:0:
256,192,59303,1,0,0:0:0:0:
256,192,59358,1,0,0:0:0:0:
256,192,59414,1,8,0:0:0:0:
256,192,59580,1,0,0:0:0:0:
256,192,59747,1,8,0:0:0:0:
256,192,59914,1,8,0:0:0:0:
256,192,60080,1,0,0:0:0:0:
256,192,60164,1,8,0:0:0:0:
256,192,60247,1,0,0:0:0:0:
256,192,60330,1,0,0:0:0:0:
256,192,60414,1,8,0:0:0:0:
256,192,60580,1,0,0:0:0:0:
256,192,60747,1,8,0:0:0:0:
256,192,60914,1,0,0:0:0:0:
256,192,61080,1,8,0:0:0:0:
256,192,61164,1,8,0:0:0:0:
256,192,61247,1,0,0:0:0:0:
256,192,61330,1,8,0:0:0:0:
256,192,61414,1,0,0:0:0:0:
256,192,61497,1,0,0:0:0:0:
256,192,61580,1,0,0:0:0:0:
256,192,61664,1,0,0:0:0:0:
256,192,61747,1,8,0:0:0:0:
256,192,61914,1,0,0:0:0:0:
256,192,62080,1,8,0:0:0:0:
256,192,62247,1,0,0:0:0:0:
256,192,62330,1,0,0:0:0:0:
256,192,62414,1,0,0:0:0:0:
256,192,62580,1,8,0:0:0:0:
256,192,62747,1,8,0:0:0:0:
256,192,62914,1,0,0:0:0:0:
256,192,63080,1,8,0:0:0:0:
256,192,63164,1,8,0:0:0:0:
256,192,63247,1,8,0:0:0:0:
256,192,63330,1,0,0:0:0:0:
256,192,63414,1,8,0:0:0:0:
256,192,63580,1,0,0:0:0:0:
256,192,63747,1,0,0:0:0:0:
256,192,63914,1,8,0:0:0:0:
256,192,63997,1,8,0:0:0:0:
256,192,64080,1,0,0:0:0:0:
256,192,64164,1,8,0:0:0:0:
256,192,64247,1,8,0:0:0:0:
256,192,64330,1,0,0:0:0:0:
256,192,64414,1,8,0:0:0:0:
256,192,64497,1,8,0:0:0:0:
256,192,64580,1,0,0:0:0:0:
256,192,64664,1,0,0:0:0:0:
256,192,64747,1,8,0:0:0:0:
256,192,64914,1,0,0:0:0:0:
256,192,65080,1,8,0:0:0:0:
256,192,65247,1,8,0:0:0:0:
256,192,65414,1,4,0:0:0:0:
256,192,65580,1,0,0:0:0:0:
256,192,65746,1,8,0:0:0:0:
256,192,65913,1,0,0:0:0:0:
256,192,65996,1,0,0:0:0:0:
256,192,66080,1,8,0:0:0:0:
256,192,66246,1,0,0:0:0:0:
256,192,66413,1,8,0:0:0:0:
256,192,66580,1,8,0:0:0:0:
256,192,66746,1,0,0:0:0:0:
256,192,67080,1,8,0:0:0:0:
256,192,67246,1,0,0:0:0:0:
256,192,67413,1,8,0:0:0:0:
256,192,67580,1,0,0:0:0:0:
256,192,67663,1,0,0:0:0:0:
256,192,67746,1,0,0:0:0:0:
256,192,67913,1,8,0:0:0:0:
256,192,68080,1,0,0:0:0:0:
256,192,68191,1,8,0:0:0:0:
256,192,68302,1,8,0:0:0:0:
256,192,68413,1,0,0:0:0:0:
256,192,68496,1,0,0:0:0:0:
256,192,68580,1,0,0:0:0:0:
256,192,68663,1,0,0:0:0:0:
256,192,68746,1,8,0:0:0:0:
256,192,68913,1,0,0:0:0:0:
256,192,69080,1,8,0:0:0:0:
256,192,69246,1,8,0:0:0:0:
256,192,69330,1,8,0:0:0:0:
256,192,69413,1,0,0:0:0:0:
256,192,69580,1,0,0:0:0:0:
256,192,69746,1,8,0:0:0:0:
256,192,69913,1,0,0:0:0:0:
256,192,69969,1,0,0:0:0:0:
256,192,70024,1,0,0:0:0:0:
256,192,70080,1,8,0:0:0:0:
256,192,70246,1,0,0:0:0:0:
256,192,70413,1,8,0:0:0:0:
256,192,70580,1,8,0:0:0:0:
256,192,70746,1,0,0:0:0:0:
256,192,70830,1,8,0:0:0:0:
256,192,70913,1,0,0:0:0:0:
256,192,70996,1,0,0:0:0:0:
256,192,71080,1,8,0:0:0:0:
256,192,71246,1,0,0:0:0:0:
256,192,71413,1,8,0:0:0:0:
256,192,71580,1,0,0:0:0:0:
256,192,71746,1,8,0:0:0:0:
256,192,71830,1,8,0:0:0:0:
256,192,71913,1,0,0:0:0:0:
256,192,71996,1,8,0:0:0:0:
256,192,72080,1,0,0:0:0:0:
256,192,72163,1,0,0:0:0:0:
256,192,72246,1,0,0:0:0:0:
256,192,72330,1,0,0:0:0:0:
256,192,72413,1,8,0:0:0:0:
256,192,72580,1,0,0:0:0:0:
256,192,72746,1,8,0:0:0:0:
256,192,72913,1,0,0:0:0:0:
256,192,72996,1,0,0:0:0:0:
256,192,73080,1,0,0:0:0:0:
256,192,73246,1,8,0:0:0:0:
256,192,73413,1,8,0:0:0:0:
256,192,73580,1,0,0:0:0:0:
256,192,73746,1,8,0:0:0:0:
256,192,73830,1,8,0:0:0:0:
256,192,73913,1,8,0:0:0:0:
256,192,73996,1,0,0:0:0:0:
256,192,74080,1,8,0:0:0:0:
256,192,74246,1,0,0:0:0:0:
256,192,74413,1,0,0:0:0:0:
256,192,74580,1,8,0:0:0:0:
256,192,74746,1,0,0:0:0:0:
256,192,74830,1,8,0:0:0:0:
256,192,74913,1,8,0:0:0:0:
256,192,74996,1,0,0:0:0:0:
256,192,75080,1,8,0:0:0:0:
256,192,75163,1,8,0:0:0:0:
256,192,75246,1,0,0:0:0:0:
256,192,75330,1,0,0:0:0:0:
256,192,75413,1,8,0:0:0:0:
256,192,75580,1,0,0:0:0:0:
256,192,75746,1,8,0:0:0:0:
256,192,75913,1,8,0:0:0:0:
256,192,76080,1,0,0:0:0:0:
256,192,76247,1,8,0:0:0:0:
256,192,76414,1,0,0:0:0:0:
256,192,76497,1,0,0:0:0:0:
256,192,76580,1,0,0:0:0:0:
256,192,76664,1,0,0:0:0:0:
256,192,76747,1,8,0:0:0:0:
256,192,76914,1,0,0:0:0:0:
256,192,77080,1,0,0:0:0:0:
256,192,77247,1,8,0:0:0:0:
256,192,77330,1,8,0:0:0:0:
256,192,77414,1,0,0:0:0:0:
256,192,77580,1,0,0:0:0:0:
256,192,77747,1,8,0:0:0:0:
256,192,77830,1,8,0:0:0:0:
256,192,77914,1,0,0:0:0:0:
256,192,78080,1,8,0:0:0:0:
256,192,78247,1,0,0:0:0:0:
256,192,78330,1,0,0:0:0:0:
256,192,78414,1,0,0:0:0:0:
256,192,78580,1,8,0:0:0:0:
256,192,78747,1,0,0:0:0:0:
256,192,79247,1,0,0:0:0:0:
256,192,79414,1,8,0:0:0:0:
256,192,79747,1,0,0:0:0:0:
256,192,80080,1,0,0:0:0:0:
256,192,80414,1,0,0:0:0:0:
256,192,80580,1,0,0:0:0:0:
256,192,80747,1,8,0:0:0:0:
256,192,81080,1,0,0:0:0:0:
256,192,81414,1,0,0:0:0:0:
256,192,81747,1,0,0:0:0:0:
256,192,81914,1,0,0:0:0:0:
256,192,82080,1,8,0:0:0:0:
256,192,82247,1,0,0:0:0:0:
256,192,82414,1,8,0:0:0:0:
256,192,82580,1,8,0:0:0:0:
256,192,82914,1,8,0:0:0:0:
256,192,83080,1,0,0:0:0:0:
256,192,83414,1,8,0:0:0:0:
256,192,83580,1,0,0:0:0:0:
256,192,83747,1,8,0:0:0:0:
256,192,83914,5,8,0:0:0:0:
256,192,84080,1,0,0:0:0:0:
256,192,84247,1,8,0:0:0:0:
256,192,84414,1,0,0:0:0:0:
256,192,84497,1,0,0:0:0:0:
256,192,84580,1,0,0:0:0:0:
256,192,84664,1,0,0:0:0:0:
256,192,84747,1,8,0:0:0:0:
256,192,84914,1,8,0:0:0:0:
256,192,85080,1,0,0:0:0:0:
256,192,85247,1,0,0:0:0:0:
256,192,85414,1,8,0:0:0:0:
256,192,85497,1,8,0:0:0:0:
256,192,85580,1,8,0:0:0:0:
256,192,85664,1,8,0:0:0:0:
256,192,85747,1,0,0:0:0:0:
256,192,85830,1,0,0:0:0:0:
256,192,85914,1,0,0:0:0:0:
256,192,85997,1,0,0:0:0:0:
256,192,86080,1,8,0:0:0:0:
256,192,86414,1,0,0:0:0:0:
256,192,86747,1,0,0:0:0:0:
256,192,86914,1,8,0:0:0:0:
256,192,87080,1,0,0:0:0:0:
256,192,87164,1,8,0:0:0:0:
256,192,87247,1,0,0:0:0:0:
256,192,87330,1,0,0:0:0:0:
256,192,87414,1,8,0:0:0:0:
256,192,87580,1,8,0:0:0:0:
256,192,87664,1,8,0:0:0:0:
256,192,87747,1,0,0:0:0:0:
256,192,87914,1,8,0:0:0:0:
256,192,88247,1,8,0:0:0:0:
256,192,88414,1,0,0:0:0:0:
256,192,88497,1,0,0:0:0:0:
256,192,88580,1,8,0:0:0:0:
256,192,88747,1,8,0:0:0:0:
256,192,88914,1,0,0:0:0:0:
256,192,89080,1,8,0:0:0:0:
256,192,89247,1,8,0:0:0:0:
256,192,89414,1,0,0:0:0:0:
256,192,89747,1,8,0:0:0:0:
256,192,89914,1,0,0:0:0:0:
256,192,90080,1,8,0:0:0:0:
256,192,90247,1,0,0:0:0:0:
256,192,90414,1,0,0:0:0:0:
256,192,90580,1,8,0:0:0:0:
256,192,90664,1,8,0:0:0:0:
256,192,90747,1,0,0:0:0:0:
256,192,90914,1,0,0:0:0:0:
256,192,91080,1,0,0:0:0:0:
256,192,91414,1,8,0:0:0:0:
256,192,91580,1,0,0:0:0:0:
256,192,91747,1,8,0:0:0:0:
256,192,91914,1,0,0:0:0:0:
256,192,91997,1,0,0:0:0:0:
256,192,92080,1,0,0:0:0:0:
256,192,92247,1,0,0:0:0:0:
256,192,92414,1,8,0:0:0:0:
256,192,92580,1,0,0:0:0:0:
256,192,92747,1,8,0:0:0:0:
256,192,92914,1,0,0:0:0:0:
256,192,93080,1,0,0:0:0:0:
256,192,93247,1,8,0:0:0:0:
256,192,93330,1,8,0:0:0:0:
256,192,93414,1,0,0:0:0:0:
256,192,93580,1,0,0:0:0:0:
256,192,93747,1,0,0:0:0:0:
256,192,94080,1,8,0:0:0:0:
256,192,94247,1,0,0:0:0:0:
256,192,94414,1,8,0:0:0:0:
256,192,94580,1,0,0:0:0:0:
256,192,94747,1,0,0:0:0:0:
256,192,94914,1,8,0:0:0:0:
256,192,95080,1,8,0:0:0:0:
256,192,95247,1,0,0:0:0:0:
256,192,95330,1,0,0:0:0:0:
256,192,95414,1,8,0:0:0:0:
256,192,95747,1,0,0:0:0:0:
256,192,95914,1,8,0:0:0:0:
256,192,96080,1,0,0:0:0:0:
256,192,96163,1,8,0:0:0:0:
256,192,96246,1,8,0:0:0:0:
256,192,96330,1,0,0:0:0:0:
256,192,96413,1,8,0:0:0:0:
256,192,96496,1,8,0:0:0:0:
256,192,96580,1,0,0:0:0:0:
256,192,96663,1,8,0:0:0:0:
256,192,96746,1,0,0:0:0:0:
256,192,96830,1,0,0:0:0:0:
256,192,96913,1,8,0:0:0:0:
256,192,96996,1,8,0:0:0:0:
256,192,97080,1,0,0:0:0:0:
256,192,97163,1,0,0:0:0:0:
256,192,97246,1,0,0:0:0:0:
256,192,97330,1,0,0:0:0:0:
256,192,97413,1,8,0:0:0:0:
256,192,97747,1,0,0:0:0:0:
256,192,97831,1,0,0:0:0:0:
256,192,97914,1,0,0:0:0:0:
256,192,97997,1,0,0:0:0:0:
256,192,98081,1,8,0:0:0:0:
256,192,98414,1,0,0:0:0:0:
256,192,98581,1,8,0:0:0:0:
256,192,98747,1,0,0:0:0:0:
256,192,98859,1,8,0:0:0:0:
256,192,98970,1,8,0:0:0:0:
256,192,99081,1,0,0:0:0:0:
256,192,99164,1,0,0:0:0:0:
256,192,99247,1,0,0:0:0:0:
256,192,99331,1,0,0:0:0:0:
256,192,99414,1,8,0:0:0:0:
256,192,99747,1,0,0:0:0:0:
256,192,100081,1,0,0:0:0:0:
256,192,100247,1,8,0:0:0:0:
256,192,100414,1,0,0:0:0:0:
256,192,100497,1,0,0:0:0:0:
256,192,100581,1,0,0:0:0:0:
256,192,100664,1,0,0:0:0:0:
256,192,100747,1,8,0:0:0:0:
256,192,100914,1,0,0:0:0:0:
256,192,100998,1,0,0:0:0:0:
256,192,101081,1,0,0:0:0:0:
256,192,101247,5,8,0:0:0:0:
256,192,101331,1,8,0:0:0:0:
256,192,101414,1,0,0:0:0:0:
256,192,101525,1,0,0:0:0:0:
256,192,101636,1,0,0:0:0:0:
256,192,101747,1,8,0:0:0:0:
256,192,101914,1,0,0:0:0:0:
256,192,101997,1,0,0:0:0:0:
256,192,102081,1,8,0:0:0:0:
256,192,102414,1,0,0:0:0:0:
256,192,102580,1,0,0:0:0:0:
256,192,102747,1,8,0:0:0:0:
256,192,103080,1,0,0:0:0:0:
256,192,103247,1,0,0:0:0:0:
256,192,103414,1,8,0:0:0:0:
256,192,103747,1,0,0:0:0:0:
256,192,103914,1,0,0:0:0:0:
256,192,104080,1,8,0:0:0:0:
256,192,104247,1,0,0:0:0:0:
256,192,104414,1,0,0:0:0:0:
256,192,104747,1,8,0:0:0:0:
256,192,105080,1,0,0:0:0:0:
256,192,105414,1,8,0:0:0:0:
256,192,105580,1,8,0:0:0:0:
256,192,105747,1,0,0:0:0:0:
256,192,105914,1,0,0:0:0:0:
256,192,106080,1,8,0:0:0:0:
256,192,106247,1,8,0:0:0:0:
256,192,106414,1,0,0:0:0:0:
256,192,106580,1,0,0:0:0:0:
256,192,106747,1,8,0:0:0:0:
256,192,106830,1,0,0:0:0:0:
256,192,106914,1,8,0:0:0:0:
256,192,106997,1,0,0:0:0:0:
256,192,107080,1,8,0:0:0:0:
256,192,107164,1,0,0:0:0:0:
256,192,107247,1,0,0:0:0:0:
256,192,107330,1,0,0:0:0:0:
256,192,107414,1,8,0:0:0:0:
256,192,107580,12,0,107914,0:0:0:0:
256,192,108080,5,4,0:0:0:0:
256,192,108247,1,8,0:0:0:0:
256,192,108414,1,0,0:0:0:0:
256,192,108580,1,8,0:0:0:0:
256,192,108664,1,8,0:0:0:0:
256,192,108747,1,0,0:0:0:0:
256,192,109080,1,0,0:0:0:0:
256,192,109414,1,8,0:0:0:0:
256,192,110080,1,0,0:0:0:0:
256,192,110414,1,8,0:0:0:0:
256,192,110580,1,0,0:0:0:0:
256,192,110747,1,8,0:0:0:0:
256,192,111080,1,0,0:0:0:0:
256,192,111414,1,0,0:0:0:0:
256,192,111747,1,8,0:0:0:0:
256,192,112580,1,0,0:0:0:0:
256,192,112747,1,8,0:0:0:0:
256,192,112914,1,0,0:0:0:0:
256,192,113080,1,0,0:0:0:0:
256,192,113247,1,8,0:0:0:0:
256,192,113414,1,8,0:0:0:0:
256,192,113580,1,0,0:0:0:0:
256,192,113747,1,0,0:0:0:0:
256,192,113914,1,0,0:0:0:0:
256,192,114080,1,8,0:0:0:0:
256,192,114414,1,0,0:0:0:0:
256,192,114747,1,8,0:0:0:0:
256,192,115080,1,0,0:0:0:0:
256,192,115414,1,8,0:0:0:0:
256,192,115747,1,8,0:0:0:0:
256,192,116080,1,0,0:0:0:0:
256,192,116414,1,8,0:0:0:0:
256,192,116497,1,8,0:0:0:0:
256,192,116580,1,0,0:0:0:0:
256,192,116747,1,0,0:0:0:0:
256,192,116914,1,8,0:0:0:0:
256,192,117080,1,8,0:0:0:0:
256,192,117247,1,0,0:0:0:0:
256,192,117330,1,0,0:0:0:0:
256,192,117414,1,8,0:0:0:0:
256,192,117636,1,8,0:0:0:0:
256,192,117914,1,8,0:0:0:0:
256,192,118080,1,0,0:0:0:0:
256,192,118247,1,0,0:0:0:0:
256,192,118414,1,8,0:0:0:0:
256,192,118580,1,8,0:0:0:0:
256,192,118747,1,0,0:0:0:0:
256,192,118914,1,0,0:0:0:0:
256,192,119080,1,8,0:0:0:0:
256,192,119247,1,0,0:0:0:0:
256,192,119330,1,0,0:0:0:0:
256,192,119414,1,0,0:0:0:0:
256,192,119580,1,0,0:0:0:0:
256,192,119747,1,8,0:0:0:0:
256,192,119914,1,8,0:0:0:0:
256,192,120080,1,0,0:0:0:0:
256,192,120414,1,8,0:0:0:0:
256,192,120747,1,0,0:0:0:0:
256,192,121080,1,8,0:0:0:0:
256,192,121247,1,8,0:0:0:0:
256,192,121414,1,0,0:0:0:0:
256,192,121747,1,8,0:0:0:0:
256,192,122080,1,0,0:0:0:0:
256,192,122247,1,0,0:0:0:0:
256,192,122414,1,8,0:0:0:0:
256,192,122747,1,0,0:0:0:0:
256,192,123080,1,8,0:0:0:0:
256,192,123414,1,0,0:0:0:0:
256,192,123580,1,0,0:0:0:0:
256,192,123747,1,8,0:0:0:0:
256,192,123914,1,8,0:0:0:0:
256,192,124080,1,0,0:0:0:0:
256,192,124414,1,8,0:0:0:0:
256,192,124747,1,0,0:0:0:0:
256,192,124914,1,0,0:0:0:0:
256,192,125080,1,8,0:0:0:0:
256,192,125247,1,8,0:0:0:0:
256,192,125414,1,0,0:0:0:0:
256,192,125580,1,0,0:0:0:0:
256,192,125747,1,8,0:0:0:0:
256,192,126080,1,0,0:0:0:0:
256,192,126247,1,8,0:0:0:0:
256,192,126414,1,0,0:0:0:0:
256,192,126580,1,0,0:0:0:0:
256,192,126747,1,8,0:0:0:0:
256,192,126914,1,8,0:0:0:0:
256,192,127080,1,0,0:0:0:0:
256,192,127247,1,0,0:0:0:0:
256,192,127414,1,8,0:0:0:0:
256,192,127580,1,8,0:0:0:0:
256,192,127747,1,0,0:0:0:0:
256,192,127914,1,0,0:0:0:0:
256,192,128080,1,8,0:0:0:0:
256,192,128164,1,0,0:0:0:0:
256,192,128247,1,8,0:0:0:0:
256,192,128330,1,0,0:0:0:0:
256,192,128414,1,8,0:0:0:0:
256,192,128497,1,0,0:0:0:0:
256,192,128580,1,0,0:0:0:0:
256,192,128664,1,0,0:0:0:0:
256,192,128747,1,8,0:0:0:0:
256,192,128914,1,0,0:0:0:0:
256,192,129080,1,8,0:0:0:0:
256,192,129247,1,8,0:0:0:0:
256,192,129414,1,4,0:0:0:0:
256,192,129580,1,0,0:0:0:0:
256,192,129747,1,8,0:0:0:0:
256,192,129914,1,8,0:0:0:0:
256,192,129997,1,8,0:0:0:0:
256,192,130080,1,0,0:0:0:0:
256,192,130247,1,0,0:0:0:0:
256,192,130414,1,8,0:0:0:0:
256,192,130580,1,8,0:0:0:0:
256,192,130747,1,0,0:0:0:0:
256,192,130830,1,0,0:0:0:0:
256,192,130914,1,0,0:0:0:0:
256,192,130997,1,8,0:0:0:0:
256,192,131080,1,0,0:0:0:0:
256,192,131247,1,8,0:0:0:0:
256,192,131414,1,0,0:0:0:0:
256,192,131497,1,8,0:0:0:0:
256,192,131580,1,0,0:0:0:0:
256,192,131664,1,0,0:0:0:0:
256,192,131747,1,8,0:0:0:0:
256,192,131914,1,0,0:0:0:0:
256,192,132080,1,8,0:0:0:0:
256,192,132164,1,8,0:0:0:0:
256,192,132247,1,8,0:0:0:0:
256,192,132330,1,8,0:0:0:0:
256,192,132414,1,0,0:0:0:0:
256,192,132497,1,0,0:0:0:0:
256,192,132580,1,8,0:0:0:0:
256,192,132664,1,8,0:0:0:0:
256,192,132747,1,0,0:0:0:0:
256,192,132830,1,8,0:0:0:0:
256,192,132914,1,0,0:0:0:0:
256,192,132997,1,0,0:0:0:0:
256,192,133080,1,8,0:0:0:0:
256,192,133247,1,8,0:0:0:0:
256,192,133330,1,8,0:0:0:0:
256,192,133414,1,0,0:0:0:0:
256,192,133580,1,0,0:0:0:0:
256,192,133747,1,8,0:0:0:0:
256,192,133914,1,8,0:0:0:0:
256,192,134080,1,0,0:0:0:0:
256,192,134247,1,0,0:0:0:0:
256,192,134414,1,8,0:0:0:0:
256,192,134580,1,8,0:0:0:0:
256,192,134747,1,0,0:0:0:0:
256,192,134914,1,0,0:0:0:0:
256,192,135080,1,0,0:0:0:0:
256,192,135414,1,8,0:0:0:0:
256,192,135747,1,0,0:0:0:0:
256,192,135914,1,0,0:0:0:0:
256,192,136080,1,8,0:0:0:0:
256,192,136247,1,0,0:0:0:0:
256,192,136414,1,0,0:0:0:0:
256,192,136747,1,8,0:0:0:0:
256,192,137080,1,0,0:0:0:0:
256,192,137414,1,0,0:0:0:0:
256,192,137497,1,0,0:0:0:0:
256,192,137580,1,0,0:0:0:0:
256,192,137664,1,0,0:0:0:0:
256,192,137747,1,8,0:0:0:0:
256,192,137914,1,8,0:0:0:0:
256,192,137997,1,8,0:0:0:0:
256,192,138080,1,0,0:0:0:0:
256,192,138247,1,0,0:0:0:0:
256,192,138414,1,8,0:0:0:0:
256,192,138580,1,8,0:0:0:0:
256,192,138747,1,0,0:0:0:0:
256,192,138830,1,8,0:0:0:0:
256,192,138914,1,8,0:0:0:0:
256,192,138997,1,0,0:0:0:0:
256,192,139080,1,8,0:0:0:0:
256,192,139164,1,8,0:0:0:0:
256,192,139247,1,0,0:0:0:0:
256,192,139330,1,0,0:0:0:0:
256,192,139414,1,8,0:0:0:0:
256,192,139580,1,0,0:0:0:0:
256,192,139664,1,0,0:0:0:0:
256,192,139747,1,0,0:0:0:0:
256,192,139914,1,8,0:0:0:0:
256,192,140080,1,4,0:0:0:0:
256,192,140247,1,0,0:0:0:0:
256,192,140414,1,8,0:0:0:0:
256,192,140580,1,0,0:0:0:0:
256,192,140664,1,8,0:0:0:0:
256,192,140747,1,0,0:0:0:0:
256,192,140914,1,0,0:0:0:0:
256,192,141080,1,8,0:0:0:0:
256,192,141247,1,0,0:0:0:0:
256,192,141414,1,8,0:0:0:0:
256,192,141497,1,0,0:0:0:0:
256,192,141580,1,0,0:0:0:0:
256,192,141664,1,0,0:0:0:0:
256,192,141747,1,8,0:0:0:0:
256,192,141914,1,0,0:0:0:0:
256,192,142080,1,8,0:0:0:0:
256,192,142164,1,8,0:0:0:0:
256,192,142247,1,0,0:0:0:0:
256,192,142330,1,0,0:0:0:0:
256,192,142414,1,8,0:0:0:0:
256,192,142580,1,8,0:0:0:0:
256,192,142747,1,0,0:0:0:0:
256,192,142830,1,8,0:0:0:0:
256,192,142914,1,8,0:0:0:0:
256,192,142997,1,8,0:0:0:0:
256,192,143080,1,0,0:0:0:0:
256,192,143164,1,0,0:0:0:0:
256,192,143247,1,8,0:0:0:0:
256,192,143330,1,8,0:0:0:0:
256,192,143414,1,0,0:0:0:0:
256,192,143580,1,0,0:0:0:0:
256,192,143747,1,8,0:0:0:0:
256,192,143914,1,8,0:0:0:0:
256,192,143997,1,8,0:0:0:0:
256,192,144080,1,0,0:0:0:0:
256,192,144247,1,0,0:0:0:0:
256,192,144414,1,8,0:0:0:0:
256,192,144580,1,8,0:0:0:0:
256,192,144747,1,0,0:0:0:0:
256,192,144830,1,0,0:0:0:0:
256,192,144914,1,0,0:0:0:0:
256,192,144997,1,0,0:0:0:0:
256,192,145080,1,8,0:0:0:0:
256,192,145247,1,8,0:0:0:0:
256,192,145414,1,0,0:0:0:0:
256,192,145580,1,0,0:0:0:0:
256,192,145747,1,0,0:0:0:0:
256,192,146080,1,8,0:0:0:0:
256,192,146414,1,0,0:0:0:0:
256,192,146580,1,0,0:0:0:0:
256,192,146914,1,0,0:0:0:0:
256,192,147080,1,0,0:0:0:0:
256,192,147414,1,8,0:0:0:0:
256,192,147747,1,0,0:0:0:0:
256,192,148080,1,4,0:0:0:0:
256,192,148414,1,0,0:0:0:0:
256,192,148580,1,0,0:0:0:0:
256,192,148747,1,8,0:0:0:0:
256,192,148914,1,8,0:0:0:0:
256,192,149080,1,0,0:0:0:0:
256,192,149247,1,8,0:0:0:0:
256,192,149414,1,0,0:0:0:0:
256,192,149497,1,8,0:0:0:0:
256,192,149580,1,8,0:0:0:0:
256,192,149664,1,0,0:0:0:0:
256,192,149747,1,8,0:0:0:0:
256,192,149830,1,8,0:0:0:0:
256,192,149914,1,0,0:0:0:0:
256,192,149997,1,8,0:0:0:0:
256,192,150080,1,0,0:0:0:0:
256,192,150164,1,0,0:0:0:0:
256,192,150247,1,8,0:0:0:0:
256,192,150330,1,8,0:0:0:0:
256,192,150414,1,0,0:0:0:0:
256,192,150497,1,8,0:0:0:0:
256,192,150580,1,0,0:0:0:0:
256,192,150664,1,0,0:0:0:0:
256,192,150747,1,8,0:0:0:0:
256,192,150914,1,0,0:0:0:0:
256,192,151080,1,8,0:0:0:0:
256,192,151247,1,0,0:0:0:0:
256,192,151330,1,0,0:0:0:0:
256,192,151414,1,8,0:0:0:0:
256,192,151580,1,0,0:0:0:0:
256,192,151747,1,8,0:0:0:0:
256,192,151914,1,8,0:0:0:0:
256,192,152080,1,0,0:0:0:0:
256,192,152414,1,8,0:0:0:0:
256,192,152580,1,0,0:0:0:0:
256,192,152747,1,8,0:0:0:0:
256,192,152914,1,0,0:0:0:0:
256,192,152997,1,0,0:0:0:0:
256,192,153080,1,0,0:0:0:0:
256,192,153247,1,8,0:0:0:0:
256,192,153414,1,0,0:0:0:0:
256,192,153525,1,8,0:0:0:0:
256,192,153636,1,8,0:0:0:0:
256,192,153747,1,0,0:0:0:0:
256,192,153830,1,0,0:0:0:0:
256,192,153914,1,0,0:0:0:0:
256,192,153997,1,0,0:0:0:0:
256,192,154080,1,8,0:0:0:0:
256,192,154247,1,0,0:0:0:0:
256,192,154414,1,8,0:0:0:0:
256,192,154580,1,8,0:0:0:0:
256,192,154664,1,8,0:0:0:0:
256,192,154747,1,0,0:0:0:0:
256,192,154914,1,0,0:0:0:0:
256,192,155080,1,8,0:0:0:0:
256,192,155247,1,0,0:0:0:0:
256,192,155303,1,0,0:0:0:0:
256,192,155358,1,0,0:0:0:0:
256,192,155414,1,8,0:0:0:0:
256,192,155580,1,0,0:0:0:0:
256,192,155747,1,8,0:0:0:0:
256,192,155914,1,8,0:0:0:0:
256,192,156080,1,0,0:0:0:0:
256,192,156164,1,8,0:0:0:0:
256,192,156247,1,0,0:0:0:0:
256,192,156330,1,0,0:0:0:0:
256,192,156414,1,8,0:0:0:0:
256,192,156580,1,0,0:0:0:0:
256,192,156747,1,8,0:0:0:0:
256,192,156914,1,0,0:0:0:0:
256,192,157080,1,8,0:0:0:0:
256,192,157164,1,8,0:0:0:0:
256,192,157247,1,0,0:0:0:0:
256,192,157330,1,8,0:0:0:0:
256,192,157414,1,0,0:0:0:0:
256,192,157497,1,0,0:0:0:0:
256,192,157580,1,0,0:0:0:0:
256,192,157664,1,0,0:0:0:0:
256,192,157747,1,8,0:0:0:0:
256,192,157914,1,0,0:0:0:0:
256,192,158080,1,8,0:0:0:0:
256,192,158247,1,0,0:0:0:0:
256,192,158330,1,0,0:0:0:0:
256,192,158414,1,0,0:0:0:0:
256,192,158580,1,8,0:0:0:0:
256,192,158747,1,8,0:0:0:0:
256,192,158914,1,0,0:0:0:0:
256,192,159080,1,8,0:0:0:0:
256,192,159164,1,8,0:0:0:0:
256,192,159247,1,8,0:0:0:0:
256,192,159330,1,0,0:0:0:0:
256,192,159414,1,8,0:0:0:0:
256,192,159580,1,0,0:0:0:0:
256,192,159747,1,0,0:0:0:0:
256,192,159914,1,8,0:0:0:0:
256,192,159997,1,8,0:0:0:0:
256,192,160080,1,0,0:0:0:0:
256,192,160164,1,8,0:0:0:0:
256,192,160247,1,8,0:0:0:0:
256,192,160330,1,0,0:0:0:0:
256,192,160414,1,8,0:0:0:0:
256,192,160497,1,8,0:0:0:0:
256,192,160580,1,0,0:0:0:0:
256,192,160664,1,0,0:0:0:0:
256,192,160747,1,8,0:0:0:0:
256,192,160914,1,0,0:0:0:0:
256,192,161080,1,8,0:0:0:0:
256,192,161247,1,8,0:0:0:0:
256,192,161414,1,4,0:0:0:0:
256,192,161580,1,0,0:0:0:0:
256,192,161746,1,8,0:0:0:0:
256,192,161913,1,0,0:0:0:0:
256,192,161996,1,0,0:0:0:0:
256,192,162080,1,8,0:0:0:0:
256,192,162246,1,0,0:0:0:0:
256,192,162413,1,8,0:0:0:0:
256,192,162580,1,8,0:0:0:0:
256,192,162746,1,0,0:0:0:0:
256,192,163080,1,8,0:0:0:0:
256,192,163246,1,0,0:0:0:0:
256,192,163413,1,8,0:0:0:0:
256,192,163580,1,0,0:0:0:0:
256,192,163663,1,0,0:0:0:0:
256,192,163746,1,0,0:0:0:0:
256,192,163913,1,8,0:0:0:0:
256,192,164080,1,0,0:0:0:0:
256,192,164191,1,8,0:0:0:0:
256,192,164302,1,8,0:0:0:0:
256,192,164413,1,0,0:0:0:0:
256,192,164496,1,0,0:0:0:0:
256,192,164580,1,0,0:0:0:0:
256,192,164663,1,0,0:0:0:0:
256,192,164746,1,8,0:0:0:0:
256,192,164913,1,0,0:0:0:0:
256,192,165080,1,8,0:0:0:0:
256,192,165246,1,8,0:0:0:0:
256,192,165330,1,8,0:0:0:0:
256,192,165413,1,0,0:0:0:0:
256,192,165580,1,0,0:0:0:0:
256,192,165746,1,8,0:0:0:0:
256,192,165913,1,0,0:0:0:0:
256,192,165969,1,0,0:0:0:0:
256,192,166024,1,0,0:0:0:0:
256,192,166080,1,8,0:0:0:0:
256,192,166246,1,0,0:0:0:0:
256,192,166413,1,8,0:0:0:0:
256,192,166580,1,8,0:0:0:0:
256,192,166746,1,0,0:0:0:0:
256,192,166830,1,8,0:0:0:0:
256,192,166913,1,0,0:0:0:0:
256,192,166996,1,0,0:0:0:0:
256,192,167080,1,8,0:0:0:0:
256,192,167246,1,0,0:0:0:0:
256,192,167413,1,8,0:0:0:0:
256,192,167580,1,0,0:0:0:0:
256,192,167746,1,8,0:0:0:0:
256,192,167830,1,8,0:0:0:0:
256,192,167913,1,0,0:0:0:0:
256,192,167996,1,8,0:0:0:0:
256,192,168080,1,0,0:0:0:0:
256,192,168163,1,0,0:0:0:0:
256,192,168246,1,0,0:0:0:0:
256,192,168330,1,0,0:0:0:0:
256,192,168413,1,8,0:0:0:0:
256,192,168580,1,0,0:0:0:0:
256,192,168746,1,8,0:0:0:0:
256,192,168913,1,0,0:0:0:0:
256,192,168996,1,0,0:0:0:0:
256,192,169080,1,0,0:0:0:0:
256,192,169246,1,8,0:0:0:0:
256,192,169413,1,8,0:0:0:0:
256,192,169580,1,0,0:0:0:0:
256,192,169746,1,8,0:0:0:0:
256,192,169830,1,8,0:0:0:0:
256,192,169913,1,8,0:0:0:0:
256,192,169996,1,0,0:0:0:0:
256,192,170080,1,8,0:0:0:0:
256,192,170246,1,0,0:0:0:0:
256,192,170413,1,0,0:0:0:0:
256,192,170580,1,8,0:0:0:0:
256,192,170746,1,0,0:0:0:0:
256,192,170830,1,8,0:0:0:0:
256,192,170913,1,8,0:0:0:0:
256,192,170996,1,0,0:0:0:0:
256,192,171080,1,8,0:0:0:0:
256,192,171163,1,8,0:0:0:0:
256,192,171246,1,0,0:0:0:0:
256,192,171330,1,0,0:0:0:0:
256,192,171413,1,8,0:0:0:0:
256,192,171580,1,0,0:0:0:0:
256,192,171746,1,8,0:0:0:0:
256,192,171913,1,8,0:0:0:0:
256,192,172080,1,0,0:0:0:0:
256,192,172247,1,8,0:0:0:0:
256,192,172414,1,0,0:0:0:0:
256,192,172580,1,0,0:0:0:0:
256,192,172747,1,8,0:0:0:0:
256,192,172914,1,0,0:0:0:0:
256,192,172969,1,0,0:0:0:0:
256,192,173025,1,0,0:0:0:0:
256,192,173080,1,8,0:0:0:0:
256,192,173580,1,8,0:0:0:0:
256,192,173747,1,0,0:0:0:0:
256,192,173914,1,0,0:0:0:0:
256,192,174080,1,8,0:0:0:0:
256,192,174247,1,8,0:0:0:0:
256,192,174414,1,0,0:0:0:0:
256,192,174469,1,0,0:0:0:0:
256,192,174525,1,0,0:0:0:0:
256,192,174580,1,0,0:0:0:0:
256,192,174747,1,8,0:0:0:0:
256,192,175080,1,8,0:0:0:0:
256,192,175247,1,0,0:0:0:0:
256,192,175414,1,8,0:0:0:0:
256,192,175580,1,8,0:0:0:0:
256,192,175747,1,0,0:0:0:0:
256,192,176080,1,8,0:0:0:0:
256,192,176247,1,0,0:0:0:0:
256,192,176414,1,0,0:0:0:0:
256,192,176580,1,8,0:0:0:0:
256,192,176747,1,8,0:0:0:0:
256,192,176914,1,0,0:0:0:0:
256,192,177080,1,0,0:0:0:0:
256,192,177247,1,0,0:0:0:0:
256,192,177413,1,8,0:0:0:0:
256,192,177747,1,8,0:0:0:0:
256,192,177914,1,0,0:0:0:0:
256,192,178080,1,8,0:0:0:0:
256,192,178247,1,8,0:0:0:0:
256,192,178414,1,0,0:0:0:0:
256,192,178914,1,0,0:0:0:0:
256,192,179080,1,8,0:0:0:0:
256,192,179247,1,0,0:0:0:0:
256,192,179414,1,8,0:0:0:0:
256,192,179580,1,8,0:0:0:0:
256,192,179747,1,0,0:0:0:0:
256,192,179914,1,0,0:0:0:0:
256,192,180080,1,8,0:0:0:0:
256,192,180414,1,8,0:0:0:0:
256,192,180497,1,8,0:0:0:0:
256,192,180580,1,8,0:0:0:0:
256,192,180664,1,0,0:0:0:0:
256,192,180747,1,8,0:0:0:0:
256,192,180914,1,0,0:0:0:0:
256,192,181080,1,8,0:0:0:0:
256,192,181247,1,0,0:0:0:0:
256,192,181330,1,0,0:0:0:0:
256,192,181414,1,0,0:0:0:0:
256,192,181580,1,0,0:0:0:0:
256,192,181747,1,0,0:0:0:0:
256,192,182080,1,8,0:0:0:0:
256,192,182414,1,8,0:0:0:0:
256,192,182525,1,8,0:0:0:0:
256,192,182636,1,0,0:0:0:0:
256,192,182747,1,0,0:0:0:0:
256,192,182914,1,8,0:0:0:0:
256,192,183081,1,0,0:0:0:0:
256,192,183247,1,0,0:0:0:0:
256,192,183414,1,8,0:0:0:0:
256,192,183581,1,0,0:0:0:0:
256,192,183636,1,0,0:0:0:0:
256,192,183692,1,0,0:0:0:0:
256,192,183747,1,8,0:0:0:0:
256,192,184247,1,8,0:0:0:0:
256,192,184414,1,0,0:0:0:0:
256,192,184581,1,0,0:0:0:0:
256,192,184747,1,8,0:0:0:0:
256,192,184914,1,8,0:0:0:0:
256,192,185081,1,0,0:0:0:0:
256,192,185136,1,0,0:0:0:0:
256,192,185192,1,0,0:0:0:0:
256,192,185247,1,0,0:0:0:0:
256,192,185414,1,8,0:0:0:0:
256,192,185747,1,8,0:0:0:0:
256,192,185914,1,0,0:0:0:0:
256,192,186081,1,8,0:0:0:0:
256,192,186247,1,8,0:0:0:0:
256,192,186414,1,0,0:0:0:0:
256,192,186747,1,8,0:0:0:0:
256,192,186914,1,0,0:0:0:0:
256,192,187081,1,0,0:0:0:0:
256,192,187247,1,8,0:0:0:0:
256,192,187414,1,8,0:0:0:0:
256,192,187581,1,0,0:0:0:0:
256,192,187747,1,0,0:0:0:0:
256,192,187914,1,0,0:0:0:0:
256,192,188080,1,8,0:0:0:0:
256,192,188414,1,8,0:0:0:0:
256,192,188581,1,0,0:0:0:0:
256,192,188747,1,8,0:0:0:0:
256,192,188914,1,8,0:0:0:0:
256,192,189081,1,0,0:0:0:0:
256,192,189581,1,0,0:0:0:0:
256,192,189747,1,8,0:0:0:0:
256,192,189914,1,0,0:0:0:0:
256,192,190081,1,8,0:0:0:0:
256,192,190247,1,8,0:0:0:0:
256,192,190414,1,0,0:0:0:0:
256,192,190581,1,0,0:0:0:0:
256,192,190747,1,8,0:0:0:0:
256,192,191081,1,8,0:0:0:0:
256,192,191164,1,8,0:0:0:0:
256,192,191247,1,8,0:0:0:0:
256,192,191331,1,0,0:0:0:0:
256,192,191414,1,8,0:0:0:0:
256,192,191581,1,0,0:0:0:0:
256,192,191747,1,8,0:0:0:0:
256,192,191914,1,0,0:0:0:0:
256,192,191997,1,0,0:0:0:0:
256,192,192081,1,0,0:0:0:0:
256,192,192247,1,0,0:0:0:0:
256,192,192580,1,0,0:0:0:0:
256,192,192664,1,0,0:0:0:0:
256,192,192747,1,8,0:0:0:0:
256,192,192914,1,0,0:0:0:0:
256,192,193080,1,0,0:0:0:0:
256,192,193414,12,0,195080,0:0:0:0:
