osu file format v14

[General]
AudioFilename: audio.mp3
AudioLeadIn: 0
PreviewTime: 618
Countdown: 1
SampleSet: Soft
StackLeniency: 0.7
Mode: 0
LetterboxInBreaks: 0
EpilepsyWarning: 1
WidescreenStoryboard: 1

[Editor]
Bookmarks: 12618,24618,48618,60618,84618,120618,144618,168618,180618,204618
DistanceSpacing: 1
BeatDivisor: 4
GridSize: 32
TimelineZoom: 1.9

[Metadata]
Title:CANDYYYLAND feat. LIZ (Pa's Lam System Remix)
TitleUnicode:CAND¥¥¥LAND feat. LIZ (Pa's Lam System Remix)
Artist:tofubeats
ArtistUnicode:tofubeats
Creator:Senseabel
Version:Collab Normal
Source:
Tags:m3gb3g tatemae loreley anishina kodoku future bass candyland candy land instrumental electronic english
BeatmapID:2186074
BeatmapSetID:1045741

[Difficulty]
HPDrainRate:3
CircleSize:3.5
OverallDifficulty:3
ApproachRate:5
SliderMultiplier:1
SliderTickRate:1

[Events]
//Background and Video events
0,0,"bg.jpg",0,0
//Break Periods
2,24759,32359
2,72759,79609
2,144759,155359
//Storyboard Layer 0 (Background)
Sprite,Background,Centre,"white.jpg",320,240 S,0,-5590,,0.663 F,0,618,7205,1,0.85
//Storyboard Layer 1 (Fail)
//Storyboard Layer 2 (Pass)
//Storyboard Layer 3 (Foreground)
Sprite,Foreground,Centre,"senseabel.jpg",320,240 S,0,618,,0.46 F,0,12618,200,0,1
Sprite,Foreground,Centre,"m3gb3g.jpg",320,240 S,0,12618,,0.46 F,0,24617,200,0,1
Sprite,Foreground,Centre,"senseabel.jpg",320,240 S,0,24618,,0.46 F,0,48617,200,0,1
Sprite,Foreground,Centre,"black.jpg",320,240 S,0,48618,,0.46 F,0,48992,200,0,1
Sprite,Foreground,Centre,"m3gb3g.jpg",320,240 S,0,48993,,0.46 F,0,60617,200,0,1
Sprite,Foreground,Centre,"black.jpg",320,240 S,0,60618,,0.46 F,0,60993,200,0,1
Sprite,Foreground,Centre,"senseabel.jpg",320,240 S,0,60993,,0.46 F,0,84617,200,0,1
Sprite,Foreground,Centre,"m3gb3g.jpg",320,240 S,0,84618,,0.46 F,0,120617,200,0,1
Sprite,Foreground,Centre,"senseabel.jpg",320,240 S,0,120618,,0.46 F,0,144617,200,0,1
Sprite,Foreground,Centre,"m3gb3g.jpg",320,240 S,0,144618,,0.46 F,0,167117,200,0,1
Sprite,Foreground,Centre,"black.jpg",320,240 S,0,167118,,0.46 F,0,168617,200,0,1
Sprite,Foreground,Centre,"senseabel.jpg",320,240 S,0,168618,,0.46 F,0,180617,200,0,1
Sprite,Foreground,Centre,"black.jpg",320,240 S,0,180559,,0.46 F,0,180840,200,0,1
Sprite,Foreground,Centre,"m3gb3g.jpg",320,240 S,0,180841,,0.46 F,0,204617,200,0,1
Sprite,Foreground,Centre,"gray.png",320,240 S,0,618,,0.46 F,0,204617,200,0,1
Sprite,Foreground,Centre,"white.jpg",320,240 F,0,618,619,0,1 F,0,619,2118,1,0
Sprite,Foreground,Centre,"white.jpg",320,240 F,0,24618,24619,0,1 F,0,24619,26118,1,0
Sprite,Foreground,Centre,"white.jpg",320,240 F,0,48993,48994,0,1 F,0,48994,49930,1,0
Sprite,Foreground,Centre,"white.jpg",320,240 F,0,60993,60994,0,1 F,0,60994,62118,1,0
Sprite,Foreground,Centre,"white.jpg",320,240 F,0,72618,72619,0,1 F,0,72619,75618,1,0
Sprite,Foreground,Centre,"white.jpg",320,240 F,0,120618,120619,0,1 F,0,120619,122619,1,0
Sprite,Foreground,Centre,"white.jpg",320,240 F,0,132618,132619,0,1 F,0,132619,134619,1,0
Sprite,Foreground,Centre,"white.jpg",320,240 F,0,84618,84619,0,1 F,0,84619,86619,1,0
Sprite,Foreground,Centre,"white.jpg",320,240 F,0,168618,168619,0,1 F,0,168619,170619,1,0
Sprite,Foreground,Centre,"white.jpg",320,240 F,0,168618,168619,0,1 F,0,168619,170619,1,0
Sprite,Foreground,Centre,"white.jpg",320,240 F,0,192618,192619,0,1 F,0,192619,194619,1,0
Sprite,Foreground,Centre,"white.jpg",320,240 F,0,12558,12559,0,1 F,0,12559,13559,1,0
Sprite,Foreground,Centre,"white.jpg",320,240 F,0,144558,144559,0,1 F,0,144559,145559,1,0
Sprite,Foreground,Centre,"white.jpg",320,240 F,0,180839,180840,0,1 F,0,180840,182840,1,0
Sprite,Foreground,Centre,"white.jpg",320,240 F,0,180839,180840,0,1 F,0,180840,182840,1,0
Sprite,Foreground,Centre,"white.jpg",320,240 F,0,204558,204559,0,1 F,0,204559,207559,1,0
//Storyboard Layer 4 (Overlay)
//Storyboard Sound Samples

[TimingPoints]
559,375,4,2,0,40,1,0
12559,-100,4,2,0,50,0,0
36559,-100,4,2,0,60,0,0
48559,-100,4,2,0,77,0,0
72559,-100,4,2,0,60,0,0
72934,-100,4,2,0,50,0,0
81559,-100,4,2,0,40,0,0
82684,-100,4,2,0,40,0,0
83434,-100,4,2,0,40,0,0
84559,-100,4,2,0,60,0,0
120559,-100,4,2,0,80,0,1
132559,-100,4,2,0,80,0,1
144559,-100,4,2,0,60,0,0
156559,-100,4,2,0,65,0,0
168559,-100,4,2,0,77,0,0
174559,-100,4,2,0,65,0,0
180559,-100,4,2,0,80,0,1
204559,-100,4,2,0,100,0,0

[Colours]
Combo1 : 17,254,176
Combo2 : 173,255,95
Combo3 : 255,88,100
Combo4 : 255,94,55

[HitObjects]
62,278,559,6,0,B|107:179|28:193|79:74,1,200,4|2,0:3|0:0,0:0:0:0:
173,68,1684,1,0,0:0:0:0:
220,155,2059,2,0,P|300:180|424:171,1,200,2|2,0:0|0:0,0:0:0:0:
262,43,3559,6,0,P|162:34|67:61,1,200,2|2,0:0|0:0,0:0:0:0:
73,161,4684,1,0,0:0:0:0:
171,144,5059,2,0,P|227:176|227:265,1,150,2|0,0:0|0:0,0:0:0:0:
261,296,5809,2,0,L|253:358,2,50,2|0|0,0:0|0:0|0:0,0:0:0:0:
231,200,6559,6,0,B|272:170|318:194|318:194|345:239|388:243|428:221,1,200,2|2,0:0|0:0,0:0:0:0:
486,293,7684,1,0,0:0:0:0:
433,207,8059,2,0,B|432:121|432:121|437:119|437:119|435:-4,1,200,2|2,0:0|0:0,0:0:0:0:
233,19,9559,6,0,P|138:25|94:128,1,200,2|2,0:0|0:0,0:0:0:0:
152,191,10684,1,0,0:0:0:0:
240,145,11059,2,0,P|249:92|232:44,1,100,2|2,0:0|0:0,0:0:0:0:
331,20,11809,2,0,P|362:59|356:113,1,100,2|2,0:0|0:0,0:0:0:0:
258,98,12559,6,0,P|225:197|259:294,1,200,4|8,0:3|0:0,0:0:0:0:
444,227,14059,2,0,P|402:195|341:188,1,100,4|2,0:3|0:0,0:0:0:0:
266,143,14809,6,0,L|252:244,2,100,8|8|4,0:0|0:3|0:3,0:0:0:0:
168,317,16309,1,8,0:0:0:0:
68,143,17059,2,0,P|52:104|53:50,2,75,4|8|4,0:3|0:3|0:3,0:0:0:0:
102,178,17809,2,0,P|137:132|176:104,1,100,8|8,0:0|0:3,0:0:0:0:
196,204,18559,6,0,P|266:269|364:245,1,200,4|8,0:3|0:0,0:0:0:0:
433,61,20059,2,0,P|448:110|454:181,1,100,4|2,0:3|0:0,0:0:0:0:
420,252,20809,2,0,L|315:212,1,100,8|8,0:0|0:3,0:0:0:0:
287,308,21559,1,4,0:3:0:0:
256,192,21934,12,2,24559,0:0:0:0:
256,192,33559,12,10,35059,0:0:0:0:
67,247,35809,6,0,L|60:182,1,50,8|2,0:0|0:3,0:0:0:0:
36,153,36184,2,0,L|43:88,1,50,8|2,0:0|0:0,0:0:0:0:
0,71,36559,2,0,B|116:37|87:135|211:79,1,200,4|8,0:3|0:0,0:0:0:0:
277,36,37684,1,10,0:0:0:0:
363,85,38059,2,0,P|349:141|358:193,2,100,8|8|8,0:3|0:0|0:0,0:0:0:0:
441,23,39184,1,10,0:0:0:0:
410,118,39559,1,4,0:3:0:0:
507,95,39934,2,0,P|511:144|498:192,1,100,8|8,0:0|0:0,0:0:0:0:
405,153,40684,1,10,0:0:0:0:
416,252,41059,2,0,P|402:299|407:349,2,100,4|8|8,0:3|0:0|0:0,0:0:0:0:
317,232,42184,5,10,0:0:0:0:
314,331,42559,2,0,P|231:337|174:291,1,150,4|2,0:3|0:0,0:0:0:0:
137,326,43309,2,0,B|112:245|171:259|134:152,1,150,4|2,0:3|0:3,0:0:0:0:
120,134,44059,2,0,P|203:124|247:185,1,150,4|2,0:3|0:0,0:0:0:0:
271,210,44809,2,0,P|340:222|381:212,1,100,4|8,0:3|0:0,0:0:0:0:
256,192,45559,12,2,47809,0:0:0:0:
285,221,48934,6,0,P|240:304|139:289,1,200,12|8,0:0|0:0,0:0:0:0:
112,258,49871,2,0,B|131:184|131:184|98:134|117:110,1,150,4|2,0:3|0:0,0:0:0:0:
199,65,50809,2,0,P|221:71|248:86,1,50,12|0,0:0|0:0,0:0:0:0:
285,55,51184,2,0,P|303:75|318:102,1,50,4|2,0:3|0:0,0:0:0:0:
364,93,51559,2,0,P|405:82|440:66,2,75,4|8|4,0:3|0:3|0:1,0:0:0:0:
451,327,53059,6,0,P|459:279|482:228,1,100,4|8,0:3|0:3,0:0:0:0:
456,187,53621,1,8,0:3:0:0:
456,187,53809,2,0,L|388:206,1,50,12|0,0:0|0:0,0:0:0:0:
368,169,54184,2,0,L|316:157,1,50,2|2,0:3|0:0,0:0:0:0:
284,193,54559,1,4,0:3:0:0:
213,263,54934,2,0,B|184:233|174:188|174:188|194:161|201:139|201:139|204:108|188:71,1,200,12|12,0:0|0:0,0:0:0:0:
157,46,55871,6,0,P|86:51|60:86,1,100,4|8,0:3|0:3,0:0:0:0:
25,212,56809,2,0,P|80:255|121:267,1,100,12|4,0:0|0:3,0:0:0:0:
201,229,57559,2,0,L|185:162,1,50,4|8,0:3|0:3,0:0:0:0:
178,131,57934,2,0,L|162:64,1,50,4|8,0:3|0:3,0:0:0:0:
200,45,58309,1,12,0:0:0:0:
200,45,58496,2,0,L|265:65,1,50,8|12,0:0|0:0,0:0:0:0:
327,120,59059,6,0,P|349:104|372:72,1,50,6|0,0:3|0:0,0:0:0:0:
411,100,59434,2,0,P|427:68|433:42,1,50,2|8,0:3|0:3,0:0:0:0:
478,38,59809,2,0,P|489:89|493:145,2,100,12|2|4,0:0|0:3|0:3,0:0:0:0:
378,41,60934,5,12,0:0:0:0:
320,123,61309,2,0,L|260:127,2,50,2|2|12,0:0|0:3|0:0,0:0:0:0:
358,155,61871,2,0,P|368:218|350:259,1,100,4|4,0:3|0:3,0:0:0:0:
334,295,62434,1,8,0:0:0:0:
240,330,62809,6,0,L|132:342,1,100,12|4,0:0|0:3,0:0:0:0:
90,254,63559,2,0,L|34:238,1,49.9999952316284,4|8,0:3|0:3,0:0:0:0:
10,201,63934,1,2,0:0:0:0:
89,140,64309,2,0,B|93:102|93:102|82:56,2,75,12|12|10,0:0|0:0|0:3,0:0:0:0:
121,178,65059,2,0,L|215:194,2,75,4|4|4,0:3|0:1|0:3,0:0:0:0:
75,198,65809,1,12,0:0:0:0:
104,293,66184,1,2,0:0:0:0:
203,282,66559,6,0,L|252:290,1,49.9999952316284,4|0,0:3|0:0,0:0:0:0:
294,262,66934,2,0,B|305:213|305:213|287:159,1,100,12|2,0:0|0:0,0:0:0:0:
218,94,67684,1,12,0:0:0:0:
174,114,67871,2,0,L|183:-1,1,100,4|4,0:3|0:3,0:0:0:0:
135,33,68434,2,0,L|86:45,1,49.9999952316284,2|2,0:3|0:0,0:0:0:0:
69,93,68809,2,0,L|97:204,1,100,4|12,0:1|0:0,0:0:0:0:
124,285,69559,6,0,L|32:301,2,74.9999928474426,4|8|4,0:3|0:3|0:3,0:0:0:0:
164,314,70309,2,0,L|276:322,1,100,12|2,0:0|0:0,0:0:0:0:
356,358,71059,2,0,B|426:233|290:223|361:52,1,300,4|8,0:3|0:0,0:0:0:0:
444,26,72559,1,4,0:3:0:0:
256,192,80809,12,0,83434,0:0:0:0:
86,182,84184,5,6,0:1:0:0:
129,272,84559,2,0,P|225:301|330:298,1,200,4|12,0:3|0:0,0:0:0:0:
247,113,86059,2,0,P|246:169|233:232,1,100,2|8,0:0|0:0,0:0:0:0:
149,256,86809,1,12,0:0:0:0:
165,56,87559,6,0,L|157:163,3,100,4|8|8|8,0:3|0:0|0:0|0:0,0:0:0:0:
74,99,89059,2,0,L|66:206,2,100,8|8|8,0:0|0:0|0:0,0:0:0:0:
274,103,90559,6,0,L|381:95,1,100,2|8,0:0|0:0,0:0:0:0:
363,195,91309,2,0,L|256:203,1,100,2|12,0:0|0:0,0:0:0:0:
253,302,92059,2,0,L|360:294,1,100,2|8,0:0|0:0,0:0:0:0:
451,286,92809,1,8,0:0:0:0:
462,187,93184,1,8,0:0:0:0:
472,87,93559,5,4,0:3:0:0:
256,192,93746,12,4,96559,0:3:0:0:
420,278,97309,5,8,0:0:0:0:
281,133,98059,2,0,P|262:186|251:249,1,100,8|10,0:0|0:0,0:0:0:0:
321,302,98809,1,8,0:0:0:0:
378,109,99559,6,0,L|347:212,3,100,8|8|8|8,0:0|0:0|0:0|0:0,0:0:0:0:
447,182,101059,2,0,L|416:285,2,100,12|8|12,0:0|0:0|0:0,0:0:0:0:
254,131,102559,6,0,L|157:85,1,100,8|10,0:0|0:0,0:0:0:0:
138,185,103309,2,0,L|235:230,1,100,8|8,0:0|0:0,0:0:0:0:
202,324,104059,2,0,L|105:278,1,100,2|8,0:0|0:0,0:0:0:0:
23,238,104809,1,8,0:0:0:0:
48,142,105184,1,2,0:0:0:0:
75,45,105559,5,4,0:1:0:0:
256,192,105746,12,4,108559,0:3:0:0:
65,267,109309,5,8,0:0:0:0:
258,217,110059,2,0,P|287:169|311:109,1,100,8|8,0:0|0:0,0:0:0:0:
253,43,110809,1,8,0:0:0:0:
158,220,111559,6,0,L|52:240,3,100,12|8|8|8,0:0|0:0|0:0|0:0,0:0:0:0:
100,147,113059,2,0,L|151:52,2,100,8|8|8,0:0|0:0|0:0,0:0:0:0:
263,256,114559,6,0,L|348:320,1,100,8|8,0:0|0:0,0:0:0:0:
387,227,115309,2,0,L|301:162,1,100,8|8,0:0|0:0,0:0:0:0:
353,78,116059,2,0,L|438:142,1,100,2|8,0:0|0:0,0:0:0:0:
511,199,116809,1,8,0:0:0:0:
466,288,117184,1,0,0:0:0:0:
420,377,117559,5,2,0:3:0:0:
256,192,117746,12,2,119996,0:0:0:0:
230,74,120559,6,0,P|277:48|342:62,1,100,4|8,0:3|0:3,0:0:0:0:
411,97,121309,2,0,P|423:47|414:16,2,75,4|8|4,0:3|0:3|0:3,0:0:0:0:
323,144,122246,1,8,0:2:0:0:
323,144,122434,1,4,0:3:0:0:
230,107,122809,6,0,P|218:157|227:188,2,75,8|4|8,0:3|0:3|0:0,0:0:0:0:
255,64,123559,1,4,0:3:0:0:
160,30,123934,1,8,0:3:0:0:
94,105,124309,2,0,L|10:113,2,74.9999928474426,4|8|4,0:3|0:3|0:3,0:0:0:0:
185,145,125246,1,8,0:0:0:0:
185,145,125434,1,4,0:3:0:0:
117,218,125809,2,0,L|122:284,1,50,8|2,0:3|0:3,0:0:0:0:
165,290,126184,2,0,L|170:356,1,50,8|8,0:0|0:3,0:0:0:0:
216,353,126559,6,0,P|264:329|290:268,1,100,4|8,0:3|0:3,0:0:0:0:
301,192,127309,2,0,P|348:210|369:236,2,75,4|8|4,0:3|0:3|0:3,0:0:0:0:
237,114,128246,1,8,0:0:0:0:
237,114,128434,2,0,L|239:45,1,49.9999952316284,4|2,0:3|0:0,0:0:0:0:
286,47,128809,2,0,L|368:34,2,75,8|4|8,0:3|0:3|0:3,0:0:0:0:
240,26,129559,5,4,0:3:0:0:
143,50,129934,1,8,0:3:0:0:
209,124,130309,2,0,L|229:213,2,75,4|8|4,0:3|0:3|0:3,0:0:0:0:
114,155,131246,5,8,0:3:0:0:
114,155,131434,2,0,B|68:140|68:140|7:160,2,100,4|8|12,0:3|0:0|0:0,0:0:0:0:
147,249,132559,5,4,0:3:0:0:
244,269,132934,1,8,0:0:0:0:
178,344,133309,2,0,L|122:352,2,50,8|4|4,0:3|0:3|0:3,0:0:0:0:
226,356,133871,1,8,0:0:0:0:
323,335,134246,2,0,L|379:343,2,50,4|4|4,0:1|0:3|0:3,0:0:0:0:
296,292,134809,2,0,L|284:188,1,100,8|4,0:3|0:1,0:0:0:0:
219,116,135559,6,0,L|228:34,2,75,4|8|12,0:3|0:3|0:0,0:0:0:0:
176,143,136309,2,0,L|110:150,1,50,6|4,0:3|0:3,0:0:0:0:
89,182,136684,2,0,L|23:174,1,50,8|4,0:3|0:1,0:0:0:0:
12,133,137059,2,0,P|0:97|0:67,2,50,4|4|4,0:3|0:1|0:1,0:0:0:0:
84,73,137809,6,0,L|100:-18,2,75,4|4|4,0:0|0:1|0:1,0:0:0:0:
129,95,138559,1,4,0:3:0:0:
217,50,138934,1,4,0:1:0:0:
306,94,139309,2,0,L|360:101,1,50,12|4,0:0|0:3,0:0:0:0:
370,148,139684,2,0,L|379:262,1,100,8|4,0:3|0:3,0:0:0:0:
333,269,140246,1,4,0:3:0:0:
333,269,140434,2,0,L|285:279,1,49.9999952316284,4|8,0:1|0:3,0:0:0:0:
244,309,140809,2,0,L|188:299,1,50,4|8,0:1|0:3,0:0:0:0:
148,319,141184,5,4,0:3:0:0:
148,319,141371,1,4,0:1:0:0:
107,289,141559,2,0,L|101:186,1,100,4|4,0:3|0:1,0:0:0:0:
199,170,142309,2,0,L|203:79,2,75,4|4|8,0:1|0:3|0:3,0:0:0:0:
247,257,143246,1,2,0:0:0:0:
247,257,143434,1,8,0:0:0:0:
328,198,143809,1,8,0:0:0:0:
423,226,144184,2,0,L|427:172,2,50,2|2|4,0:0|0:0|0:3,0:0:0:0:
59,329,156559,6,0,P|114:338|177:354,1,100,4|4,0:3|0:3,0:0:0:0:
199,259,157309,2,0,P|243:306|276:351,1,100,8|8,0:3|0:3,0:0:0:0:
362,350,158059,2,0,P|369:282|366:229,1,100,4|8,0:3|0:3,0:0:0:0:
466,231,158809,2,0,P|448:191|395:133,1,100,4|4,0:3|0:3,0:0:0:0:
411,47,159559,6,0,L|296:84,1,100,4|8,0:3|0:3,0:0:0:0:
230,25,160309,2,0,L|175:132,1,100,4|4,0:3|0:3,0:0:0:0:
86,137,161059,2,0,L|123:251,1,100,8|8,0:3|0:3,0:0:0:0:
39,295,161809,2,0,L|146:350,1,100,4|4,0:3|0:3,0:0:0:0:
256,192,162559,12,4,165184,0:3:0:0:
256,192,165559,12,4,167059,0:1:0:0:
0,95,168559,6,0,P|43:85|102:97,1,100,4|2,0:3|0:0,0:0:0:0:
121,139,169121,1,6,0:3:0:0:
121,139,169309,2,0,L|109:199,2,49.9999952316284,12|0|2,0:0|0:0|0:0,0:0:0:0:
153,178,169871,2,0,B|244:170|211:216|305:203,1,150,4|8,0:3|0:3,0:0:0:0:
344,187,170621,1,2,0:0:0:0:
344,187,170809,2,0,L|339:124,1,50,12|2,0:0|0:0,0:0:0:0:
380,107,171184,2,0,L|385:44,1,50,2|8,0:0|0:0,0:0:0:0:
423,25,171559,6,0,L|507:13,2,74.9999928474426,6|4|4,0:3|0:3|0:3,0:0:0:0:
383,57,172309,2,0,L|327:53,2,49.9999952316284,12|2|8,0:0|0:0|0:3,0:0:0:0:
418,92,172871,2,0,B|426:183|379:160|393:244,1,150,6|4,0:3|0:3,0:0:0:0:
357,273,173621,1,2,0:0:0:0:
357,273,173809,2,0,L|289:281,1,49.9999952316284,12|2,0:0|0:3,0:0:0:0:
265,251,174184,2,0,L|197:243,1,49.9999952316284,2|2,0:0|0:0,0:0:0:0:
174,216,174559,6,0,L|178:160,2,50,4|8|8,0:3|0:0|0:0,0:0:0:0:
96,278,175309,2,0,L|100:334,2,50,2|8|8,0:0|0:0|0:0,0:0:0:0:
75,180,176059,2,0,L|79:124,2,50,2|8|8,0:0|0:0|0:0,0:0:0:0:
0,242,176809,2,0,L|4:298,2,50,2|8|8,0:3|0:0|0:0,0:0:0:0:
48,154,177559,6,0,L|40:95,2,49.9999952316284,12|2|2,0:0|0:3|0:0,0:0:0:0:
89,183,178121,2,0,L|81:242,2,49.9999952316284,12|2|12,0:0|0:3|0:0,0:0:0:0:
133,161,178684,1,8,0:0:0:0:
145,61,179059,6,0,P|171:61|213:73,1,50,8|0,0:0|0:3,0:0:0:0:
224,105,179434,2,0,P|250:105|292:93,1,50,8|2,0:0|0:0,0:0:0:0:
322,89,179809,2,0,P|335:138|325:186,1,99.9999904632568,8|8,0:0|0:0,0:0:0:0:
381,273,180559,6,0,L|360:355,2,75,6|4|6,0:3|0:3|0:3,0:0:0:0:
386,223,181309,2,0,P|355:198|277:183,1,100,12|2,0:0|0:0,0:0:0:0:
260,89,182059,2,0,P|209:137|122:140,1,150,2|2,0:0|0:0,0:0:0:0:
90,115,182809,2,0,L|111:33,2,75,12|6|2,0:0|0:3|0:0,0:0:0:0:
41,127,183559,6,0,L|-8:53,2,75,6|8|4,0:3|0:3|0:3,0:0:0:0:
17,171,184309,1,12,0:0:0:0:
91,238,184684,1,4,0:3:0:0:
91,238,184871,2,0,P|154:189|237:181,1,150,6|2,0:3|0:0,0:0:0:0:
300,240,185809,1,6,0:3:0:0:
389,194,186184,6,0,P|390:130|385:89,1,100,2|4,0:0|0:3,0:0:0:0:
293,56,186934,1,8,0:0:0:0:
273,154,187309,6,0,P|224:140|178:121,1,100,2|8,0:0|0:0,0:0:0:0:
112,45,188059,2,0,P|98:93|79:139,1,100,2|8,0:3|0:0,0:0:0:0:
4,205,188809,2,0,P|52:218|98:237,1,100,2|8,0:3|0:0,0:0:0:0:
198,299,189559,5,4,0:1:0:0:
417,317,192559,6,0,P|433:268|446:215,1,100,6|8,0:3|0:0,0:0:0:0:
479,185,193121,1,2,0:0:0:0:
479,185,193309,2,0,P|457:152|440:131,1,50,12|2,0:0|0:3,0:0:0:0:
448,94,193684,1,8,0:0:0:0:
355,130,194059,2,0,P|318:118|292:108,1,50,2|4,0:0|0:0,0:0:0:0:
294,65,194434,2,0,P|262:86|196:103,1,100,2|12,0:0|0:0,0:0:0:0:
155,95,194996,1,0,0:0:0:0:
155,95,195184,2,0,P|144:131|134:156,1,50,2|8,0:0|0:3,0:0:0:0:
125,191,195559,5,6,0:3:0:0:
160,285,195934,2,0,P|198:291|256:325,1,100,8|12,0:0|0:0,0:0:0:0:
295,346,196496,1,2,0:0:0:0:
295,346,196684,2,0,P|326:323|348:306,1,50,8|6,0:0|0:3,0:0:0:0:
386,310,197059,2,0,P|397:272|407:246,1,50,2|4,0:0|0:0,0:0:0:0:
377,218,197434,1,2,0:0:0:0:
457,157,197809,2,0,P|435:124|418:103,1,50,12|0,0:0|0:0,0:0:0:0:
443,68,198184,2,0,P|405:60|378:56,1,50,2|8,0:0|0:3,0:0:0:0:
347,75,198559,5,6,0:3:0:0:
355,174,198934,2,0,L|343:279,2,100,8|12|8,0:0|0:0|0:0,0:0:0:0:
259,199,200059,2,0,P|226:217|203:233,1,50,2|4,0:0|0:0,0:0:0:0:
215,276,200434,2,0,P|179:262|111:261,1,100,2|12,0:0|0:0,0:0:0:0:
73,281,200996,1,0,0:0:0:0:
73,281,201184,2,0,P|54:247|37:224,1,50,2|8,0:0|0:3,0:0:0:0:
18,197,201559,5,4,0:3:0:0:
38,99,201934,2,0,P|73:82|121:35,1,100,8|12,0:0|0:0,0:0:0:0:
149,1,202496,1,2,0:3:0:0:
149,1,202684,2,0,P|185:13|210:25,1,50,8|8,0:0|0:3,0:0:0:0:
242,36,203059,2,0,P|261:68|277:91,1,50,2|2,0:0|0:0,0:0:0:0:
238,119,203434,1,12,0:0:0:0:
327,164,203809,2,0,P|314:199|302:224,1,50,12|0,0:0|0:0,0:0:0:0:
332,254,204184,2,0,P|297:269|271:279,1,50,12|2,0:0|0:0,0:0:0:0:
261,316,204559,5,8,0:0:0:0:
