osu file format v14

[General]
AudioFilename: audio.mp3
AudioLeadIn: 0
PreviewTime: 618
Countdown: 1
SampleSet: Soft
StackLeniency: 0.7
Mode: 0
LetterboxInBreaks: 0
EpilepsyWarning: 1
WidescreenStoryboard: 1

[Editor]
Bookmarks: 12618,24618,48618,60618,84618,120618,144618,168618,180618,204618
DistanceSpacing: 1
BeatDivisor: 4
GridSize: 32
TimelineZoom: 1.9

[Metadata]
Title:CANDYYYLAND feat. LIZ (Pa's Lam System Remix)
TitleUnicode:CAND¥¥¥LAND feat. LIZ (Pa's Lam System Remix)
Artist:tofubeats
ArtistUnicode:tofubeats
Creator:Senseabel
Version:Collab Insane
Source:
Tags:m3gb3g tatemae loreley anishina kodoku future bass candyland candy land instrumental electronic english
BeatmapID:2186073
BeatmapSetID:1045741

[Difficulty]
HPDrainRate:7
CircleSize:4
OverallDifficulty:8
ApproachRate:8
SliderMultiplier:1.4
SliderTickRate:1

[Events]
//Background and Video events
0,0,"bg.jpg",0,0
//Break Periods
//Storyboard Layer 0 (Background)
Sprite,Background,Centre,"white.jpg",320,240 S,0,-5590,,0.663 F,0,618,7205,1,0.85
//Storyboard Layer 1 (Fail)
//Storyboard Layer 2 (Pass)
//Storyboard Layer 3 (Foreground)
Sprite,Foreground,Centre,"tatemae.jpg",320,240 S,0,618,,0.46 F,0,12618,200,0,1
Sprite,Foreground,Centre,"senseabel.jpg",320,240 S,0,12618,,0.46 F,0,24617,200,0,1
Sprite,Foreground,Centre,"tatemae.jpg",320,240 S,0,24618,,0.46 F,0,48617,200,0,1
Sprite,Foreground,Centre,"black.jpg",320,240 S,0,48618,,0.46 F,0,48992,200,0,1
Sprite,Foreground,Centre,"senseabel.jpg",320,240 S,0,48993,,0.46 F,0,60617,200,0,1
Sprite,Foreground,Centre,"black.jpg",320,240 S,0,60618,,0.46 F,0,60993,200,0,1
Sprite,Foreground,Centre,"tatemae.jpg",320,240 S,0,60993,,0.46 F,0,84617,200,0,1
Sprite,Foreground,Centre,"senseabel.jpg",320,240 S,0,84618,,0.46 F,0,120617,200,0,1
Sprite,Foreground,Centre,"tatemae.jpg",320,240 S,0,120618,,0.46 F,0,144617,200,0,1
Sprite,Foreground,Centre,"senseabel.jpg",320,240 S,0,144618,,0.46 F,0,167117,200,0,1
Sprite,Foreground,Centre,"black.jpg",320,240 S,0,167118,,0.46 F,0,168617,200,0,1
Sprite,Foreground,Centre,"tatemae.jpg",320,240 S,0,168618,,0.46 F,0,180558,200,0,1
Sprite,Foreground,Centre,"black.jpg",320,240 S,0,180559,,0.46 F,0,180840,200,0,1
Sprite,Foreground,Centre,"senseabel.jpg",320,240 S,0,180841,,0.46 F,0,204617,200,0,1
Sprite,Foreground,Centre,"gray.png",320,240 S,0,618,,0.46 F,0,204617,200,0,1
Sprite,Foreground,Centre,"white.jpg",320,240 F,0,618,619,0,1 F,0,619,2118,1,0
Sprite,Foreground,Centre,"white.jpg",320,240 F,0,24618,24619,0,1 F,0,24619,26118,1,0
Sprite,Foreground,Centre,"white.jpg",320,240 F,0,48993,48994,0,1 F,0,48994,49930,1,0
Sprite,Foreground,Centre,"white.jpg",320,240 F,0,60993,60994,0,1 F,0,60994,62118,1,0
Sprite,Foreground,Centre,"white.jpg",320,240 F,0,72618,72619,0,1 F,0,72619,75618,1,0
Sprite,Foreground,Centre,"white.jpg",320,240 F,0,120618,120619,0,1 F,0,120619,122619,1,0
Sprite,Foreground,Centre,"white.jpg",320,240 F,0,132618,132619,0,1 F,0,132619,134619,1,0
Sprite,Foreground,Centre,"white.jpg",320,240 F,0,84618,84619,0,1 F,0,84619,86619,1,0
Sprite,Foreground,Centre,"white.jpg",320,240 F,0,168618,168619,0,1 F,0,168619,170619,1,0
Sprite,Foreground,Centre,"white.jpg",320,240 F,0,168618,168619,0,1 F,0,168619,170619,1,0
Sprite,Foreground,Centre,"white.jpg",320,240 F,0,192618,192619,0,1 F,0,192619,194619,1,0
Sprite,Foreground,Centre,"white.jpg",320,240 F,0,12558,12559,0,1 F,0,12559,13559,1,0
Sprite,Foreground,Centre,"white.jpg",320,240 F,0,144558,144559,0,1 F,0,144559,145559,1,0
Sprite,Foreground,Centre,"white.jpg",320,240 F,0,180839,180840,0,1 F,0,180840,182840,1,0
Sprite,Foreground,Centre,"white.jpg",320,240 F,0,180839,180840,0,1 F,0,180840,182840,1,0
Sprite,Foreground,Centre,"white.jpg",320,240 F,0,204558,204559,0,1 F,0,204559,207559,1,0
//Storyboard Layer 4 (Overlay)
//Storyboard Sound Samples

[TimingPoints]
559,375,4,1,0,40,1,0
559,-133.333333333333,4,2,0,40,0,0
12559,-133.333333333333,4,2,0,50,0,0
23809,-100,4,2,0,50,0,0
24559,-111.111111111111,4,2,0,60,0,0
35809,-100,4,2,0,60,0,0
35996,-90.9090909090909,4,2,0,60,0,0
36184,-76.9230769230769,4,2,0,60,0,0
36371,-71.4285714285714,4,2,0,60,0,0
36559,-200,4,2,0,60,0,0
42559,-133.333333333333,4,2,0,65,0,0
47809,-133.333333333333,4,2,0,50,0,0
48559,-83.3333333333333,4,2,0,77,0,0
71152,-83.3333333333333,4,2,0,60,0,0
72559,-133.333333333333,4,2,0,60,0,0
72934,-133.333333333333,4,2,0,50,0,0
81559,-200,4,2,0,40,0,0
82684,-133.333333333333,4,2,0,40,0,0
83434,-333.333333333333,4,2,0,40,0,0
84559,-133.333333333333,4,2,0,40,0,0
120559,-250,4,2,0,80,0,1
132559,-80,4,2,0,80,0,1
144559,-133.333333333333,4,2,0,60,0,0
156559,-100,4,2,0,65,0,0
168559,-83.3333333333333,4,2,0,77,0,0
174559,-83.3333333333333,4,2,0,65,0,0
180559,-83.3333333333333,4,2,0,80,0,1
204559,-83.3333333333333,4,2,0,100,0,0

[Colours]
Combo1 : 17,254,176
Combo2 : 173,255,95
Combo3 : 255,88,100
Combo4 : 255,94,55

[HitObjects]
0,198,559,6,0,P|39:195|116:190,1,105.000004005432,4|0,0:3|0:0,0:0:0:0:
104,191,1309,2,0,P|102:221|104:251,1,52.5000020027161,2|0,0:0|0:0,0:0:0:0:
171,152,1684,2,0,P|197:151|223:154,1,52.5000020027161
265,244,2059,2,0,P|256:139|248:34,2,210.000008010865,2|2|2,0:0|0:0|0:0,0:0:0:0:
180,358,3934,1,0,0:0:0:0:
180,358,4121,1,0,0:0:0:0:
180,358,4309,2,0,P|211:354|245:350,1,52.5000020027161,2|0,0:0|0:0,0:0:0:0:
360,311,4684,2,0,P|333:314|307:316,1,52.5000020027161
197,276,5059,6,0,P|199:221|192:171,1,105.000004005432,2|0,0:0|0:0,0:0:0:0:
75,115,5809,1,2,0:0:0:0:
114,48,5996,1,0,0:0:0:0:
37,47,6184,2,0,P|41:75|49:110,1,52.5000020027161
24,204,6559,6,0,P|51:200|82:194,1,52.5000020027161,2|0,0:0|0:0,0:0:0:0:
154,178,6934,2,0,P|179:174|205:169,1,52.5000020027161
286,118,7309,2,0,P|287:176|291:238,1,105.000004005432,2|0,0:0|0:0,0:0:0:0:
331,384,8059,6,0,P|350:307|372:232,1,157.500006008148,2|0,0:0|0:0,0:0:0:0:
242,384,8809,2,0,P|222:307|200:232,1,157.500006008148,2|0,0:0|0:0,0:0:0:0:
108,133,9559,5,2,0:0:0:0:
46,173,9746,2,0,P|41:198|40:233,2,52.5000020027161
227,104,10309,6,0,P|232:129|233:164,2,52.5000020027161,2|0|0,0:0|0:0|0:0,0:0:0:0:
60,45,11059,6,0,L|66:94,1,26.2500010013581,2|0,0:0|0:0,0:0:0:0:
169,17,11434,2,0,L|162:60,1,26.2500010013581,2|0,0:0|0:0,0:0:0:0:
264,42,11809,2,0,L|269:89,1,26.2500010013581,2|0,0:0|0:0,0:0:0:0:
362,12,12184,2,0,L|357:61,1,26.2500010013581,2|0,0:0|0:0,0:0:0:0:
452,55,12559,2,0,L|463:164,1,105.000004005432,4|2,0:3|0:0,0:0:0:0:
462,159,13309,5,8,0:0:0:0:
427,223,13496,2,0,P|399:219|358:221,2,52.5000020027161,2|0|0,0:0|0:0|0:0,0:0:0:0:
394,349,14059,2,0,P|394:322|397:296,1,52.5000020027161,4|0,0:3|0:0,0:0:0:0:
292,221,14434,2,0,P|287:260|282:303,1,78.7500030040742,2|0,0:0|0:0,0:0:0:0:
287,299,14809,2,0,P|283:325|283:351,1,52.5000020027161,8|0,0:0|0:0,0:0:0:0:
176,343,15184,2,0,P|179:316|179:290,1,52.5000020027161,8|0,0:3|0:0,0:0:0:0:
90,205,15559,2,0,P|84:260|84:316,1,105.000004005432,4|2,0:3|0:0,0:0:0:0:
148,154,16309,6,0,P|180:149|208:152,2,52.5000020027161,8|2|0,0:0|0:0|0:0,0:0:0:0:
268,238,17059,5,4,0:3:0:0:
385,158,17340,5,8,0:3:0:0:
266,80,17621,5,4,0:3:0:0:
220,140,17809,1,8,0:0:0:0:
351,223,18184,1,8,0:3:0:0:
496,139,18559,2,0,P|487:191|487:250,1,105.000004005432,4|2,0:3|0:0,0:0:0:0:
426,114,19309,6,0,P|380:110|369:111,2,52.5000020027161,8|2|0,0:0|0:0|0:0,0:0:0:0:
305,47,20059,5,4,0:3:0:0:
220,192,20434,1,2,0:0:0:0:
76,99,20809,2,0,P|75:136|78:157,1,52.5000020027161,8|2,0:0|0:0,0:0:0:0:
200,105,21184,2,0,P|201:68|198:47,1,52.5000020027161,8|0,0:3|0:0,0:0:0:0:
156,180,21559,1,4,0:3:0:0:
156,180,21746,6,0,P|186:184|218:180,2,52.5000020027161,2|0|0,0:0|0:0|0:0,0:0:0:0:
76,151,22309,1,8,0:0:0:0:
181,324,22684,5,2,0:0:0:0:
117,358,22871,1,2,0:3:0:0:
247,366,23059,2,0,P|253:327|253:257,1,105.000004005432,4|2,0:3|0:0,0:0:0:0:
492,86,23809,6,0,B|451:44|312:43|403:175|259:140,1,245,2|0,0:0|0:0,0:0:0:0:
284,145,24559,5,2,0:0:0:0:
197,151,24746,2,0,L|195:193,2,31.4999990386963,2|0|8,0:3|0:0|0:0,0:0:0:0:
214,61,25121,1,2,0:0:0:0:
214,61,25215,1,2,0:3:0:0:
214,61,25309,1,8,0:0:0:0:
61,85,25496,1,2,0:0:0:0:
67,172,25684,2,0,P|68:203|69:234,1,62.9999980773926,8|0,0:0|0:3,0:0:0:0:
264,324,26059,5,10,0:0:0:0:
266,299,26152,1,0,0:3:0:0:
266,275,26246,1,2,0:3:0:0:
265,250,26340,1,0,0:3:0:0:
260,225,26434,5,10,0:0:0:0:
187,279,26621,1,0,0:3:0:0:
281,187,26809,5,8,0:0:0:0:
363,288,26996,1,2,0:0:0:0:
247,166,27184,5,8,0:0:0:0:
155,271,27371,1,2,0:3:0:0:
294,150,27559,5,8,0:0:0:0:
294,150,27652,1,0,0:3:0:0:
294,150,27746,1,2,0:0:0:0:
294,150,27840,1,0,0:3:0:0:
294,150,27934,2,0,L|364:150,1,62.9999980773926,10|0,0:0|0:0,0:0:0:0:
450,104,28309,2,0,L|456:68,2,31.4999990386963,8|0|2,0:0|0:3|0:0,0:0:0:0:
483,176,28684,1,8,0:0:0:0:
352,53,28871,1,2,0:0:0:0:
352,53,28965,1,0,0:3:0:0:
352,53,29059,6,0,L|301:54,3,31.4999990386963,10|0|2|0,0:0|0:3|0:0|0:3,0:0:0:0:
354,74,29434,2,0,L|349:157,1,62.9999980773926,8|2,0:0|0:0,0:0:0:0:
311,204,29715,1,2,0:3:0:0:
311,204,29809,2,0,L|306:287,1,62.9999980773926,8|2,0:0|0:0,0:0:0:0:
431,348,30184,1,8,0:0:0:0:
356,382,30371,1,0,0:3:0:0:
256,336,30559,5,10,0:0:0:0:
234,331,30652,1,0,0:3:0:0:
211,331,30746,1,2,0:0:0:0:
189,336,30840,1,0,0:3:0:0:
168,344,30934,2,0,P|136:356|106:373,1,62.9999980773926,10|2,0:0|0:0,0:0:0:0:
30,375,31215,1,2,0:3:0:0:
30,375,31309,2,0,P|35:341|35:306,1,62.9999980773926,8|2,0:0|0:0,0:0:0:0:
0,176,31684,5,8,0:0:0:0:
65,224,31871,1,2,0:0:0:0:
153,154,32059,5,8,0:0:0:0:
178,152,32152,1,0,0:3:0:0:
202,153,32246,1,2,0:0:0:0:
226,155,32340,1,0,0:3:0:0:
251,161,32434,5,8,0:0:0:0:
323,208,32621,1,2,0:0:0:0:
478,118,32809,5,8,0:0:0:0:
405,207,32996,1,2,0:3:0:0:
234,73,33184,5,8,0:0:0:0:
312,179,33371,1,2,0:0:0:0:
432,60,33559,5,10,0:0:0:0:
432,60,33652,1,0,0:3:0:0:
432,60,33746,1,2,0:0:0:0:
432,60,33840,1,0,0:3:0:0:
432,60,33934,2,0,P|432:99|434:129,1,62.9999980773926,10|2,0:0|0:0,0:0:0:0:
356,169,34215,1,2,0:3:0:0:
356,169,34309,2,0,P|355:129|353:99,1,62.9999980773926,8|2,0:0|0:0,0:0:0:0:
281,9,34684,2,0,P|282:40|282:71,1,62.9999980773926,8|0,0:0|0:3,0:0:0:0:
126,87,35059,5,10,0:0:0:0:
149,87,35152,1,0,0:3:0:0:
171,95,35246,1,2,0:0:0:0:
190,108,35340,1,0,0:3:0:0:
204,130,35434,2,0,L|206:216,1,62.9999980773926,8|2,0:0|0:0,0:0:0:0:
184,353,35809,6,0,P|187:338|200:318,1,35,8|0,0:0|0:0,0:0:0:0:
217,286,35996,6,0,P|229:272|254:259,1,38.5000011749268,2|0,0:3|0:0,0:0:0:0:
286,245,36184,6,0,P|303:240|331:240,1,45.4999979171754,8|0,0:0|0:0,0:0:0:0:
370,246,36371,6,0,P|385:246|418:264,1,48.9999985046387,2|0,0:0|0:0,0:0:0:0:
414,260,36559,6,0,L|406:342,1,70,4|8,0:3|0:0,0:0:0:0:
315,384,37121,1,0,0:3:0:0:
315,384,37215,1,2,0:3:0:0:
315,384,37309,2,0,L|308:314,1,70,8|10,0:0|0:0,0:0:0:0:
111,115,38059,6,0,L|86:92,1,35,8|0,0:3|0:0,0:0:0:0:
222,124,38434,2,0,L|189:134,1,35,8|2,0:0|0:0,0:0:0:0:
126,226,38809,2,0,L|133:191,1,35,8|2,0:0|0:3,0:0:0:0:
160,53,39184,1,10,0:0:0:0:
248,241,39559,5,4,0:3:0:0:
324,209,39746,1,2,0:0:0:0:
248,241,39934,1,8,0:0:0:0:
324,209,40121,1,2,0:3:0:0:
229,157,40309,1,8,0:0:0:0:
229,157,40402,1,0,0:3:0:0:
229,157,40496,1,2,0:3:0:0:
285,324,40684,1,10,0:0:0:0:
285,324,41059,5,4,0:3:0:0:
205,301,41246,1,2,0:0:0:0:
285,324,41434,1,8,0:0:0:0:
205,301,41621,1,2,0:3:0:0:
353,382,41809,5,8,0:0:0:0:
403,329,41996,1,2,0:0:0:0:
390,256,42184,1,8,0:0:0:0:
331,212,42371,1,2,0:3:0:0:
220,210,42559,5,4,0:3:0:0:
220,210,42746,1,8,0:0:0:0:
220,210,42934,2,0,L|223:273,1,52.5000020027161,8|2,0:0|0:0,0:0:0:0:
325,367,43309,5,4,0:3:0:0:
325,367,43496,1,8,0:0:0:0:
325,367,43684,2,0,L|322:304,1,52.5000020027161,8|2,0:0|0:3,0:0:0:0:
429,230,44059,5,4,0:3:0:0:
429,230,44246,1,8,0:0:0:0:
320,148,44434,1,8,0:0:0:0:
281,219,44621,1,2,0:0:0:0:
429,230,44809,5,4,0:3:0:0:
429,230,44996,1,8,0:0:0:0:
292,237,45184,1,8,0:0:0:0:
308,316,45371,1,2,0:3:0:0:
429,230,45559,6,0,L|434:268,1,26.2500010013581,4|0,0:3|0:0,0:0:0:0:
413,154,45746,2,0,L|409:127,1,26.2500010013581,8|0,0:3|0:0,0:0:0:0:
351,243,45934,6,0,L|356:281,1,26.2500010013581,4|0,0:3|0:0,0:0:0:0:
335,136,46121,2,0,L|331:109,1,26.2500010013581,8|0,0:3|0:0,0:0:0:0:
276,249,46309,6,0,L|281:287,1,26.2500010013581,4|0,0:3|0:0,0:0:0:0:
259,125,46496,2,0,L|255:98,1,26.2500010013581,8|0,0:3|0:0,0:0:0:0:
201,254,46684,6,0,L|206:292,1,26.2500010013581,4|0,0:3|0:0,0:0:0:0:
180,116,46871,2,0,L|176:89,1,26.2500010013581,8|0,0:3|0:0,0:0:0:0:
125,193,47059,5,4,0:3:0:0:
130,218,47152,1,8,0:3:0:0:
127,244,47246,1,4,0:3:0:0:
117,268,47340,1,8,0:3:0:0:
100,288,47434,1,4,0:3:0:0:
78,302,47527,1,4,0:1:0:0:
52,308,47621,1,0,0:1:0:0:
26,306,47715,1,0,0:1:0:0:
1,292,47809,6,0,L|-1:252,2,26.2500010013581,2|2|2,0:0|0:3|0:0,0:0:0:0:
41,205,48184,2,0,L|39:152,1,52.5000020027161,4|0,0:1|0:0,0:0:0:0:
128,249,48559,5,4,0:3:0:0:
128,249,48652,1,0,0:3:0:0:
128,249,48746,1,0,0:3:0:0:
128,249,48840,1,0,0:3:0:0:
128,249,48934,2,2,B|199:244|177:287|255:278,1,125.999996154785,12|0,0:0|0:0,0:1:0:0:
247,353,49309,2,0,L|198:355,3,41.9999987182618,2|0|2|0,0:3|0:3|0:0|0:3,0:0:0:0:
330,326,49684,1,8,0:0:0:0:
330,326,49777,1,2,0:3:0:0:
330,326,49871,2,2,P|324:263|325:147,1,167.999994873047,4|4,0:3|0:1,0:1:0:0:
324,158,50340,1,4,0:3:0:0:
324,158,50434,2,0,L|380:156,3,41.9999987182618,2|0|2|0,0:0|0:3|0:3|0:3,0:0:0:0:
443,117,50809,6,0,P|447:73|441:25,1,83.9999974365235,12|0,0:0|0:0,0:0:0:0:
245,67,51184,2,0,P|241:111|247:159,1,83.9999974365235,4|2,0:3|0:0,0:0:0:0:
348,91,51559,5,4,0:3:0:0:
215,225,51840,5,8,0:3:0:0:
74,98,52121,5,4,0:1:0:0:
74,98,52215,1,4,0:3:0:0:
74,98,52309,1,12,0:0:0:0:
135,51,52496,1,2,0:1:0:0:
151,128,52684,2,0,L|148:188,2,41.9999987182618,2|0|2,0:1|0:3|0:1,0:0:0:0:
210,34,53059,6,0,P|257:36|309:118,1,125.999996154785,4|0,0:3|0:0,0:0:0:0:
307,91,53434,1,8,0:3:0:0:
448,73,53621,1,8,0:3:0:0:
337,233,53809,2,0,P|389:238|437:245,1,83.9999974365235,12|0,0:0|0:0,0:0:0:0:
196,177,54184,2,0,P|144:182|96:189,1,83.9999974365235,2|2,0:3|0:0,0:0:0:0:
263,281,54559,5,4,0:3:0:0:
263,281,54934,6,2,B|248:198|288:212|265:109,1,167.999994873047,12|2,0:0|0:0,0:1:0:0:
266,114,55402,1,0,0:3:0:0:
266,114,55496,1,2,0:3:0:0:
266,114,55590,1,0,0:3:0:0:
266,114,55684,1,12,0:0:0:0:
449,104,55871,2,2,P|387:107|346:3,1,167.999994873047,4|8,0:3|0:3,0:1:0:0:
339,24,56340,1,4,0:3:0:0:
339,24,56434,1,2,0:3:0:0:
174,96,56809,6,0,P|179:149|173:187,1,83.9999974365235,12|0,0:0|0:0,0:0:0:0:
0,218,57184,2,0,P|-4:165|1:127,1,83.9999974365235,4|2,0:3|0:0,0:0:0:0:
98,160,57559,1,4,0:3:0:0:
81,238,57746,1,8,0:3:0:0:
81,238,57840,1,4,0:3:0:0:
81,238,57934,1,4,0:3:0:0:
231,225,58121,1,8,0:3:0:0:
95,379,58309,1,12,0:0:0:0:
245,366,58496,1,8,0:0:0:0:
162,304,58684,6,0,P|158:258|157:152,1,125.999996154785,12|0,0:0|0:0,0:0:0:0:
156,178,59059,1,6,0:3:0:0:
342,148,59340,1,4,0:3:0:0:
342,148,59434,1,2,0:3:0:0:
231,81,59621,1,8,0:3:0:0:
272,258,59809,1,12,0:0:0:0:
318,72,59996,5,2,0:0:0:0:
318,72,60184,2,0,L|401:67,1,83.9999974365235,2|2,0:3|0:0,0:0:0:0:
189,7,60559,5,4,0:3:0:0:
187,10,60652,1,0,0:3:0:0:
185,13,60746,1,2,0:3:0:0:
183,16,60840,1,0,0:3:0:0:
180,18,60934,2,0,L|181:113,1,83.9999974365235,12|0,0:0|0:0,0:0:0:0:
212,222,61309,1,2,0:0:0:0:
236,208,61402,1,0,0:3:0:0:
265,203,61496,1,2,0:3:0:0:
293,208,61590,1,0,0:3:0:0:
316,224,61684,5,12,0:0:0:0:
383,371,61871,1,4,0:3:0:0:
383,371,62246,1,4,0:3:0:0:
293,370,62434,2,0,P|254:369|205:371,1,83.9999974365235,8|2,0:0|0:3,0:0:0:0:
471,351,62809,2,2,P|391:325|335:258,1,167.999994873047,12|4,0:0|0:3,0:1:0:0:
331,60,63559,6,0,L|372:67,1,41.9999987182618,4|0,0:3|0:0,0:0:0:0:
215,38,63746,2,0,L|256:45,1,41.9999987182618,8|0,0:3|0:0,0:0:0:0:
133,25,63934,5,2,0:0:0:0:
115,48,64027,1,0,0:3:0:0:
107,76,64121,1,2,0:3:0:0:
108,105,64215,1,0,0:3:0:0:
119,133,64309,2,0,P|144:130|162:130,1,41.9999987182618,12|0,0:0|0:0,0:0:0:0:
253,143,64496,1,4,0:3:0:0:
253,143,64590,2,0,L|159:150,1,83.9999974365235,12|8,0:0|0:0,0:0:0:0:
128,213,64871,2,0,P|133:238|137:274,1,41.9999987182618,10|0,0:3|0:0,0:0:0:0:
214,260,65059,6,0,L|189:147,1,83.9999974365235,4|2,0:3|0:0,0:0:0:0:
88,180,65340,1,4,0:1:0:0:
94,204,65434,2,2,L|118:301,1,83.9999974365235,0|4,0:1|0:3,0:1:0:0:
169,357,65809,2,0,P|232:294|321:279,1,167.999994873047,12|2,0:0|0:0,0:0:0:0:
292,290,66559,6,0,P|354:290|417:294,1,125.999996154785,4|0,0:3|0:0,0:0:0:0:
440,286,66934,2,2,P|352:281|249:281,1,167.999994873047,12|2,0:0|0:0,0:1:0:0:
50,187,67684,6,0,L|47:142,1,41.9999987182618,12|0,0:0|0:0,0:0:0:0:
76,74,67871,2,2,P|129:72|173:183,1,167.999994873047,4|4,0:3|0:3,0:1:0:0:
180,162,68340,1,8,0:3:0:0:
180,162,68434,1,2,0:3:0:0:
110,285,68621,1,2,0:0:0:0:
76,290,68715,1,2,0:3:0:0:
42,283,68809,2,2,P|103:270|181:279,1,125.999996154785,4|0,0:1|0:0,0:1:0:0:
216,340,69184,2,0,P|212:277|215:214,1,125.999996154785,12|0,0:0|0:0,0:0:0:0:
215,214,69559,5,4,0:3:0:0:
424,178,69840,5,8,0:3:0:0:
424,178,69934,1,2,0:3:0:0:
344,145,70121,5,4,0:3:0:0:
457,98,70309,1,12,0:0:0:0:
457,98,70402,1,0,0:3:0:0:
457,98,70496,1,2,0:3:0:0:
457,98,70590,1,0,0:3:0:0:
457,98,70684,2,0,L|450:151,1,41.9999987182618,2|2,0:0|0:0,0:0:0:0:
374,127,70871,2,0,L|379:85,1,41.9999987182618,2|2,0:3|0:0,0:0:0:0:
428,15,71059,6,0,L|380:332,1,293.999991027832,4|0,0:3|0:0,0:0:0:0:
399,298,71809,6,0,P|337:283|275:272,1,125.999996154785,2|0,0:0|0:0,0:0:0:0:
283,258,72184,6,0,P|268:319|257:381,1,125.999996154785,8|0,0:0|0:0,0:0:0:0:
271,374,72559,5,4,0:3:0:0:
119,313,72934,6,0,P|72:309|24:308,1,78.7500030040742,2|0,0:0|0:0,0:0:0:0:
27,319,73309,2,0,P|31:272|32:224,1,78.7500030040742,2|0,0:3|0:0,0:0:0:0:
22,227,73684,2,0,P|69:231|117:232,1,78.7500030040742,2|0,0:0|0:0,0:0:0:0:
111,226,74059,2,0,P|107:272|106:320,1,78.7500030040742,2|0,0:3|0:0,0:0:0:0:
117,306,74434,2,0,P|118:266|122:227,1,78.7500030040742,2|0,0:0|0:0,0:0:0:0:
157,191,74809,6,0,B|208:172|208:172|271:199,2,105.000004005432,4|2|2,0:0|0:3|0:0,0:0:0:0:
101,34,75934,6,0,P|54:38|6:39,1,78.7500030040742,2|0,0:3|0:0,0:0:0:0:
9,28,76309,2,0,P|13:75|14:123,1,78.7500030040742,2|0,0:0|0:0,0:0:0:0:
4,120,76684,2,0,P|51:116|99:115,1,78.7500030040742,2|0,0:3|0:0,0:0:0:0:
93,121,77059,2,0,P|89:74|88:26,1,78.7500030040742,2|0,0:0|0:0,0:0:0:0:
99,41,77434,2,0,P|100:80|104:119,1,78.7500030040742,2|2,0:3|0:0,0:0:0:0:
112,131,77809,5,2,0:0:0:0:
211,129,77996,1,2,0:3:0:0:
215,228,78184,1,6,0:1:0:0:
115,229,78371,2,0,P|73:229|34:230,1,78.7500030040742,2|0,0:3|0:0,0:0:0:0:
381,294,78934,6,0,P|428:290|476:289,1,78.7500030040742,2|0,0:0|0:0,0:0:0:0:
473,300,79309,2,0,P|469:253|468:205,1,78.7500030040742,2|0,0:3|0:0,0:0:0:0:
478,208,79684,2,0,P|431:212|383:213,1,78.7500030040742,2|0,0:0|0:0,0:0:0:0:
389,207,80059,2,0,P|392:253|393:301,1,78.7500030040742,2|0,0:3|0:0,0:0:0:0:
383,287,80434,2,0,P|381:247|377:208,1,78.7500030040742,2|0,0:0|0:0,0:0:0:0:
422,136,80809,6,0,P|415:73|314:7,1,183.750007009506,2|0,0:3|0:0,0:0:0:0:
313,80,81559,6,0,P|297:146|238:180,1,140,2|2,0:0|0:0,0:0:0:0:
31,30,82684,6,0,P|36:134|40:227,1,183.750007009506,2|0,0:3|0:0,0:0:0:0:
39,213,83434,6,0,P|41:253|42:289,1,73.4999977569581
42,286,84184,6,0,L|43:306,1,10.4999996795654,6|0,0:1|0:0,0:0:0:0:
208,332,84559,5,4,0:3:0:0:
282,369,84746,1,8,0:0:0:0:
282,369,84934,1,8,0:0:0:0:
337,312,85121,1,2,0:0:0:0:
269,270,85309,2,0,L|265:195,2,52.5000020027161,12|2|2,0:0|0:3|0:3,0:0:0:0:
269,270,86059,5,2,0:0:0:0:
269,270,86246,1,8,0:0:0:0:
347,260,86434,1,8,0:0:0:0:
398,312,86621,1,2,0:0:0:0:
358,188,86809,2,0,P|356:156|362:115,1,52.5000020027161,12|2,0:0|0:3,0:0:0:0:
436,113,87184,2,0,P|455:111|479:115,3,26.2500010013581,8|0|2|0,0:0|0:3|0:0|0:3,0:0:0:0:
425,99,87559,6,0,P|427:67|421:26,1,52.5000020027161,4|2,0:3|0:0,0:0:0:0:
323,167,87934,2,0,P|349:169|375:167,1,52.5000020027161,8|2,0:0|0:0,0:0:0:0:
358,4,88309,2,0,P|331:1|305:3,1,52.5000020027161,8|2,0:0|0:0,0:0:0:0:
249,124,88684,2,0,P|247:97|249:71,1,52.5000020027161,8|2,0:0|0:0,0:0:0:0:
194,189,89059,6,0,P|195:215|193:241,1,52.5000020027161,8|2,0:0|0:3,0:0:0:0:
84,121,89434,2,0,P|110:118|137:120,1,52.5000020027161,8|2,0:0|0:3,0:0:0:0:
119,284,89809,2,0,P|93:286|67:284,1,52.5000020027161,8|2,0:0|0:3,0:0:0:0:
17,164,90184,2,0,P|15:190|17:216,1,52.5000020027161,8|0,0:0|0:0,0:0:0:0:
101,198,90559,5,2,0:0:0:0:
101,198,90746,1,8,0:0:0:0:
101,198,90934,1,8,0:0:0:0:
212,323,91309,5,2,0:0:0:0:
212,323,91496,1,8,0:0:0:0:
212,323,91684,1,12,0:0:0:0:
349,226,92059,5,2,0:0:0:0:
349,226,92246,2,0,L|355:164,2,52.5000020027161,8|8|2,0:0|0:0|0:0,0:0:0:0:
399,286,92809,2,0,P|443:293|468:296,1,52.5000020027161,8|2,0:0|0:0,0:0:0:0:
450,294,93090,1,2,0:3:0:0:
450,294,93184,1,8,0:0:0:0:
368,356,93371,5,2,0:0:0:0:
368,356,93465,1,2,0:3:0:0:
368,356,93559,2,0,P|333:366|302:367,1,52.5000020027161,4|2,0:3|0:0,0:0:0:0:
398,285,93934,2,0,P|382:264|362:246,1,52.5000020027161,8|2,0:0|0:0,0:0:0:0:
277,258,94309,2,0,P|267:282|262:308,1,52.5000020027161,8|2,0:0|0:0,0:0:0:0:
194,335,94684,1,8,0:0:0:0:
194,335,94871,1,2,0:3:0:0:
127,291,95059,6,0,P|116:266|111:241,1,52.5000020027161,8|2,0:0|0:3,0:0:0:0:
44,162,95434,2,0,P|33:186|28:211,1,52.5000020027161,8|2,0:0|0:3,0:0:0:0:
131,148,95809,1,8,0:0:0:0:
131,148,95902,1,2,0:3:0:0:
131,148,95996,1,2,0:0:0:0:
206,171,96184,1,8,0:0:0:0:
242,101,96371,1,2,0:0:0:0:
166,78,96559,6,0,P|163:49|166:21,1,52.5000020027161,4|8,0:3|0:0,0:0:0:0:
317,41,96934,1,8,0:0:0:0:
317,41,97121,2,0,P|320:70|317:98,1,52.5000020027161,2|8,0:0|0:0,0:0:0:0:
242,101,97496,1,2,0:3:0:0:
242,101,97684,1,2,0:3:0:0:
242,101,98059,6,0,P|239:130|242:158,1,52.5000020027161,8|2,0:0|0:0,0:0:0:0:
393,138,98434,2,0,P|396:109|393:81,1,52.5000020027161,10|2,0:0|0:3,0:0:0:0:
297,207,98809,2,0,P|326:204|354:207,1,52.5000020027161,8|2,0:0|0:0,0:0:0:0:
239,267,99184,2,0,P|210:270|182:267,1,52.5000020027161,8|2,0:0|0:0,0:0:0:0:
186,267,99465,1,2,0:3:0:0:
186,267,99559,1,8,0:0:0:0:
318,338,99746,5,2,0:0:0:0:
318,338,99934,2,0,P|321:309|318:281,1,52.5000020027161,8|2,0:0|0:0,0:0:0:0:
421,222,100309,2,0,P|418:251|421:279,1,52.5000020027161,8|2,0:0|0:0,0:0:0:0:
421,275,100590,1,2,0:3:0:0:
421,275,100684,6,0,B|368:263|377:301|306:282,1,105.000004005432,8|12,0:0|0:0,0:0:0:0:
246,350,101246,1,2,0:0:0:0:
246,350,101434,2,0,P|211:353|185:351,1,52.5000020027161,8|2,0:0|0:0,0:0:0:0:
248,263,101809,2,0,P|254:219|255:156,1,105.000004005432,12|8,0:0|0:0,0:0:0:0:
356,82,102465,5,2,0:3:0:0:
356,82,102559,2,0,L|426:65,1,52.5000020027161,8|2,0:0|0:0,0:0:0:0:
488,154,102934,2,0,L|418:137,1,52.5000020027161,10|2,0:0|0:3,0:0:0:0:
393,253,103309,2,0,L|376:183,1,52.5000020027161,8|2,0:0|0:0,0:0:0:0:
512,242,103684,2,0,L|459:291,1,52.5000020027161,8|2,0:0|0:0,0:0:0:0:
256,192,104059,12,0,107621,0:0:0:0:
459,191,107902,1,2,0:3:0:0:
459,191,107995,1,2,0:0:0:0:
388,153,108184,1,2,0:3:0:0:
325,200,108371,1,2,0:0:0:0:
394,237,108559,2,0,P|392:269|389:317,1,78.7500030040742,4|2,0:3|0:3,0:0:0:0:
389,315,108934,2,0,P|356:316|337:318,1,52.5000020027161,8|2,0:0|0:3,0:0:0:0:
277,275,109309,1,8,0:0:0:0:
138,358,109590,5,2,0:0:0:0:
138,358,109684,2,0,P|133:316|134:301,1,52.5000020027161,8|2,0:0|0:0,0:0:0:0:
86,242,110059,1,8,0:0:0:0:
143,188,110246,1,2,0:3:0:0:
143,188,110434,2,0,P|169:188|195:192,1,52.5000020027161,8|2,0:0|0:0,0:0:0:0:
257,144,110809,1,8,0:0:0:0:
394,237,111090,5,2,0:3:0:0:
394,237,111184,1,8,0:0:0:0:
443,175,111371,1,2,0:0:0:0:
443,175,111465,1,2,0:3:0:0:
443,175,111559,2,0,P|442:133|445:88,1,78.7500030040742,12|2,0:0|0:3,0:0:0:0:
444,96,111934,1,8,0:0:0:0:
347,136,112121,1,2,0:0:0:0:
305,40,112309,1,8,0:0:0:0:
403,4,112496,1,2,0:3:0:0:
376,73,112684,6,0,P|346:76|315:81,1,52.5000020027161,8|2,0:0|0:0,0:0:0:0:
220,145,113059,2,0,P|250:148|281:153,1,52.5000020027161,8|2,0:0|0:0,0:0:0:0:
272,151,113340,1,2,0:3:0:0:
272,151,113434,1,8,0:0:0:0:
257,255,113621,2,0,P|227:252|196:247,1,52.5000020027161,2|8,0:0|0:0,0:0:0:0:
359,281,114090,5,2,0:3:0:0:
359,281,114184,1,8,0:0:0:0:
378,178,114371,1,2,0:0:0:0:
444,235,114559,2,0,P|477:234|493:237,1,52.5000020027161,8|2,0:0|0:0,0:0:0:0:
496,237,114840,1,2,0:3:0:0:
496,237,114934,2,0,P|489:278|486:294,1,52.5000020027161,8|2,0:0|0:0,0:0:0:0:
425,384,115309,2,0,P|418:343|415:327,1,52.5000020027161,8|2,0:0|0:0,0:0:0:0:
416,332,115590,1,2,0:3:0:0:
416,332,115684,1,8,0:0:0:0:
345,297,115871,1,2,0:0:0:0:
203,338,116152,5,2,0:3:0:0:
203,338,116246,2,0,L|207:277,1,52.5000020027161,2|8,0:0|0:0,0:0:0:0:
149,234,116621,1,2,0:0:0:0:
206,285,116809,1,8,0:0:0:0:
173,155,117090,5,0,0:0:0:0:
231,34,117371,5,10,0:0:0:0:
231,34,117465,1,2,0:3:0:0:
256,192,117559,12,0,119621,0:0:0:0:
168,79,119809,5,8,0:1:0:0:
94,56,119996,1,2,0:0:0:0:
94,56,120090,1,2,0:3:0:0:
94,56,120184,1,4,0:0:0:0:
205,14,120371,1,2,0:1:0:0:
38,112,120559,6,0,L|42:143,1,28,4|2,0:3|0:0,0:0:0:0:
235,113,120934,2,0,L|240:147,1,28,8|2,0:3|0:3,0:0:0:0:
100,11,121309,2,0,L|107:48,1,28,4|2,0:3|0:0,0:0:0:0:
119,84,121590,1,8,0:3:0:0:
119,84,121684,1,8,0:0:0:0:
299,19,121871,2,0,L|292:56,1,28,4|8,0:3|0:3,0:0:0:0:
380,35,122246,5,8,0:2:0:0:
380,35,122434,2,0,L|371:67,1,28,4|2,0:3|0:0,0:0:0:0:
264,132,122809,2,0,L|273:165,1,28,8|2,0:3|0:3,0:0:0:0:
284,205,123090,1,4,0:3:0:0:
284,205,123184,1,8,0:0:0:0:
355,137,123371,1,8,0:0:0:0:
169,200,123559,6,0,L|165:231,1,28,4|2,0:3|0:0,0:0:0:0:
4,216,123934,2,0,L|-1:250,1,28,8|2,0:3|0:3,0:0:0:0:
222,286,124309,2,0,L|215:323,1,28,4|2,0:3|0:0,0:0:0:0:
210,362,124590,1,8,0:3:0:0:
210,362,124684,1,8,0:0:0:0:
329,339,124871,2,0,L|323:366,1,28,4|8,0:3|0:3,0:0:0:0:
306,236,125246,5,8,0:0:0:0:
306,236,125434,2,0,L|297:268,1,28,4|2,0:3|0:0,0:0:0:0:
144,165,125809,2,0,L|153:198,1,28,8|2,0:3|0:3,0:0:0:0:
167,239,126090,1,4,0:3:0:0:
167,239,126184,1,8,0:0:0:0:
231,169,126371,1,8,0:3:0:0:
66,126,126559,6,0,L|57:159,1,28,4|2,0:3|0:0,0:0:0:0:
249,72,126934,2,0,L|258:105,1,28,8|2,0:3|0:3,0:0:0:0:
28,7,127309,2,0,L|19:40,1,28,4|2,0:3|0:0,0:0:0:0:
8,79,127590,1,8,0:3:0:0:
8,79,127684,1,8,0:0:0:0:
160,46,127871,2,0,L|169:79,1,28,4|8,0:3|0:3,0:0:0:0:
238,13,128246,5,8,0:0:0:0:
238,13,128434,2,0,L|247:46,1,28,4|2,0:3|0:0,0:0:0:0:
485,71,128809,2,0,L|476:104,1,28,8|2,0:3|0:3,0:0:0:0:
466,152,129090,1,4,0:3:0:0:
466,152,129184,1,8,0:0:0:0:
347,63,129371,1,8,0:3:0:0:
253,176,129559,6,0,L|262:209,1,28,4|2,0:3|0:0,0:0:0:0:
52,130,129934,2,0,L|44:157,1,28,8|2,0:3|0:3,0:0:0:0:
375,149,130309,2,0,L|366:182,1,28,4|2,0:3|0:0,0:0:0:0:
356,217,130590,1,8,0:3:0:0:
356,217,130684,1,8,0:0:0:0:
176,312,130871,2,0,L|183:339,1,28,4|0,0:3|0:0,0:0:0:0:
375,296,131246,5,8,0:3:0:0:
302,358,131434,2,0,L|296:325,1,28,4|2,0:3|0:0,0:0:0:0:
282,250,131809,2,8,L|275:223,1,28,8|2,0:0|0:0,0:0:0:0:
266,185,132090,1,2,0:3:0:0:
266,185,132184,1,12,0:0:0:0:
84,111,132559,6,0,P|45:91|5:73,1,87.5,4|0,0:3|0:0,0:0:0:0:
244,55,132934,2,0,P|208:80|171:104,1,87.5,8|4,0:0|0:3,0:0:0:0:
135,183,133309,2,0,P|139:227|142:271,1,87.5,8|4,0:3|0:3,0:0:0:0:
78,344,133590,1,2,0:0:0:0:
78,344,133684,2,0,P|76:315|73:286,1,43.75,4|0,0:3|0:0,0:0:0:0:
220,263,133871,2,0,P|221:291|224:320,1,43.75,8|0,0:0|0:0,0:0:0:0:
173,368,134059,5,8,0:3:0:0:
173,368,134152,1,2,0:0:0:0:
173,368,134246,1,4,0:1:0:0:
173,368,134340,1,8,0:3:0:0:
173,368,134434,2,0,P|238:368|276:371,1,87.5,4|4,0:3|0:3,0:0:0:0:
415,314,134809,5,8,0:3:0:0:
415,314,134902,1,4,0:3:0:0:
415,314,134996,1,4,0:1:0:0:
415,314,135090,1,8,0:3:0:0:
415,314,135184,2,0,P|350:314|312:317,1,87.5,4|6,0:1|0:3,0:0:0:0:
167,262,135559,5,4,0:3:0:0:
167,262,135652,1,2,0:0:0:0:
167,262,135746,2,0,L|168:204,1,43.75,2|8,0:3|0:3,0:0:0:0:
254,285,135934,5,4,0:3:0:0:
254,285,136027,1,2,0:0:0:0:
254,285,136121,2,0,L|253:227,1,43.75,12|2,0:0|0:0,0:0:0:0:
278,165,136309,5,6,0:3:0:0:
278,165,136402,1,8,0:3:0:0:
278,165,136496,2,0,L|220:164,1,43.75,4|2,0:3|0:0,0:0:0:0:
165,131,136684,5,8,0:3:0:0:
165,131,136777,1,2,0:0:0:0:
165,131,136871,2,0,L|106:129,1,43.75,4|0,0:1|0:0,0:0:0:0:
47,156,137059,6,0,P|45:183|45:210,3,43.75,4|2|4|2,0:3|0:3|0:1|0:0,0:0:0:0:
24,144,137434,2,0,P|20:101|28:46,1,87.5,4|8,0:1|0:3,0:0:0:0:
25,56,137715,1,2,0:3:0:0:
25,56,137809,1,4,0:0:0:0:
107,27,137996,1,8,0:3:0:0:
107,27,138090,1,4,0:1:0:0:
107,27,138184,1,8,0:0:0:0:
180,61,138371,1,4,0:1:0:0:
289,5,138559,6,0,P|285:40|286:84,1,87.5,4|0,0:3|0:0,0:0:0:0:
293,92,138840,1,8,0:3:0:0:
293,92,138934,2,0,P|293:135|298:179,1,87.5,4|8,0:1|0:3,0:0:0:0:
344,263,139215,1,2,0:3:0:0:
344,263,139309,2,0,P|380:252|429:252,1,87.5,12|4,0:0|0:3,0:0:0:0:
429,252,139590,1,10,0:0:0:0:
429,252,139684,2,0,P|425:212|423:179,1,43.75,8|2,0:3|0:3,0:0:0:0:
459,136,139871,2,0,P|420:137|356:143,1,87.5,4|4,0:1|0:3,0:0:0:0:
231,181,140246,5,4,0:3:0:0:
231,181,140434,2,0,P|170:186|134:172,1,87.5,4|8,0:1|0:3,0:0:0:0:
155,74,140809,2,0,P|112:64|70:72,1,87.5,4|8,0:1|0:3,0:0:0:0:
70,71,141090,1,2,0:3:0:0:
70,71,141184,1,4,0:3:0:0:
229,42,141371,1,4,0:1:0:0:
57,162,141559,6,0,L|72:264,1,87.5,4|0,0:3|0:0,0:0:0:0:
198,258,141934,6,0,B|173:296|173:296|190:361,1,87.5,4|8,0:1|0:3,0:0:0:0:
325,328,142309,6,0,P|316:259|331:222,1,87.5,4|0,0:1|0:0,0:0:0:0:
383,170,142590,5,4,0:3:0:0:
383,170,142684,2,0,P|427:169|491:173,1,87.5,4|8,0:1|0:3,0:0:0:0:
470,171,142965,1,2,0:3:0:0:
470,171,143059,1,2,0:0:0:0:
301,134,143246,5,2,0:0:0:0:
301,134,143434,2,0,P|256:131|196:131,1,87.5,8|2,0:0|0:0,0:0:0:0:
79,93,143809,1,8,0:0:0:0:
76,114,143902,1,0,0:3:0:0:
75,136,143996,1,2,0:3:0:0:
77,158,144090,1,0,0:3:0:0:
79,178,144184,2,0,L|30:180,1,43.75,2|0,0:0|0:0,0:0:0:0:
76,256,144371,2,0,L|27:258,1,43.75,2|0,0:0|0:0,0:0:0:0:
132,317,144559,6,0,B|178:305|164:329|227:322,1,78.7500030040742,4|0,0:3|0:0,0:0:0:0:
209,323,144934,2,0,P|205:266|210:226,1,78.7500030040742,2|0,0:3|0:0,0:0:0:0:
206,244,145309,1,2,0:0:0:0:
300,147,145590,5,2,0:3:0:0:
300,147,145684,2,0,P|301:102|291:35,1,105.000004005432,8|2,0:0|0:3,0:0:0:0:
292,42,146152,1,0,0:3:0:0:
292,42,146246,1,2,0:0:0:0:
379,46,146434,1,8,0:0:0:0:
455,84,146621,1,2,0:0:0:0:
455,84,146715,1,0,0:3:0:0:
455,84,146809,2,0,P|456:119|455:141,1,52.5000020027161,2|2,0:3|0:0,0:0:0:0:
377,228,147184,2,0,P|376:193|377:171,1,52.5000020027161,8|2,0:0|0:0,0:0:0:0:
376,175,147465,1,0,0:3:0:0:
376,175,147559,1,2,0:3:0:0:
376,175,147652,1,2,0:0:0:0:
326,297,147840,5,2,0:3:0:0:
326,297,147934,2,0,P|287:299|256:303,1,52.5000020027161,8|2,0:0|0:3,0:0:0:0:
178,219,148309,2,0,P|216:221|248:225,2,52.5000020027161,2|2|8,0:0|0:3|0:0,0:0:0:0:
118,168,148871,1,2,0:3:0:0:
166,105,149059,2,0,P|163:66|162:24,1,52.5000020027161,2|0,0:0|0:3,0:0:0:0:
162,52,149340,1,2,0:3:0:0:
162,52,149434,2,0,L|203:39,3,26.2500010013581,8|0|2|0,0:0|0:3|0:3|0:3,0:0:0:0:
263,52,149809,1,6,0:0:0:0:
163,149,149996,1,2,0:3:0:0:
163,149,150090,1,2,0:0:0:0:
163,149,150184,1,8,0:0:0:0:
319,201,150371,5,6,0:0:0:0:
252,205,150559,2,0,P|245:164|249:141,1,52.5000020027161,2|2,0:3|0:0,0:0:0:0:
246,153,150840,1,2,0:3:0:0:
246,153,150934,2,0,P|249:123|246:93,1,52.5000020027161,8|2,0:0|0:0,0:0:0:0:
136,55,151309,2,0,P|133:85|136:115,1,52.5000020027161,0|2,0:0|0:0,0:0:0:0:
134,107,151590,1,2,0:3:0:0:
134,107,151684,1,8,0:0:0:0:
67,144,151871,1,2,0:0:0:0:
190,187,152059,5,2,0:0:0:0:
190,187,152152,1,2,0:3:0:0:
190,187,152246,1,2,0:0:0:0:
259,211,152434,1,8,0:0:0:0:
142,250,152621,1,2,0:0:0:0:
217,289,152809,2,0,L|277:293,1,52.5000020027161,2|2,0:3|0:0,0:0:0:0:
269,292,153090,1,2,0:3:0:0:
269,292,153184,2,0,L|337:280,1,52.5000020027161,8|2,0:0|0:0,0:0:0:0:
388,339,153559,1,2,0:0:0:0:
388,339,153652,1,0,0:3:0:0:
388,339,153746,1,2,0:3:0:0:
449,286,153934,6,0,L|451:229,1,52.5000020027161,8|2,0:0|0:3,0:0:0:0:
368,251,154309,2,0,L|370:304,1,52.5000020027161,2|2,0:0|0:3,0:0:0:0:
285,286,154684,2,0,L|287:229,1,52.5000020027161,8|2,0:0|0:3,0:0:0:0:
204,251,155059,2,0,L|205:298,2,26.2500010013581,2|0|2,0:0|0:3|0:3,0:0:0:0:
130,210,155434,1,8,0:0:0:0:
108,290,155621,1,2,0:0:0:0:
23,248,155809,2,0,P|13:186|18:158,1,78.7500030040742,12|0,0:0|0:0,0:0:0:0:
15,170,156184,2,0,P|54:165|72:167,1,52.5000020027161,2|0,0:0|0:0,0:0:0:0:
12,68,156559,5,4,0:3:0:0:
12,68,156934,6,0,P|56:64|82:64,1,70,4|0,0:3|0:0,0:0:0:0:
193,6,157309,2,0,P|237:9|263:9,1,70,8|2,0:3|0:0,0:0:0:0:
262,9,157590,1,2,0:3:0:0:
262,9,157684,1,8,0:3:0:0:
328,116,157871,1,8,0:0:0:0:
258,95,158059,2,0,P|252:133|257:172,1,70,4|2,0:3|0:0,0:0:0:0:
402,199,158434,2,0,P|408:161|403:122,1,70,8|0,0:3|0:0,0:0:0:0:
414,0,158809,5,4,0:3:0:0:
481,63,158996,1,2,0:3:0:0:
481,63,159090,1,8,0:0:0:0:
481,63,159184,1,4,0:3:0:0:
481,63,159559,6,0,P|436:59|410:59,1,70,4|2,0:3|0:0,0:0:0:0:
300,1,159934,2,0,P|255:4|229:4,1,70,8|2,0:3|0:0,0:0:0:0:
230,4,160215,1,2,0:3:0:0:
230,4,160309,1,4,0:3:0:0:
165,111,160496,1,8,0:0:0:0:
235,90,160684,2,0,P|241:128|236:167,1,70,4|2,0:3|0:0,0:0:0:0:
91,194,161059,2,0,P|85:156|90:117,1,70,8|2,0:3|0:3,0:0:0:0:
25,79,161434,5,8,0:3:0:0:
25,79,161621,1,8,0:0:0:0:
156,65,161809,2,0,P|160:108|163:223,1,140,4|4,0:3|0:3,0:0:0:0:
229,267,162371,1,8,0:0:0:0:
163,204,162559,5,4,0:3:0:0:
163,204,162746,1,8,0:3:0:0:
305,173,162934,2,0,P|267:172|229:178,1,70,4|8,0:3|0:3,0:0:0:0:
385,263,163309,2,0,P|423:264|461:258,1,70,4|8,0:3|0:3,0:0:0:0:
387,106,163684,2,0,P|392:141|391:176,1,70,4|8,0:3|0:3,0:0:0:0:
304,325,164059,2,0,P|299:290|301:256,1,70,4|8,0:3|0:3,0:0:0:0:
233,205,164434,5,4,0:3:0:0:
301,255,164621,1,8,0:3:0:0:
183,275,164809,1,4,0:3:0:0:
168,150,164996,1,8,0:3:0:0:
292,130,165184,1,4,0:3:0:0:
118,217,165371,5,8,0:3:0:0:
65,160,165559,1,4,0:3:0:0:
59,140,165652,1,0,0:3:0:0:
59,118,165746,1,8,0:3:0:0:
67,98,165840,1,0,0:3:0:0:
67,98,165934,2,0,L|59:49,3,35,4|0|8|0,0:3|0:3|0:3|0:3,0:3:0:0:
141,58,166309,5,4,0:3:0:0:
159,48,166402,1,0,0:3:0:0:
179,43,166496,1,8,0:3:0:0:
199,44,166590,1,0,0:3:0:0:
218,51,166684,1,4,0:3:0:0:
234,64,166777,1,0,0:1:0:0:
253,72,166871,1,0,0:1:0:0:
274,73,166965,1,0,0:1:0:0:
294,68,167059,1,4,0:1:0:0:
34,158,168184,6,0,L|-16:161,3,35,2|0|2|0,0:0|0:3|0:3|0:3,0:0:0:0:
57,80,168559,5,4,0:3:0:0:
85,72,168652,1,2,0:3:0:0:
114,76,168746,1,2,0:0:0:0:
139,91,168840,2,0,P|140:112|139:140,1,41.9999987182618,8|2,0:3|0:0,0:0:0:0:
124,246,169121,1,6,0:3:0:0:
124,246,169215,1,2,0:0:0:0:
124,246,169309,2,0,P|198:238|273:239,1,125.999996154785,12|0,0:0|0:0,0:0:0:0:
249,237,169684,2,0,P|247:283|249:338,1,83.9999974365235,2|4,0:0|0:3,0:0:0:0:
426,375,170059,5,2,0:0:0:0:
430,350,170152,1,0,0:3:0:0:
432,324,170246,1,2,0:3:0:0:
430,299,170340,1,0,0:3:0:0:
424,273,170434,1,8,0:3:0:0:
387,191,170621,1,2,0:0:0:0:
387,191,170715,1,2,0:3:0:0:
387,191,170809,5,12,0:0:0:0:
306,200,170996,1,2,0:0:0:0:
135,100,171184,1,2,0:0:0:0:
205,94,171371,1,8,0:0:0:0:
304,48,171559,6,0,P|294:79|298:136,1,83.9999974365235,6|2,0:3|0:3,0:0:0:0:
296,129,171840,1,4,0:3:0:0:
296,129,171934,2,0,P|335:130|392:127,1,83.9999974365235,2|4,0:0|0:3,0:0:0:0:
481,93,172309,1,12,0:0:0:0:
475,208,172496,1,2,0:0:0:0:
475,208,172590,1,2,0:3:0:0:
475,208,172684,2,0,P|477:238|479:257,1,41.9999987182618,8|0,0:3|0:0,0:0:0:0:
422,357,172871,2,0,P|420:327|417:307,1,41.9999987182618,6|0,0:3|0:0,0:0:0:0:
342,282,173059,5,2,0:0:0:0:
314,276,173152,1,0,0:3:0:0:
285,273,173246,1,2,0:3:0:0:
257,273,173340,1,0,0:3:0:0:
228,277,173434,5,4,0:3:0:0:
91,276,173621,1,2,0:0:0:0:
89,134,173809,1,12,0:0:0:0:
226,135,173996,1,2,0:3:0:0:
157,202,174184,1,2,0:0:0:0:
157,202,174277,1,2,0:3:0:0:
157,202,174371,1,2,0:0:0:0:
168,54,174559,5,4,0:3:0:0:
168,54,174746,1,8,0:0:0:0:
168,54,174934,2,0,P|226:53|264:52,1,83.9999974365235,8|2,0:0|0:0,0:0:0:0:
403,98,175309,5,2,0:0:0:0:
403,98,175496,1,8,0:0:0:0:
403,98,175684,2,0,P|345:97|307:96,1,83.9999974365235,8|2,0:0|0:3,0:0:0:0:
168,54,176059,5,2,0:0:0:0:
168,54,176246,1,8,0:0:0:0:
168,54,176434,2,0,P|226:53|264:52,1,83.9999974365235,8|2,0:0|0:3,0:0:0:0:
403,98,176809,5,2,0:3:0:0:
403,98,176996,1,8,0:0:0:0:
482,98,177184,1,8,0:0:0:0:
482,98,177371,1,2,0:0:0:0:
325,130,177559,5,12,0:0:0:0:
324,146,177652,1,0,0:3:0:0:
323,163,177746,1,2,0:3:0:0:
322,180,177840,1,8,0:0:0:0:
322,197,177934,1,2,0:0:0:0:
321,213,178027,1,2,0:3:0:0:
320,230,178121,1,12,0:0:0:0:
320,247,178215,1,2,0:0:0:0:
319,264,178309,1,2,0:3:0:0:
318,281,178402,1,2,0:0:0:0:
318,297,178496,1,12,0:0:0:0:
317,314,178590,1,2,0:3:0:0:
316,333,178684,2,0,L|365:333,3,41.9999987182618,8|2|12|0,0:0|0:0|0:0|0:0,0:0:0:0:
235,360,179059,6,0,P|233:339|233:304,1,41.9999987182618,8|0,0:0|0:0,0:0:0:0:
193,208,179246,2,0,P|194:228|195:264,1,41.9999987182618,0|0,0:3|0:0,0:0:0:0:
143,318,179434,1,8,0:0:0:0:
272,221,179621,1,2,0:0:0:0:
112,137,179809,2,0,L|52:143,3,41.9999987182618,8|0|2|2,0:0|0:3|0:0|0:3,0:0:0:0:
56,131,180184,1,8,0:0:0:0:
48,116,180277,1,2,0:3:0:0:
43,99,180371,1,8,0:0:0:0:
45,82,180465,1,2,0:0:0:0:
54,63,180559,5,6,0:3:0:0:
251,22,180840,5,4,0:3:0:0:
251,22,180934,2,0,L|257:109,1,83.9999974365235,2|6,0:0|0:3,0:0:0:0:
385,179,181309,1,12,0:0:0:0:
385,179,181402,2,0,L|391:92,1,83.9999974365235,4|2,0:3|0:3,0:0:0:0:
390,95,181684,1,2,0:0:0:0:
270,200,181871,1,6,0:3:0:0:
484,255,182059,1,2,0:0:0:0:
498,234,182152,1,8,0:0:0:0:
500,208,182246,1,2,0:3:0:0:
490,184,182340,1,0,0:3:0:0:
490,184,182434,6,0,P|421:187|394:192,1,83.9999974365235,4|2,0:3|0:0,0:0:0:0:
339,154,182715,1,2,0:3:0:0:
339,154,182809,2,0,P|336:85|331:58,1,83.9999974365235,12|2,0:0|0:0,0:0:0:0:
333,70,183090,1,6,0:3:0:0:
333,70,183184,1,2,0:3:0:0:
406,189,183371,1,2,0:0:0:0:
287,253,183559,2,0,P|238:255|157:260,1,125.999996154785,6|8,0:3|0:3,0:0:0:0:
161,259,183934,5,2,0:0:0:0:
228,31,184121,1,4,0:3:0:0:
73,116,184309,1,12,0:0:0:0:
316,175,184496,1,8,0:3:0:0:
316,175,184590,1,8,0:3:0:0:
316,175,184684,1,4,0:3:0:0:
228,31,184871,6,0,P|224:86|230:124,1,83.9999974365235,6|2,0:3|0:3,0:0:0:0:
409,224,185246,2,0,P|413:169|407:131,1,83.9999974365235,8|2,0:3|0:0,0:0:0:0:
244,199,185621,1,2,0:0:0:0:
244,199,185715,1,2,0:3:0:0:
244,199,185809,2,0,P|189:203|151:197,1,83.9999974365235,6|2,0:3|0:3,0:0:0:0:
389,67,186184,2,0,P|444:63|482:69,1,83.9999974365235,2|8,0:0|0:0,0:0:0:0:
317,17,186559,5,4,0:3:0:0:
317,17,186746,1,8,0:0:0:0:
317,17,186934,2,0,L|306:105,1,83.9999974365235,8|2,0:0|0:0,0:0:0:0:
509,47,187309,1,2,0:0:0:0:
509,47,187496,1,8,0:0:0:0:
509,47,187684,2,0,L|498:135,1,83.9999974365235,8|2,0:0|0:0,0:0:0:0:
235,333,188059,5,2,0:3:0:0:
235,333,188246,1,8,0:0:0:0:
235,333,188434,2,0,L|224:245,1,83.9999974365235,8|2,0:0|0:0,0:0:0:0:
427,303,188809,1,2,0:3:0:0:
427,303,188996,1,8,0:0:0:0:
427,303,189184,2,0,L|416:215,1,83.9999974365235,8|2,0:0|0:0,0:0:0:0:
475,153,189559,5,4,0:1:0:0:
332,295,189934,1,2,0:0:0:0:
165,180,190309,1,2,0:3:0:0:
165,180,190590,5,2,0:0:0:0:
165,180,190871,5,2,0:3:0:0:
305,35,191246,5,2,0:3:0:0:
289,134,191434,1,2,0:0:0:0:
138,47,191809,6,0,L|92:53,2,41.9999987182618,2|2|2,0:0|0:3|0:0,0:0:0:0:
42,146,192184,5,2,0:0:0:0:
109,190,192371,1,2,0:0:0:0:
109,190,192465,1,2,0:3:0:0:
109,190,192559,2,2,L|116:287,1,83.9999974365235,6|2,0:3|0:0,0:1:0:0:
156,120,192934,5,8,0:0:0:0:
269,313,193121,1,2,0:0:0:0:
115,273,193309,1,12,0:0:0:0:
310,160,193496,1,2,0:3:0:0:
359,236,193684,6,2,L|457:238,1,83.9999974365235,8|4,0:0|0:0,0:1:0:0:
442,237,193965,1,2,0:3:0:0:
442,237,194059,2,0,P|444:288|441:334,1,83.9999974365235,2|4,0:0|0:0,0:0:0:0:
256,384,194434,2,2,P|254:333|257:287,1,83.9999974365235,2|2,0:0|0:0,0:1:0:0:
255,300,194715,1,2,0:3:0:0:
255,300,194809,1,12,0:0:0:0:
255,300,195090,5,4,0:3:0:0:
255,300,195184,2,2,L|166:296,1,83.9999974365235,2|8,0:0|0:3,0:1:0:0:
286,126,195559,2,2,L|191:122,1,83.9999974365235,6|0,0:3|0:0,0:1:0:0:
441,82,195934,5,8,0:0:0:0:
286,126,196121,1,2,0:3:0:0:
481,239,196309,1,12,0:0:0:0:
327,279,196496,1,2,0:0:0:0:
384,188,196684,6,2,P|379:166|384:71,1,83.9999974365235,8|6,0:0|0:3,0:1:0:0:
377,104,196965,1,2,0:3:0:0:
377,104,197059,2,0,P|325:101|279:104,1,83.9999974365235,2|4,0:0|0:0,0:0:0:0:
211,10,197434,2,2,P|206:47|207:99,1,83.9999974365235,2|2,0:0|0:0,0:1:0:0:
206,93,197715,1,2,0:3:0:0:
206,93,197809,1,12,0:0:0:0:
206,93,198090,5,4,0:3:0:0:
206,93,198184,2,2,P|154:96|108:93,1,83.9999974365235,2|8,0:0|0:3,0:1:0:0:
286,196,198559,2,2,P|288:145|285:99,1,83.9999974365235,6|2,0:3|0:0,0:1:0:0:
246,266,198934,5,8,0:0:0:0:
399,307,199121,1,2,0:0:0:0:
286,112,199309,1,12,0:0:0:0:
439,153,199496,1,2,0:3:0:0:
168,216,199684,6,2,P|162:159|170:100,1,83.9999974365235,8|8,0:0|0:3,0:1:0:0:
163,132,199965,1,2,0:3:0:0:
163,132,200059,2,0,P|111:135|65:132,1,83.9999974365235,2|4,0:0|0:0,0:0:0:0:
235,0,200434,2,2,P|229:42|236:110,1,83.9999974365235,2|2,0:0|0:0,0:1:0:0:
230,83,200715,1,2,0:3:0:0:
230,83,200809,1,12,0:0:0:0:
230,83,201090,5,4,0:3:0:0:
230,83,201184,2,2,P|232:134|229:180,1,83.9999974365235,2|8,0:0|0:3,0:1:0:0:
410,197,201559,2,2,P|368:195|326:198,1,83.9999974365235,4|2,0:3|0:0,0:1:0:0:
369,44,201934,5,8,0:0:0:0:
248,245,202121,1,2,0:0:0:0:
410,197,202309,1,12,0:0:0:0:
200,83,202496,1,2,0:3:0:0:
326,198,202684,6,2,P|327:239|324:281,1,83.9999974365235,8|8,0:0|0:3,0:1:0:0:
324,281,202965,1,2,0:3:0:0:
324,281,203059,1,2,0:0:0:0:
445,131,203246,1,2,0:0:0:0:
307,1,203434,1,12,0:0:0:0:
305,21,203527,1,2,0:3:0:0:
303,41,203621,1,2,0:0:0:0:
305,61,203715,1,2,0:3:0:0:
305,61,203809,1,12,0:0:0:0:
215,0,204090,5,2,0:3:0:0:
215,0,204184,1,12,0:0:0:0:
406,24,204371,1,2,0:0:0:0:
406,24,204465,1,2,0:3:0:0:
406,24,204559,1,8,0:0:0:0:
