osu file format v14

[General]
AudioFilename: audio.mp3
AudioLeadIn: 0
PreviewTime: 120149
Countdown: 0
SampleSet: Soft
StackLeniency: 0.3
Mode: 0
LetterboxInBreaks: 0
EpilepsyWarning: 1
WidescreenStoryboard: 1

[Editor]
Bookmarks: 12618,24618,48618,60618,96618,120618,132618,144618,168618,180618,192618,204618
DistanceSpacing: 3.3
BeatDivisor: 8
GridSize: 32
TimelineZoom: 2.2

[Metadata]
Title:CANDYYYLAND feat. LIZ (Pa's Lam System Remix)
TitleUnicode:CAND¥¥¥LAND feat. LIZ (Pa's Lam System Remix)
Artist:tofubeats
ArtistUnicode:tofubeats
Creator:ProfessionalBox
Version:fanzhen's Extra
Source:
Tags:future bass candy land candyland collab probox winber1 handsome hehe sing toybot nathan sukinathan wolves fanzhen fanzhen0019 plaudible hobbes2 Kibbleru Doormat -Tochi electronic english Izzywing vikala
BeatmapID:1435452
BeatmapSetID:663519

[Difficulty]
HPDrainRate:5
CircleSize:4.3
OverallDifficulty:8.4
ApproachRate:9.3
SliderMultiplier:2.07999990463257
SliderTickRate:1

[Events]
//Background and Video events
0,0,"Candyyyland BG.jpg",0,0
//Break Periods
2,72823,80403
//Storyboard Layer 0 (Background)
Sprite,Background,Centre,"Candyyyland BG.jpg",320,240
Sprite,Background,Centre,"sb\blank.jpg",320,240 S,0,72618,,0.3968219 M,0,72618,74257,320,240,319.2986,239.2986 F,0,72993,,1 F,0,72993,84993,1
Sprite,Background,Centre,"sb\blank.jpg",320,240 F,0,-4257,-3507,0,1 M,0,-3507,,320,240 S,0,-3507,,0.3968218 F,0,-3507,618,1 F,0,618,6618,1
Sprite,Background,Centre,"Candyyyland BG.jpg",320,240 M,0,618,,320,240 S,0,618,,0.396822 F,0,618,6618,0,1 F,0,6618,72618,1 F,0,72618,73368,1,0 F,0,73368,84618,0 F,0,84618,84993,0,1 F,0,84993,216524,1,0.9973333 F,0,216524,218118,0.9973333,0
Sprite,Background,Centre,"sb\blank.jpg",320,240 M,0,44868,,320,240 S,0,44868,,0.3968219 F,0,44868,47868,0,1 F,0,47868,48993,1 F,0,48993,49368,1,0 F,0,72618,73086,0.5084932,0 F,0,116493,119493,0,1 F,0,119493,120618,1 F,0,120618,120993,1,0 F,0,164493,167493,0,1 F,0,164493,167493,0,1 F,0,167493,168618,1 F,0,167493,168618,1 F,0,168618,168993,1,0 F,0,168618,168993,1,0
Sprite,Background,Centre,"sb\vig2.png",320,240 V,0,618,,0.4108494,0.4669588 F,0,618,1368,0,1 M,0,618,74118,320,240,320,240.7014 F,0,1368,216618,1,0.9986666 F,0,216618,218118,0.9986666,0
//Storyboard Layer 1 (Fail)
//Storyboard Layer 2 (Pass)
//Storyboard Layer 3 (Foreground)
Sprite,Foreground,Centre,"sb\tochi.png",320,240 M,0,-3507,,320,240 F,0,-3507,-3132,0,1 F,0,-3132,243,1 S,0,243,,0.6 F,0,243,618,1,0
Sprite,Foreground,Centre,"sb\blank.jpg",320,240 M,0,618,,320,240 S,0,618,,0.396822 P,0,618,,A F,0,618,2118,0.5084932,0 F,0,48618,48993,0,0.1753423 F,0,48993,49368,0.5084932,0 F,0,54993,55368,0.5084932,0 F,0,60993,61368,0.5084932,0 F,0,66993,67368,0.5084932,0 F,0,84618,84993,0.5084932,0 F,0,120618,120993,0.5084932,0 F,0,123618,123993,0.5084932,0 F,0,126618,126993,0.5084932,0 F,0,129618,129993,0.5084932,0 F,0,132618,132993,0.5084932,0 F,0,135618,135993,0.5084932,0 F,0,138618,138993,0.5084932,0 F,0,141618,141993,0.5084932,0 F,0,144618,144993,0.5084932,0 F,0,168618,168993,0.5084932,0 F,0,171618,171993,0.5084932,0 F,0,174618,174993,0.5084932,0 F,0,180899,181274,0.5084932,0 F,0,183618,183993,0.5084932,0 F,0,186618,186993,0.5084932,0 F,0,189618,189993,0.5084932,0 F,0,192618,192993,0.5084932,0 F,0,195618,195993,0.5084932,0 F,0,198618,198993,0.5084932,0 F,0,201618,201993,0.5084932,0 F,0,204618,204993,0.5084932,0
Sprite,Foreground,Centre,"sb\r.png",320,240 V,0,618,,1.45589,0.4389043 M,1,618,993,320,398,320,458 F,0,618,993,0,0.4 C,0,993,12243,0,0,0 M,0,993,72243,320,458 F,0,993,72243,0.4 M,1,72243,72618,320,458,320,518 F,0,72243,72618,0.4,0 S,0,84618,,0.5090413 V,0,84618,,1.45589,0.4389043 M,1,84618,84993,320,398,320,458 F,0,84618,84993,0,0.4 M,0,84993,216243,320,458 F,0,84993,216243,0.4 M,1,216243,216617,320,458,320,518 F,0,216243,216617,0.4,0
Sprite,Foreground,Centre,"sb\nametag_fanzhen0019.png",320,240 S,0,618,,0.5090413 M,1,618,993,320,398,320,458 F,0,618,993,0,1 M,0,993,72243,320,458 F,0,993,72243,1 M,1,72243,72618,320,458,320,518 F,0,72243,72618,1,0 S,0,84618,,0.5090413 M,1,84618,84993,320,398,320,458 F,0,84618,84993,0,1 M,0,84993,216243,320,458 F,0,84993,216243,1 M,1,216243,216617,320,458,320,518 F,0,216243,216617,1,0
Sprite,Foreground,Centre,"sb\break_credits\song_artist.png",320,240 M,1,73743,74118,-127.2993,111.6493,320,111.6493 F,0,73743,74118,0,1 S,0,74118,,0.5 M,0,74118,77118,320,111.6493,319.9769,111.6493 F,0,74118,77118,1 M,2,77118,77493,319.9769,111.6493,766.0482,111.6493 F,0,77118,77493,1,0
Sprite,Foreground,Centre,"sb\break_credits\song_title.png",320,240 M,1,73743,74118,810.9589,156.537,320,156.537 F,0,73743,74118,0,1 S,0,74118,,0.5 M,0,74118,77118,320,156.537 F,0,74118,77118,1 M,2,77118,77493,320,156.537,-171.6603,156.537 F,0,77118,77493,1,0
Sprite,Foreground,Centre,"sb\break_credits\diff_credits8.png",320,240 M,1,77118,77493,-155.5288,326.2685,320,326.2685 F,0,77118,77493,0,1 S,0,77493,,0.5 M,0,77493,80118,320,326.2685 F,0,77493,80118,1 M,2,80118,80493,320,326.2685,794.126,326.2685 F,0,80118,80493,1,0
Sprite,Foreground,Centre,"sb\break_credits\sb_credits.png",320,240 M,1,77118,77493,799.0356,378.1699,320,378.1699 F,0,77118,77493,0,1 S,0,77493,,0.5 M,0,77493,80118,320,378.1699 F,0,77493,80118,1 M,2,80118,80493,320,378.1699,-161.1397,378.1699 F,0,80118,80493,1,0
//Storyboard Layer 4 (Overlay)
//Storyboard Sound Samples

[TimingPoints]
623,375,4,2,42,30,1,0
623,-125,4,2,42,30,0,1
1935,-125,4,2,1,10,0,1
2123,-125,4,2,41,30,0,1
3435,-125,4,2,1,10,0,1
3623,-125,4,2,38,30,0,1
4935,-125,4,2,1,10,0,1
5123,-125,4,2,42,30,0,1
5685,-125,4,2,1,10,0,1
5873,-125,4,2,40,30,0,1
6435,-125,4,2,1,10,0,1
6623,-125,4,2,42,30,0,1
7935,-125,4,2,1,10,0,1
8123,-125,4,2,41,30,0,1
9435,-125,4,2,1,10,0,1
9623,-125,4,2,38,30,0,1
10935,-125,4,2,1,10,0,1
11123,-125,4,2,40,40,0,1
11404,-125,4,2,1,10,0,1
11498,-125,4,2,41,40,0,1
11779,-125,4,2,1,10,0,1
11873,-187.500001171875,4,2,42,40,0,0
12154,-187.500001171875,4,2,1,10,0,0
12248,-187.500001171875,4,2,44,40,0,0
12529,-187.500001171875,4,2,1,10,0,0
12623,-125,4,2,1,40,0,0
13279,-125,4,2,1,10,0,0
13373,-125,4,2,1,40,0,0
14029,-125,4,2,1,10,0,0
14123,-125,4,2,1,40,0,0
14404,-125,4,2,1,10,0,0
14498,-125,4,2,41,40,0,0
15154,-125,4,2,1,10,0,0
15248,-125,4,2,42,40,0,0
18154,-125,4,2,1,10,0,0
18248,-125,4,2,1,40,0,0
20404,-125,4,2,1,10,0,0
20498,-125,4,2,41,40,0,0
20966,-125,4,2,1,10,0,0
21060,-125,4,2,1,40,0,0
21154,-125,4,2,1,10,0,0
21248,-125,4,2,42,40,0,0
23873,-125,4,2,2,40,0,0
23966,-125,4,2,1,40,0,0
24623,-100,4,2,3,50,0,0
24716,-100,4,2,1,50,0,0
24998,-100,4,2,42,50,0,0
26123,-100,4,2,41,50,0,0
27623,-100,4,2,38,50,0,0
29123,-100,4,2,42,50,0,0
29873,-100,4,2,41,50,0,0
30623,-100,4,2,42,50,0,0
32123,-100,4,2,41,50,0,0
33623,-100,4,2,38,50,0,0
35123,-100,4,2,42,50,0,0
35873,-100,4,2,41,50,0,0
36623,-80,4,2,1,60,0,0
36998,-74.0740740740741,4,2,1,60,0,0
37279,-74.0740740740741,4,2,1,20,0,0
37373,-68.9655172413793,4,2,1,60,0,0
37748,-64.5161290322581,4,2,1,60,0,0
38029,-64.5161290322581,4,2,1,20,0,0
38123,-80,4,2,1,60,0,0
38404,-80,4,2,1,20,0,0
38498,-74.0740740740741,4,2,1,60,0,0
38779,-74.0740740740741,4,2,1,20,0,0
38873,-68.9655172413793,4,2,1,60,0,0
39248,-64.5161290322581,4,2,1,60,0,0
39623,-80,4,2,1,60,0,0
39998,-74.0740740740741,4,2,1,60,0,0
40373,-68.9655172413793,4,2,1,60,0,0
40748,-64.5161290322581,4,2,1,60,0,0
41123,-80,4,2,1,60,0,0
41498,-74.0740740740741,4,2,1,60,0,0
41873,-68.9655172413793,4,2,1,60,0,0
42248,-64.5161290322581,4,2,1,60,0,0
42623,-133.333333333333,4,2,1,60,0,0
45623,-133.333333333333,4,2,3,60,0,0
46373,-100,4,2,3,70,0,0
47873,-100,4,2,1,30,0,0
48060,-100,4,2,1,40,0,0
48248,-50,4,2,1,50,0,0
48435,-100,4,2,1,60,0,0
48623,-100,4,2,1,30,0,0
48998,-50,4,2,1,60,0,1
49373,-66.6666666666667,4,2,1,20,0,1
49466,-66.6666666666667,4,2,1,30,0,1
49560,-66.6666666666667,4,2,1,40,0,1
49654,-66.6666666666667,4,2,1,50,0,1
49748,-66.6666666666667,4,2,1,60,0,1
50498,-66.6666666666667,4,2,1,50,0,1
50591,-66.6666666666667,4,2,1,40,0,1
50685,-66.6666666666667,4,2,1,30,0,1
50779,-66.6666666666667,4,2,1,20,0,1
50873,-66.6666666666667,4,2,1,60,0,1
52373,-200,4,2,1,60,0,1
52560,-66.6666666666667,4,2,1,40,0,1
52748,-50,4,2,1,40,0,1
53123,-66.6666666666667,4,2,1,60,0,1
53873,-66.6666666666667,4,2,1,30,0,1
54060,-66.6666666666667,4,2,1,40,0,1
54248,-66.6666666666667,4,2,1,50,0,1
54435,-66.6666666666667,4,2,1,60,0,1
54623,-200,4,2,1,40,0,0
54998,-50,4,2,1,60,0,1
55373,-66.6666666666667,4,2,1,20,0,1
55419,-66.6666666666667,4,2,1,10,0,1
55466,-66.6666666666667,4,2,1,30,0,1
55513,-66.6666666666667,4,2,1,10,0,1
55560,-66.6666666666667,4,2,1,40,0,1
55607,-66.6666666666667,4,2,1,10,0,1
55654,-66.6666666666667,4,2,1,50,0,1
55701,-66.6666666666667,4,2,1,10,0,1
55748,-66.6666666666667,4,2,1,60,0,1
60623,-133.333333333333,4,2,1,40,0,0
60998,-50,4,2,1,60,0,1
61373,-66.6666666666667,4,2,1,20,0,1
61466,-66.6666666666667,4,2,1,30,0,1
61560,-66.6666666666667,4,2,1,40,0,1
61654,-66.6666666666667,4,2,1,50,0,1
61748,-66.6666666666667,4,2,1,60,0,1
62498,-100,4,2,1,40,0,1
62873,-66.6666666666667,4,2,1,60,0,1
63998,-66.6666666666667,4,2,1,40,0,1
64373,-66.6666666666667,4,2,1,60,0,1
66623,-100,4,2,1,40,0,0
66998,-50,4,2,1,60,0,1
67373,-100,4,2,1,40,0,1
67748,-66.6666666666667,4,2,1,60,0,1
68498,-66.6666666666667,4,2,1,20,0,1
68544,-66.6666666666667,4,2,1,10,0,1
68591,-66.6666666666667,4,2,1,30,0,1
68638,-66.6666666666667,4,2,1,10,0,1
68685,-66.6666666666667,4,2,1,40,0,1
68732,-66.6666666666667,4,2,1,10,0,1
68779,-66.6666666666667,4,2,1,50,0,1
68826,-66.6666666666667,4,2,1,10,0,1
68873,-66.6666666666667,4,2,1,60,0,1
71123,-66.6666666666667,4,2,1,20,0,1
71498,-66.6666666666667,4,2,1,30,0,1
71873,-66.6666666666667,4,2,1,40,0,1
72248,-66.6666666666667,4,2,1,50,0,1
72623,-66.6666666666667,4,2,1,50,0,0
84248,-66.6666666666667,4,2,1,60,0,0
84623,-100,4,2,4,40,0,0
87623,-100,4,2,4,40,0,0
90248,-200,4,2,4,40,0,0
90623,-100,4,2,4,40,0,0
96060,-90.9090909090909,4,2,4,40,0,0
96248,-83.3333333333333,4,2,4,40,0,0
96435,-76.9230769230769,4,2,4,40,0,0
96623,-100,4,1,4,50,0,0
105623,-86.9565217391304,4,1,4,50,0,0
108623,-100,4,1,3,60,0,0
108716,-100,4,1,4,60,0,0
119873,-100,4,2,1,60,0,0
120623,-100,4,2,3,60,0,1
120716,-100,4,2,1,60,0,1
120998,-62.5,4,2,1,60,0,1
121373,-58.8235294117647,4,2,1,60,0,1
121654,-55.5555555555556,4,2,1,60,0,1
121935,-66.6666666666667,4,2,1,40,0,1
122310,-100,4,2,1,60,0,1
122873,-62.5,4,2,1,60,0,1
123154,-58.8235294117647,4,2,1,60,0,1
123435,-66.6666666666667,4,2,1,60,0,1
123623,-100,4,2,1,60,0,1
123998,-62.5,4,2,1,60,0,1
124373,-58.8235294117647,4,2,1,60,0,1
124654,-55.5555555555556,4,2,1,60,0,1
124935,-66.6666666666667,4,2,1,40,0,1
125310,-100,4,2,1,60,0,1
125873,-66.6666666666667,4,2,1,60,0,1
126060,-100,4,2,1,60,0,1
126248,-66.6666666666667,4,2,1,60,0,1
126435,-100,4,2,1,60,0,1
126623,-66.6666666666667,4,2,1,60,0,1
126998,-50,4,2,1,60,0,1
127373,-47.6190476190476,4,2,1,60,0,1
127654,-50,4,2,1,60,0,1
128310,-66.6666666666667,4,2,1,60,0,1
128873,-50,4,2,1,60,0,1
129623,-66.6666666666667,4,2,1,60,0,1
129998,-50,4,2,1,60,0,1
131123,-66.6666666666667,4,2,1,60,0,1
131779,-100,4,2,1,60,0,0
132248,-50,4,2,1,60,0,0
132623,-57.1428571428571,4,2,3,70,0,1
132716,-57.1428571428571,4,2,1,70,0,1
138623,-57.1428571428571,4,2,3,70,0,1
138716,-57.1428571428571,4,2,1,70,0,1
143123,-86.9565217391304,4,2,1,70,0,0
144154,-86.9565217391304,4,2,1,20,0,0
144248,-86.9565217391304,4,2,1,30,0,0
144341,-86.9565217391304,4,2,1,40,0,0
144435,-86.9565217391304,4,2,1,50,0,0
144529,-86.9565217391304,4,2,4,40,0,0
144623,-81.9672131147541,4,2,3,40,0,0
144810,-86.9565217391304,4,2,4,40,0,0
144998,-86.2068965517241,4,2,4,40,0,0
145373,-90.9090909090909,4,2,4,40,0,0
145748,-96.1538461538461,4,2,4,40,0,0
146123,-102.040816326531,4,2,4,40,0,0
146498,-108.695652173913,4,2,4,40,0,0
146873,-117.647058823529,4,2,4,40,0,0
147248,-125,4,2,4,40,0,0
147998,-116.279069767442,4,2,4,40,0,0
148373,-108.695652173913,4,2,4,40,0,0
148748,-102.040816326531,4,2,4,40,0,0
149123,-96.1538461538461,4,2,4,40,0,0
149498,-90.9090909090909,4,2,4,40,0,0
149873,-86.2068965517241,4,2,4,40,0,0
150248,-81.9672131147541,4,2,4,40,0,0
156248,-66.6666666666667,4,2,4,60,0,0
156623,-66.6666666666667,4,2,3,60,0,0
156716,-100,4,2,1,60,0,0
162248,-133.333333333333,4,2,1,60,0,0
162623,-66.6666666666667,4,2,1,60,0,0
164123,-66.6666666666667,4,2,1,65,0,0
165623,-66.6666666666667,4,2,1,70,0,0
165998,-66.6666666666667,4,2,1,75,0,0
166373,-66.6666666666667,4,2,1,80,0,0
166654,-66.6666666666667,4,2,1,85,0,0
167123,-66.6666666666667,4,2,1,60,0,0
167873,-133.333333333333,4,2,1,30,0,0
168060,-133.333333333333,4,2,1,60,0,0
168623,-66.6666666666667,4,2,3,60,0,0
168716,-66.6666666666667,4,2,1,60,0,0
174623,-100,4,2,4,40,0,0
180623,-133.333333333333,4,2,1,70,0,0
180904,-55.5555555555556,4,2,1,70,0,1
181373,-66.6666666666667,4,2,1,70,0,1
183248,-100,4,2,1,70,0,1
183435,-100,4,2,1,60,0,1
183623,-66.6666666666667,4,2,1,60,0,1
186623,-133.333333333333,4,2,1,60,0,0
191873,-66.6666666666667,4,2,1,60,0,0
192623,-66.6666666666667,4,2,3,60,0,1
192716,-66.6666666666667,4,2,1,60,0,1
192998,-66.6666666666667,4,2,1,70,0,1
193185,-62.5,4,2,1,70,0,1
193373,-66.6666666666667,4,2,1,70,0,1
194873,-66.6666666666667,4,2,1,70,0,1
195248,-66.6666666666667,4,2,1,45,0,1
195998,-66.6666666666667,4,2,1,70,0,1
196560,-62.5,4,2,1,70,0,1
196748,-66.6666666666667,4,2,1,70,0,1
197873,-66.6666666666667,4,2,1,70,0,1
198248,-66.6666666666667,4,2,1,45,0,1
198998,-66.6666666666667,4,2,1,70,0,1
199185,-62.5,4,2,1,70,0,1
199373,-58.8235294117647,4,2,1,70,0,1
199560,-66.6666666666667,4,2,1,70,0,1
199748,-55.5555555555556,4,2,1,70,0,1
199935,-66.6666666666667,4,2,1,70,0,1
200873,-66.6666666666667,4,2,1,70,0,1
201248,-66.6666666666667,4,2,1,45,0,1
201998,-66.6666666666667,4,2,1,70,0,1
202373,-62.5,4,2,1,70,0,1
202748,-66.6666666666667,4,2,1,70,0,1
204248,-100,4,2,1,40,0,0
204998,-100,4,2,1,30,0,0
205373,-100,4,2,1,40,0,0
206123,-100,4,2,1,25,0,0
206873,-100,4,2,1,40,0,0
207623,-100,4,2,1,25,0,0
208373,-100,4,2,1,40,0,0
209123,-100,4,2,1,25,0,0
209873,-100,4,2,1,40,0,0
210623,-100,4,2,1,25,0,0
210998,-133.333333333333,4,2,1,25,0,0
211373,-133.333333333333,4,2,1,40,0,0
212123,-133.333333333333,4,2,1,25,0,0
212873,-133.333333333333,4,2,1,40,0,0
213623,-133.333333333333,4,2,1,25,0,0
214373,-133.333333333333,4,2,1,40,0,0
214935,-166.666666666667,4,2,1,40,0,0
215685,-200,4,2,1,40,0,0
215873,-200,4,2,1,35,0,0
216060,-200,4,2,1,30,0,0
216248,-200,4,2,1,25,0,0
216435,-800,4,2,1,20,0,0
217935,-800,4,2,1,5,0,0

[Colours]
Combo1 : 255,98,197
Combo2 : 74,255,138
Combo3 : 252,67,99
Combo4 : 244,220,83
Combo5 : 204,119,255
Combo6 : 108,219,255
Combo7 : 253,156,68

[HitObjects]
78,234,623,6,0,B|88:206|62:175|62:175|104:200|148:185|201:145|181:56|106:42|106:42|206:37|164:91|269:88|269:88|304:84|319:56|319:56|284:67|249:51,1,623.999971389771,2|0,0:0|0:0,0:0:0:0:
98,114,2123,6,0,B|168:135|162:202|128:247|67:251|36:231|25:185|25:185|80:288|110:196|155:328|155:328|176:323|195:290|191:249|191:249|208:295|236:308,1,623.999971389771,2|0,0:0|0:0,0:0:0:0:
269,231,3623,6,0,B|278:202|307:226|347:194|347:194|436:238|448:337|385:367|319:364|313:252|358:179|358:179|407:154|443:185|443:185|435:137|486:120,1,623.999971389771,2|0,0:0|0:0,0:0:0:0:
388,30,5123,6,0,B|436:57|492:31|492:31|386:24|432:101|325:90,1,291.19998664856,2|0,0:0|0:0,0:0:0:0:
268,150,5873,2,0,B|220:123|164:149|164:149|270:156|224:79|331:90,1,291.19998664856,2|0,0:0|0:0,0:0:0:0:
194,62,6623,6,0,P|157:265|327:89,1,623.999971389771,2|0,0:0|0:0,0:0:0:0:
151,167,8123,6,0,B|134:215|162:261|208:263|208:263|255:267|281:314|271:367|271:367|270:312|321:278|380:293|380:293|383:331|427:346|466:321|456:277|456:277|455:238|404:219,1,623.999971389771,2|0,0:0|0:0,0:0:0:0:
466,156,9623,6,0,B|463:213|412:238|357:226|336:185|336:185|315:247|260:312|155:332|66:272|31:201|60:98,1,623.999971389771,2|0,0:0|0:0,0:0:0:0:
127,40,11123,6,0,B|123:56|134:65|134:65|116:70|116:70|138:102|127:144,1,124.799994277954,2|0,0:0|0:0,0:0:0:0:
55,223,11498,2,0,B|59:207|48:198|48:198|66:193|66:193|44:161|54:118,1,124.799994277954,2|0,0:0|0:0,0:0:0:0:
127,40,11873,6,0,P|147:75|142:124,1,83.1999961853028,2|0,0:0|0:0,0:0:0:0:
55,223,12248,2,0,P|35:188|40:139,1,83.1999961853028,2|0,0:0|0:0,0:0:0:0:
328,136,12623,6,0,L|21:146,1,291.19998664856,0|0,3:0|0:0,0:0:0:0:
40,329,13373,2,0,L|332:320,1,291.19998664856,8|0,0:0|0:0,0:0:0:0:
332,320,14123,6,0,B|275:303|275:303|208:305,1,124.799994277954,0|0,3:0|0:0,0:0:0:0:
347,197,14498,2,0,B|330:254|330:254|332:321,1,124.799994277954,2|0,0:0|0:0,0:0:0:0:
224,181,14873,2,0,B|281:198|281:198|348:196,1,124.799994277954,8|0,0:0|0:0,0:0:0:0:
209,304,15248,2,0,B|226:247|226:247|224:180,1,124.799994277954,2|0,3:2|0:0,0:0:0:0:
460,74,15623,6,0,L|446:364,1,291.19998664856,0|0,3:0|0:0,0:0:0:0:
209,304,16373,2,0,L|223:14,1,291.19998664856,8|0,0:0|0:0,0:0:0:0:
50,133,17123,6,0,L|53:262,1,124.799994277954,0|0,3:0|3:0,0:0:0:0:
296,238,17498,2,0,L|293:113,1,124.799994277954,0|0,0:0|0:0,0:0:0:0:
122,205,17873,6,0,L|125:334,1,124.799994277954,8|0,0:0|0:0,0:0:0:0:
368,310,18248,2,0,L|365:185,1,124.799994277954,0|0,3:0|0:0,0:0:0:0:
461,51,18623,6,0,P|352:23|230:145,1,291.19998664856,2|0,3:2|0:0,0:0:0:0:
64,225,19373,2,0,P|173:197|295:319,1,291.19998664856,8|0,0:0|0:0,0:0:0:0:
416,104,20123,6,0,P|359:95|304:130,1,124.799994277954,0|0,3:0|0:0,0:0:0:0:
109,279,20498,2,0,P|166:270|221:305,1,124.799994277954,2|0,0:0|0:0,0:0:0:0:
394,173,20873,6,0,P|369:173|348:189,1,41.5999980926514,8|0,0:0|0:0,0:0:0:0:
132,343,21060,2,0,P|157:343|178:359,1,41.5999980926514,0|0,0:0|0:0,0:0:0:0:
247,234,21248,2,0,P|228:151|238:62,1,166.399992370606,2|0,3:2|3:0,0:0:0:0:
42,50,21810,5,0,0:0:0:0:
162,173,21998,1,0,0:0:0:0:
42,50,22185,1,0,0:0:0:0:
82,187,22373,6,0,B|80:93|121:135|118:27,1,166.399992370606,8|0,0:0|0:0,0:0:0:0:
162,173,22935,1,0,0:0:0:0:
204,247,23123,6,0,L|201:341,1,83.1999961853028,0|0,0:0|0:0,0:0:0:0:
373,210,23498,2,0,L|279:207,1,83.1999961853028,0|0,0:0|0:0,0:0:0:0:
239,51,23873,6,0,L|242:145,1,83.1999961853028,0|0,0:0|0:0,0:0:0:0:
0,203,24248,2,0,L|94:200,1,83.1999961853028,0|0,0:0|0:0,0:0:0:0:
99,118,24623,5,4,0:1:0:0:
86,20,24810,1,0,0:0:0:0:
99,118,24998,1,10,0:0:0:0:
17,166,25185,1,0,0:0:0:0:
6,154,25279,1,2,0:0:0:0:
4,138,25373,1,0,0:0:0:0:
86,20,25560,1,2,0:0:0:0:
99,118,25748,1,8,0:0:0:0:
341,119,25935,5,0,0:0:0:0:
333,105,26029,1,0,0:0:0:0:
333,89,26123,2,0,P|341:66|367:44,3,51.9999976158143,6|0|0|0,0:0|0:0|0:0|0:0,0:0:0:0:
253,129,26498,2,0,P|261:152|287:174,3,51.9999976158143,10|0|0|2,0:0|0:0|0:0|0:0,0:0:0:0:
441,87,26873,5,2,0:0:0:0:
163,132,27060,1,2,0:0:0:0:
390,213,27248,1,10,0:0:0:0:
252,239,27435,1,2,0:0:0:0:
89,228,27623,5,6,0:0:0:0:
89,248,27716,1,0,0:0:0:0:
86,268,27810,1,0,0:0:0:0:
81,288,27904,1,0,0:0:0:0:
73,307,27998,2,0,P|67:277|45:252,3,51.9999976158143,10|0|0|2,0:0|0:0|0:0|0:0,0:0:0:0:
0,308,28373,5,0,0:0:0:0:
208,271,28560,1,2,0:0:0:0:
0,308,28748,1,10,0:0:0:0:
193,377,28935,5,0,0:0:0:0:
203,358,29029,1,0,0:0:0:0:
219,344,29123,2,0,P|245:327|270:323,3,51.9999976158143,6|0|0|0,0:0|0:0|0:0|0:0,0:0:0:0:
337,278,29498,2,0,P|363:295|388:299,3,51.9999976158143,10|0|0|2,0:0|0:0|0:0|0:0,0:0:0:0:
474,163,29873,5,2,0:0:0:0:
490,267,30060,1,2,0:0:0:0:
310,384,30248,1,10,0:0:0:0:
265,74,30435,1,2,0:0:0:0:
53,27,30623,6,0,P|49:51|53:81,1,51.9999976158143,6|0,0:0|0:0,0:0:0:0:
93,150,30810,2,0,P|97:174|93:204,1,51.9999976158143,0|0,0:0|0:0,0:0:0:0:
50,267,30998,1,10,0:0:0:0:
114,307,31185,5,0,0:0:0:0:
129,305,31279,1,2,0:0:0:0:
50,267,31373,5,0,0:0:0:0:
209,282,31560,1,2,0:0:0:0:
50,267,31748,1,10,0:0:0:0:
129,305,31935,5,0,0:0:0:0:
114,307,32029,1,0,0:0:0:0:
58,351,32123,5,6,0:0:0:0:
82,342,32216,1,0,0:0:0:0:
108,340,32310,1,0,0:0:0:0:
132,347,32404,1,0,0:0:0:0:
201,315,32498,5,10,0:0:0:0:
225,324,32591,1,0,0:0:0:0:
251,326,32685,1,0,0:0:0:0:
275,319,32779,1,2,0:0:0:0:
329,256,32873,5,2,0:0:0:0:
509,26,33060,1,2,0:0:0:0:
403,219,33248,1,10,0:0:0:0:
491,108,33435,1,2,0:0:0:0:
387,52,33623,6,0,P|357:42|326:48,1,51.9999976158143,6|0,0:0|0:0,0:0:0:0:
262,84,33810,2,0,P|232:94|201:88,1,51.9999976158143,0|0,0:0|0:0,0:0:0:0:
134,66,33998,1,10,0:0:0:0:
70,123,34185,5,0,0:0:0:0:
63,148,34279,1,2,0:0:0:0:
134,66,34373,5,0,0:0:0:0:
78,232,34560,1,2,0:0:0:0:
134,66,34748,1,10,0:0:0:0:
63,148,34935,5,0,0:0:0:0:
70,123,35029,1,0,0:0:0:0:
10,84,35123,5,6,0:0:0:0:
19,118,35216,1,0,0:0:0:0:
19,154,35310,1,0,0:0:0:0:
9,189,35404,1,0,0:0:0:0:
78,232,35498,5,10,0:0:0:0:
106,209,35591,1,0,0:0:0:0:
142,203,35685,1,0,0:0:0:0:
177,209,35779,1,2,0:0:0:0:
245,257,35873,5,2,0:0:0:0:
244,335,36060,1,2,0:0:0:0:
320,220,36248,1,10,0:0:0:0:
6,277,36435,1,2,0:0:0:0:
370,317,36623,6,0,P|426:331|491:287,1,129.999994039536,4|0,1:0|0:0,0:0:0:0:
370,317,36998,2,0,P|426:331|491:287,1,140.399994098282,0|0,0:0|0:0,0:0:0:0:
370,317,37373,2,0,P|430:330|495:277,1,150.799997687912,0|0,1:0|0:0,0:0:0:0:
370,317,37748,2,0,P|433:329|501:255,1,161.199993838883,0|0,1:0|0:0,0:0:0:0:
227,119,38123,6,0,P|283:105|348:149,1,129.999994039536,4|0,1:2|0:0,0:0:0:0:
227,119,38498,2,0,P|283:105|348:149,1,140.399994098282,0|0,1:0|0:0,0:0:0:0:
227,119,38873,2,0,P|287:106|352:159,1,150.799997687912,2|2,1:2|0:2,0:0:0:0:
227,119,39248,2,0,P|290:107|358:181,1,161.199993838883,2|2,1:2|0:2,0:0:0:0:
75,339,39623,6,0,L|210:331,1,129.999994039536,4|0,1:2|0:0,0:0:0:0:
75,339,39998,2,0,L|223:330,1,140.399994098282,0|0,1:0|0:0,0:0:0:0:
75,339,40373,2,0,L|227:329,1,150.799997687912,0|0,1:0|0:0,0:0:0:0:
75,339,40748,2,0,L|238:329,1,161.199993838883,0|0,1:2|0:0,0:0:0:0:
49,88,41123,6,0,L|184:96,1,129.999994039536,4|0,1:2|0:0,0:0:0:0:
49,88,41498,2,0,L|197:96,1,140.399994098282,0|0,1:0|0:0,0:0:0:0:
49,88,41873,2,0,L|201:97,1,150.799997687912,2|2,1:2|0:0,0:0:0:0:
49,88,42248,2,0,L|212:97,1,161.199993838883,2|0,1:2|0:0,0:0:0:0:
471,194,42623,5,4,1:0:0:0:
469,194,42810,1,0,1:0:0:0:
468,193,42998,1,4,1:2:0:0:
469,192,43185,1,0,0:0:0:0:
365,217,43373,5,0,1:0:0:0:
359,224,43560,1,0,1:0:0:0:
355,216,43748,1,4,1:2:0:0:
360,209,43935,1,0,0:0:0:0:
232,241,44123,5,0,1:0:0:0:
219,259,44310,1,0,1:0:0:0:
210,239,44498,1,4,1:2:0:0:
223,224,44685,1,0,0:0:0:0:
111,266,44873,5,0,1:0:0:0:
71,323,45060,1,0,1:0:0:0:
41,263,45248,1,4,1:2:0:0:
79,206,45435,1,0,0:0:0:0:
471,190,45623,5,0,1:0:0:0:
469,190,45716,1,2,0:0:0:0:
468,191,45810,1,0,1:0:0:0:
469,192,45904,1,2,0:0:0:0:
365,167,45998,5,0,1:0:0:0:
359,160,46091,1,2,0:0:0:0:
355,168,46185,1,0,1:0:0:0:
360,175,46279,1,2,0:0:0:0:
232,143,46373,5,0,1:0:0:0:
219,125,46467,1,2,0:0:0:0:
210,145,46561,1,0,1:0:0:0:
221,161,46654,1,2,0:0:0:0:
111,118,46748,5,0,1:0:0:0:
71,61,46841,1,2,0:0:0:0:
41,121,46935,1,0,1:0:0:0:
79,178,47029,1,2,0:0:0:0:
122,241,47123,5,0,1:0:0:0:
133,169,47216,1,0,1:0:0:0:
168,105,47310,1,0,1:0:0:0:
229,66,47404,1,0,1:0:0:0:
301,55,47498,1,0,1:0:0:0:
371,70,47591,1,0,1:0:0:0:
433,108,47685,1,0,1:0:0:0:
456,177,47779,1,0,1:0:0:0:
442,99,47873,6,0,L|436:190,2,51.9999976158143,2|0|2,0:0|0:0|0:0,0:0:0:0:
463,22,48248,2,0,P|447:234|459:344,1,311.999985694885,2|0,0:0|0:0,0:0:0:0:
401,379,48623,5,0,3:0:0:0:
405,380,48716,1,8,3:0:0:0:
400,380,48810,1,0,3:0:0:0:
396,378,48904,1,8,3:0:0:0:
349,315,48998,6,0,P|338:159|354:4,1,311.999985694885,4|0,1:2|0:0,0:0:0:0:
269,180,49373,5,2,0:0:0:0:
269,103,49466,1,2,0:0:0:0:
185,213,49560,5,2,0:0:0:0:
178,125,49654,1,2,0:0:0:0:
102,255,49748,5,2,1:2:0:0:
83,149,49841,1,2,0:0:0:0:
23,264,49935,6,0,P|125:245|265:320,1,233.999998197556,4|0,3:2|0:0,0:0:0:0:
23,264,50310,1,0,3:0:0:0:
23,264,50404,1,0,3:0:0:0:
23,264,50498,5,2,0:0:0:0:
58,350,50591,1,2,0:0:0:0:
159,277,50685,5,2,0:0:0:0:
182,345,50779,1,2,0:0:0:0:
301,289,50873,6,0,P|348:354|386:250,1,233.999998197556,0|0,1:0|0:0,0:0:0:0:
501,171,51248,2,0,P|482:76|407:139,1,233.999998197556,4|0,3:2|0:0,0:0:0:0:
493,327,51623,6,0,L|502:160,1,155.99999879837,0|0,3:0|0:0,0:0:0:0:
402,100,51904,2,0,L|393:255,1,155.99999879837,0|0,3:0|0:0,0:0:0:0:
493,327,52185,1,0,3:0:0:0:
493,327,52279,1,0,3:0:0:0:
493,327,52373,6,0,P|470:342|456:341,1,38.9999982118607,0|0,3:0|0:0,0:0:0:0:
360,194,52560,1,2,0:3:0:0:
193,308,52748,6,0,L|9:320,1,155.999992847443,2|0,0:1|0:0,0:0:0:0:
28,310,52935,2,0,L|183:299,1,155.999992847443,2|0,0:1|0:0,0:0:0:0:
250,212,53123,6,0,P|144:200|82:302,1,233.999998197556,4|0,1:2|0:0,0:0:0:0:
315,256,53498,2,0,P|330:220|322:180,1,77.9999993991852,0|0,3:0|0:0,0:0:0:0:
190,163,53685,2,0,P|175:199|183:239,1,77.9999993991852,0|0,3:0|0:0,0:0:0:0:
410,168,53873,5,6,1:0:0:0:
98,170,54060,1,2,0:0:0:0:
502,204,54248,5,2,0:0:0:0:
0,132,54435,1,2,0:0:0:0:
255,292,54623,6,0,P|261:330|256:369,1,77.9999964237214,0|0,3:0|0:0,0:0:0:0:
255,370,54998,6,0,P|236:280|265:47,1,311.999985694885,4|0,1:2|0:0,0:0:0:0:
350,35,55373,5,2,0:0:0:0:
338,116,55466,1,2,0:0:0:0:
173,97,55560,1,2,0:0:0:0:
176,16,55653,1,2,0:0:0:0:
259,63,55748,1,4,1:2:0:0:
259,63,55935,6,0,P|255:128|286:302,1,233.999998197556,0|0,3:0|0:0,0:0:0:0:
152,206,56310,2,0,P|116:214|86:219,1,38.9999996995926,0|0,3:0|0:0,0:0:0:0:
56,137,56404,2,0,P|20:145|-10:150,1,38.9999996995926,0|0,3:0|0:0,0:0:0:0:
126,54,56498,2,0,P|132:133|156:214,1,155.99999879837,0|0,0:0|0:0,0:0:0:0:
12,371,56873,6,0,P|60:305|205:319,1,233.999998197556,4|0,1:2|0:0,0:0:0:0:
259,208,57248,2,0,P|368:184|446:264,1,233.999998197556,0|0,3:0|0:0,0:0:0:0:
465,353,57623,6,0,L|375:359,1,77.9999993991852,2|0,2:1|0:0,0:0:0:0:
294,367,57810,2,0,L|246:371,1,38.9999996995926,2|0,2:1|0:0,0:0:0:0:
294,367,57904,2,0,L|245:365,1,38.9999996995926,2|0,2:1|0:0,0:0:0:0:
294,367,57998,6,0,L|211:352,1,77.9999993991852,6|0,3:2|0:0,0:0:0:0:
134,338,58185,2,0,L|51:323,1,77.9999993991852,6|0,3:2|0:0,0:0:0:0:
13,243,58373,6,0,L|111:231,1,77.9999993991852,2|0,2:1|0:0,0:0:0:0:
202,219,58560,2,0,L|300:207,1,77.9999993991852,2|0,1:0|0:0,0:0:0:0:
424,131,58748,2,0,L|166:108,1,233.999998197556,4|0,3:2|0:0,0:0:0:0:
14,45,59123,6,0,P|17:121|23:189,1,116.999999098778,6|0,3:2|0:0,0:0:0:0:
33,167,59310,2,0,P|28:108|26:50,1,116.999999098778,2|0,0:0|0:0,0:0:0:0:
113,132,59498,6,0,P|116:208|122:276,1,116.999999098778,6|0,3:2|0:0,0:0:0:0:
132,254,59685,2,0,P|127:195|125:137,1,116.999999098778,2|0,0:0|0:0,0:0:0:0:
229,197,59873,6,0,P|232:273|238:341,1,116.999999098778,2|0,1:0|0:0,0:0:0:0:
241,202,60060,2,0,P|244:278|250:346,1,116.999999098778,2|0,1:0|0:0,0:0:0:0:
261,325,60248,2,0,B|254:265|254:210|254:210|310:223|371:248,1,233.999998197556,4|0,0:0|0:0,0:0:0:0:
431,152,60623,6,0,P|431:110|397:148,1,116.999999098778,2|2,3:2|0:0,0:0:0:0:
505,107,60998,6,0,P|382:44|334:174,1,311.999985694885,4|0,1:2|0:0,0:0:0:0:
319,0,61373,5,2,0:0:0:0:
264,55,61466,1,2,0:0:0:0:
250,132,61560,1,2,0:0:0:0:
265,208,61654,1,2,0:0:0:0:
315,267,61748,1,0,1:0:0:0:
141,210,61935,6,0,P|85:207|-19:344,1,233.999998197556,4|0,3:2|0:0,0:0:0:0:
120,278,62310,2,0,P|81:282|55:324,1,77.9999993991852,4|0,3:2|0:0,0:0:0:0:
192,261,62498,5,0,3:0:0:0:
435,272,62685,1,0,0:0:0:0:
171,333,62873,6,0,B|305:337|268:263|388:263,1,233.999998197556,4|0,1:2|0:0,0:0:0:0:
235,161,63248,2,0,B|352:183|302:249|434:271,1,233.999998197556,4|0,3:2|0:0,0:0:0:0:
512,384,63623,6,0,L|505:303,1,77.9999993991852,0|0,3:0|0:0,0:0:0:0:
498,229,63810,2,0,L|491:148,1,77.9999993991852,0|0,3:0|0:0,0:0:0:0:
411,0,63998,6,0,L|400:133,1,116.999999098778,2|0,0:0|0:0,0:0:0:0:
396,193,64185,2,0,L|399:233,1,38.9999996995926,2|0,0:0|0:0,0:0:0:0:
396,193,64279,2,0,L|394:238,1,38.9999996995926,2|0,0:0|0:0,0:0:0:0:
396,193,64373,6,0,L|387:354,1,155.99999879837,4|0,1:2|3:0,0:0:0:0:
323,228,64654,2,0,B|317:306|317:306|249:262,1,155.99999879837,4|0,1:2|3:0,0:0:0:0:
251,263,64935,1,4,1:2:0:0:
167,47,65123,6,0,P|120:27|17:62,1,155.99999879837,0|0,3:0|0:0,0:0:0:0:
275,84,65404,2,0,P|322:104|425:69,1,155.99999879837,0|0,3:0|0:0,0:0:0:0:
167,47,65685,1,2,3:2:0:0:
455,147,65873,2,0,P|494:73|343:53,1,272.999997897148,0|0,1:0|0:0,0:0:0:0:
419,76,66248,6,0,B|354:75|354:75|333:64|333:64|255:62,1,155.99999879837,4|0,0:0|0:0,0:0:0:0:
116,287,66623,6,0,P|110:259|146:287,1,103.999995231629,0|0,3:0|0:0,0:0:0:0:
215,235,66998,6,0,P|176:346|41:263,1,311.999985694885,4|0,1:2|0:0,0:0:0:0:
78,48,67373,6,0,B|111:35|111:35|138:50|138:50|166:38|166:38|192:56|192:56|226:42,1,155.999992847443,0|0,3:0|0:0,0:0:0:0:
316,48,67748,1,0,1:0:0:0:
22,142,67935,6,0,B|47:120|78:121|85:174|139:180|163:119|201:115|235:131|237:163,1,233.999998197556,4|0,1:2|3:0,0:0:0:0:
372,170,68310,1,0,3:0:0:0:
372,170,68404,1,0,0:0:0:0:
433,218,68498,6,0,P|444:217|430:214,1,38.9999996995926,2|0,0:0|0:0,0:0:0:0:
416,103,68591,2,0,P|415:92|412:106,1,38.9999996995926,2|0,0:0|0:0,0:0:0:0:
310,124,68685,2,0,P|299:125|313:128,1,38.9999996995926,2|0,2:0|2:0,0:0:0:0:
327,239,68779,2,0,P|328:250|331:236,1,38.9999996995926,2|0,0:0|0:0,0:0:0:0:
433,218,68873,6,0,P|404:144|294:218,1,233.999998197556,4|0,1:2|0:0,0:0:0:0:
239,299,69248,2,0,P|157:233|98:319,1,233.999998197556,8|0,3:0|0:0,0:0:0:0:
12,312,69623,6,0,L|180:303,1,155.99999879837,0|0,3:0|0:0,0:0:0:0:
469,283,69904,2,0,L|313:291,1,155.99999879837,0|0,3:0|0:0,0:0:0:0:
239,299,70185,1,0,3:0:0:0:
55,96,70373,6,0,P|42:71|43:22,7,77.9999993991852,4|0|2|0|2|0|0|0,1:0|0:0|0:0|0:0|0:0|0:0|0:0|0:0,0:0:0:0:
2,68,71123,6,0,B|50:37|95:31|128:30|148:103|217:132|264:97|294:72|294:72|341:34|380:30|423:44|418:109|435:156|508:155|551:84|507:42,2,623.999995193482,2|2|0,0:0|0:0|3:0,0:0:0:0:
256,192,84248,5,2,0:0:0:0:
19,85,84623,6,0,B|48:38|85:58|98:97|98:97|111:134|161:149|180:136|208:116|224:78|212:51|237:5|307:17|335:29|338:77,2,415.999980926514,4|2|0,0:0|1:2|0:0,0:0:0:0:
26,293,86498,6,0,B|102:293|53:228|99:187|181:294|124:342,1,207.999990463257,2|2,1:2|1:2,0:0:0:0:
408,200,87248,5,2,1:2:0:0:
408,200,87341,1,2,1:2:0:0:
408,200,87435,1,2,1:2:0:0:
408,200,87529,1,2,1:2:0:0:
408,200,87623,6,0,B|452:211|519:201|476:178,1,103.999995231629,2|2,0:2|1:2,0:0:0:0:
282,239,87998,2,0,B|250:271|225:334|267:308,1,103.999995231629,2|2,1:2|1:2,0:0:0:0:
319,113,88373,2,0,B|306:69|264:16|265:65,1,103.999995231629,2|2,1:2|1:2,0:0:0:0:
333,182,88748,1,2,1:2:0:0:
2,260,89123,6,0,B|54:248|59:291|107:273|101:241,1,103.999995231629,2|2,1:2|1:2,0:0:0:0:
211,356,89498,2,0,B|220:341|172:323|167:366|115:354,1,103.999995231629,2|2,1:2|1:2,0:0:0:0:
290,290,89873,2,0,B|275:343|338:363|392:332|365:299|391:270|433:284,1,181.99999165535,2|0,0:2|0:0,0:0:0:0:
481,319,90248,6,0,P|495:283|475:243,1,77.9999964237214,0|0,1:0|0:0,0:0:0:0:
422,156,90623,6,0,P|388:169|345:123,1,103.999995231629,2|2,1:2|1:2,0:0:0:0:
422,157,90998,2,0,P|359:201|345:125,1,181.99999165535,4|0,1:2|0:0,0:0:0:0:
226,63,91373,6,0,P|192:50|149:96,1,103.999995231629,2|2,1:2|1:2,0:0:0:0:
226,63,91748,2,0,P|162:19|154:98,1,181.99999165535,4|0,1:2|0:0,0:0:0:0:
39,198,92123,6,0,P|73:185|116:231,1,103.999995231629,2|2,1:2|1:2,0:0:0:0:
39,197,92498,2,0,P|101:152|115:228,1,181.99999165535,4|0,1:2|0:0,0:0:0:0:
215,301,92873,6,0,P|249:314|292:268,1,103.999995231629,2|2,1:2|1:2,0:0:0:0:
214,302,93248,2,0,P|276:346|290:270,1,181.99999165535,6|0,1:2|0:0,0:0:0:0:
395,217,93623,6,0,P|384:189|421:127,1,103.999995231629,2|2,1:2|1:2,0:0:0:0:
395,217,93998,2,0,P|426:178|417:128,1,103.999995231629,2|2,1:2|1:2,0:0:0:0:
395,217,94373,2,0,P|384:189|421:127,1,103.999995231629,2|2,1:2|1:2,0:0:0:0:
395,217,94748,2,0,P|344:157|417:128,1,181.99999165535,6|0,1:2|0:0,0:0:0:0:
231,48,95123,6,0,P|262:86|253:136,1,103.999995231629,2|2,1:2|1:2,0:0:0:0:
231,48,95498,2,0,P|220:76|257:138,1,103.999995231629,2|2,1:2|1:2,0:0:0:0:
231,48,95873,2,0,P|180:107|253:136,1,181.99999165535,0|0,1:0|0:0,0:0:0:0:
312,76,96248,6,0,B|415:52|393:115|496:88,1,187.199985704041,2|0,1:2|1:0,0:0:0:0:
430,34,96623,6,0,P|407:73|419:134,1,103.999995231629,4|8,3:2|0:0,0:0:0:0:
494,88,96904,1,8,0:0:0:0:
494,88,96998,2,0,B|408:70|419:122|324:101,1,155.999992847443,0|0,0:0|0:0,0:0:0:0:
261,167,97373,6,0,P|250:112|209:80,1,103.999995231629,0|8,3:0|0:0,0:0:0:0:
111,96,97654,1,8,0:0:0:0:
111,96,97748,2,0,P|81:143|92:197,1,103.999995231629,0|8,0:0|0:0,0:0:0:0:
37,272,98123,6,0,L|158:282,1,103.999995231629,0|8,3:0|0:0,0:0:0:0:
356,341,98498,2,0,L|235:351,1,103.999995231629,0|8,0:0|0:0,0:0:0:0:
140,280,98873,6,0,L|37:272,1,103.999995231629,0|8,3:0|0:0,0:0:0:0:
252,349,99248,1,0,0:0:0:0:
286,346,99341,1,0,0:0:0:0:
321,343,99435,1,8,0:0:0:0:
356,341,99529,1,0,0:0:0:0:
340,269,99623,6,0,L|445:260,1,103.999995231629,2|8,3:2|0:0,0:0:0:0:
443,260,99904,1,0,0:0:0:0:
443,260,99998,1,2,0:2:0:0:
252,349,100185,1,8,0:0:0:0:
469,373,100373,5,2,3:2:0:0:
386,191,100560,1,8,0:0:0:0:
252,349,100748,2,0,P|196:354|236:298,1,155.999992847443,0|0,0:2|0:0,0:0:0:0:
116,329,101123,6,0,L|-7:314,1,103.999995231629,2|8,3:2|0:0,0:0:0:0:
12,316,101404,1,0,0:0:0:0:
12,316,101498,1,2,0:2:0:0:
232,296,101685,1,8,0:0:0:0:
107,369,101873,6,0,B|91:308|93:231|93:231|115:214,1,155.999992847443,2|8,3:2|0:0,0:0:0:0:
185,232,102248,2,0,P|181:191|129:146,1,103.999995231629,2|8,0:2|0:0,0:0:0:0:
137,148,102529,1,0,0:0:0:0:
137,148,102623,5,4,3:2:0:0:
241,142,102810,1,8,0:0:0:0:
345,137,102998,2,0,L|457:130,1,103.999995231629,0|8,0:0|0:0,0:0:0:0:
137,148,103373,5,0,3:0:0:0:
241,142,103560,1,8,0:0:0:0:
293,140,103654,1,8,0:0:0:0:
345,137,103748,2,0,L|457:130,1,103.999995231629,0|8,0:0|0:0,0:0:0:0:
493,44,104123,5,0,3:0:0:0:
306,34,104310,1,8,0:0:0:0:
212,31,104404,1,8,0:0:0:0:
118,25,104498,2,0,L|6:18,1,103.999995231629,0|8,0:0|0:0,0:0:0:0:
493,44,104873,5,0,3:0:0:0:
400,40,104966,1,0,0:0:0:0:
212,31,105154,1,8,0:0:0:0:
118,25,105248,2,0,L|6:18,1,103.999995231629,0|8,0:0|0:0,0:0:0:0:
439,296,105623,6,0,P|472:260|454:190,1,119.599996797562,0|8,3:0|0:0,0:0:0:0:
397,161,105904,1,0,0:0:0:0:
326,171,105998,2,0,P|293:207|311:277,1,119.599996797562,0|8,0:0|0:0,0:0:0:0:
368,306,106279,1,0,0:0:0:0:
439,296,106373,6,0,B|479:246|479:246|458:193,1,119.599996797562,0|8,3:0|0:0,0:0:0:0:
397,161,106654,1,0,0:0:0:0:
326,171,106748,2,0,B|286:221|286:221|307:274,1,119.599996797562,0|0,0:0|0:0,0:0:0:0:
368,306,107029,1,0,0:0:0:0:
382,233,107123,6,0,B|332:167|288:212|292:353|142:323|245:157|176:142|91:147|117:243|37:247|15:195|41:129,1,418.599988791466,0|0,3:0|0:0,0:0:0:0:
69,79,107873,5,0,0:0:0:0:
69,79,107966,1,0,0:0:0:0:
69,79,108060,1,0,0:0:0:0:
177,340,108248,1,0,0:0:0:0:
372,130,108435,1,0,0:0:0:0:
493,47,108623,6,0,L|389:43,1,103.999995231629,6|0,1:0|0:0,0:0:0:0:
285,39,108904,2,0,L|181:35,1,103.999995231629,2|0,0:1|0:0,0:0:0:0:
77,31,109185,1,6,0:1:0:0:
77,31,109373,6,0,L|180:34,1,103.999995231629,2|0,0:0|0:0,0:0:0:0:
285,39,109654,2,0,L|388:42,1,103.999995231629,2|0,0:0|0:0,0:0:0:0:
492,46,109935,2,0,L|388:42,1,103.999995231629,6|2,0:0|0:0,0:0:0:0:
285,39,110216,2,0,L|181:35,1,103.999995231629,0|2,0:0|0:0,0:0:0:0:
77,31,110498,5,0,0:0:0:0:
28,139,110685,1,6,0:0:0:0:
236,146,110873,2,0,L|339:149,1,103.999995231629,2|0,0:0|0:0,0:0:0:0:
443,153,111154,2,0,L|339:149,1,103.999995231629,2|0,0:0|0:0,0:0:0:0:
236,146,111435,1,6,0:0:0:0:
236,146,111529,1,0,0:0:0:0:
22,319,111623,6,0,L|125:313,1,103.999995231629,2|2,0:0|0:0,0:0:0:0:
228,307,111904,2,0,L|331:301,1,103.999995231629,0|0,0:0|0:0,0:0:0:0:
436,295,112185,1,2,0:0:0:0:
436,295,112373,6,0,L|332:300,1,103.999995231629,2|2,0:0|0:0,0:0:0:0:
229,307,112654,2,0,L|125:312,1,103.999995231629,0|0,0:0|0:0,0:0:0:0:
69,224,112935,6,0,L|172:218,1,103.999995231629,2|2,0:2|0:0,0:0:0:0:
276,212,113216,2,0,L|379:206,1,103.999995231629,0|0,0:0|0:0,0:0:0:0:
484,200,113498,1,2,0:0:0:0:
484,200,113685,1,2,0:0:0:0:
483,200,113873,6,0,L|379:205,1,103.999995231629,6|0,0:0|0:0,0:0:0:0:
276,212,114154,2,0,L|172:217,1,103.999995231629,2|0,0:0|0:0,0:0:0:0:
69,224,114435,1,2,0:0:0:0:
11,40,114623,6,0,L|114:47,1,103.999995231629,2|2,0:0|0:0,0:0:0:0:
219,55,114904,2,0,L|116:48,1,103.999995231629,0|0,0:0|0:0,0:0:0:0:
11,40,115185,1,2,0:2:0:0:
219,55,115373,6,0,L|322:62,1,103.999995231629,2|2,0:0|0:0,0:0:0:0:
426,70,115654,2,0,L|322:62,1,103.999995231629,0|0,0:0|0:0,0:0:0:0:
219,55,115935,2,0,L|115:47,1,103.999995231629,2|2,0:2|0:0,0:0:0:0:
11,40,116216,2,0,L|114:47,1,103.999995231629,0|0,0:0|0:0,0:0:0:0:
219,55,116498,1,6,0:0:0:0:
219,55,116685,1,2,0:2:0:0:
426,70,116873,6,0,L|322:61,1,103.999995231629,2|2,0:0|0:0,0:0:0:0:
449,154,117154,2,0,L|345:145,1,103.999995231629,0|0,0:0|0:0,0:0:0:0:
251,201,117435,1,2,0:2:0:0:
251,201,117623,6,0,P|220:219|256:210,1,103.999995231629,2|0,0:0|0:0,0:0:0:0:
366,178,117904,2,0,P|397:160|361:169,1,103.999995231629,0|0,0:0|0:0,0:0:0:0:
346,266,118185,1,0,0:0:0:0:
368,78,118373,6,0,P|432:94|463:138,1,103.999995231629,0|0,0:0|0:0,0:0:0:0:
247,301,118654,2,0,P|183:285|152:241,1,103.999995231629,0|0,0:0|0:0,0:0:0:0:
143,46,118935,1,0,0:0:0:0:
164,352,119123,6,0,P|101:320|76:98,1,311.999985694885,0|0,0:0|0:0,0:0:0:0:
143,46,119873,5,4,0:3:0:0:
425,322,120060,1,0,0:0:0:0:
425,322,120154,1,0,0:0:0:0:
425,322,120248,2,0,P|453:272|456:339,1,155.999992847443,2|0,0:0|0:0,0:0:0:0:
326,317,120623,6,0,L|165:311,1,155.99999879837,6|0,1:0|0:0,0:0:0:0:
326,317,120998,6,0,L|158:311,1,166.399992370606,2|0,1:0|0:0,0:0:0:0:
326,317,121373,6,0,L|127:309,1,176.799995265961,2|2,1:0|0:0,0:0:0:0:
138,311,121654,2,0,L|337:316,1,187.199985704041,2|0,1:0|0:0,0:0:0:0:
326,317,121935,1,2,1:0:0:0:
326,317,122123,1,0,0:0:0:0:
448,127,122310,5,2,0:1:0:0:
448,127,122498,2,0,L|283:143,1,155.999992847443,2|0,1:0|0:0,0:0:0:0:
283,142,122873,6,0,L|448:128,1,166.399992370606,2|2,1:0|0:0,0:0:0:0:
459,127,123154,2,0,L|272:143,1,176.799995265961,2|2,1:0|0:0,0:0:0:0:
283,142,123435,2,0,B|248:125|248:125|190:138,1,77.9999993991852,0|0,1:0|0:0,0:0:0:0:
46,109,123623,6,0,L|59:277,1,155.999992847443,2|0,1:0|0:0,0:0:0:0:
46,109,123998,6,0,L|58:275,1,166.399992370606,2|0,1:0|0:0,0:0:0:0:
46,109,124373,6,0,L|61:300,1,176.799995265961,2|2,1:0|0:0,0:0:0:0:
46,109,124654,2,0,L|62:307,1,187.199985704041,2|2,1:0|0:0,0:0:0:0:
61,295,124935,1,2,1:0:0:0:
46,109,125123,1,0,0:0:0:0:
194,343,125310,5,2,0:1:0:0:
194,343,125498,2,0,L|205:169,1,155.99999879837,2|0,1:0|0:0,0:0:0:0:
317,119,125873,6,0,L|308:22,1,77.9999993991852,2|0,1:0|0:0,0:0:0:0:
388,133,126060,2,0,L|383:77,1,51.9999976158143,2|0,0:1|1:0,0:0:0:0:
498,293,126248,6,0,L|507:196,1,77.9999993991852,2|0,0:1|0:0,0:0:0:0:
427,307,126435,2,0,L|432:251,1,51.9999976158143,2|0,1:0|0:0,0:0:0:0:
274,144,126623,6,0,P|211:109|64:167,1,233.999998197556,2|0,1:0|0:0,0:0:0:0:
107,241,126998,6,0,P|174:172|250:232,1,207.999990463257,2|0,1:0|0:0,0:0:0:0:
179,245,127279,1,0,0:0:0:0:
101,243,127373,6,0,P|170:168|253:229,1,218.399983321381,2|2,1:0|0:0,0:0:0:0:
267,133,127654,6,0,P|206:105|54:173,1,207.999990463257,2|0,1:0|0:0,0:0:0:0:
76,143,127935,1,2,1:0:0:0:
76,143,128123,1,0,0:0:0:0:
181,317,128310,5,2,0:1:0:0:
181,317,128498,2,0,P|280:372|386:333,1,233.999998197556,2|0,1:0|0:0,0:0:0:0:
51,293,128873,6,0,P|131:320|221:244,1,207.999990463257,2|2,1:0|0:0,0:0:0:0:
358,261,129154,2,0,P|412:344|512:342,1,207.999990463257,2|2,1:0|0:0,0:0:0:0:
294,209,129435,2,0,L|304:101,1,103.999995231629,2|0,1:0|0:0,0:0:0:0:
86,34,129623,6,0,L|106:271,1,233.999998197556,2|0,1:0|0:0,0:0:0:0:
188,247,129998,6,0,L|170:33,1,207.999990463257,2|0,1:0|0:0,0:0:0:0:
352,53,130279,1,0,0:0:0:0:
262,47,130373,6,0,B|170:41|170:41|177:120|177:120|232:123,1,207.999990463257,2|0,1:0|0:0,0:0:0:0:
342,201,130654,2,0,B|434:207|434:207|427:128|427:128|372:125,1,207.999990463257,2|2,0:0|1:2,0:0:0:0:
253,197,130935,1,2,0:0:0:0:
253,197,131123,6,0,B|263:260|344:262|366:210|448:191|509:194|573:276|496:356|432:350|340:286|263:284|252:347,1,545.999995794297,0|8,0:0|0:3,0:0:0:0:
168,294,131873,6,0,P|136:277|174:284,1,103.999995231629,0|2,0:0|0:0,0:0:0:0:
144,107,132154,1,2,0:0:0:0:
35,188,132248,6,0,L|230:178,1,155.999992847443,2|0,0:0|0:0,0:0:0:0:
204,191,132435,2,0,L|48:198,1,155.999992847443,2|0,0:1|0:0,0:0:0:0:
112,247,132623,6,0,B|35:314|35:314|0:320|0:320|35:319|35:319|139:368,1,272.999990086556,6|0,1:0|3:0,0:0:0:0:
245,287,132998,2,0,L|124:304,1,90.9999966955185,4|0,1:2|0:0,0:0:0:0:
245,287,133185,2,0,L|335:274,1,90.9999966955185,0|0,3:0|0:0,0:0:0:0:
463,327,133373,5,2,0:1:0:0:
463,327,133466,2,0,P|494:283|491:234,1,90.9999966955185,0|2,0:0|3:1,0:0:0:0:
311,208,133654,1,0,0:0:0:0:
311,208,133748,2,0,P|312:295|385:344,1,181.999993391037,4|0,1:2|0:0,0:0:0:0:
451,56,134123,6,0,B|407:75|407:75|453:110,1,90.9999966955185,2|2,3:1|0:0,0:0:0:0:
339,40,134310,2,0,B|295:59|295:59|341:94,1,90.9999966955185,2|2,3:1|3:2,0:0:0:0:
229,23,134498,2,0,B|185:42|185:42|231:77,1,90.9999966955185,2|2,1:1|0:0,0:0:0:0:
0,139,134685,2,0,L|159:129,1,136.499995043278,4|0,3:2|0:0,0:0:0:0:
451,56,134873,6,0,B|407:75|407:75|453:110,1,90.9999966955185,2|2,1:0|3:2,0:0:0:0:
339,40,135060,2,0,B|295:59|295:59|341:94,1,90.9999966955185,2|2,3:1|0:0,0:0:0:0:
228,22,135248,2,0,L|92:31,1,136.499995043278,4|0,1:2|0:0,0:0:0:0:
74,41,135435,2,0,L|210:32,1,136.499995043278,0|0,3:0|0:0,0:0:0:0:
248,155,135623,5,2,3:1:0:0:
166,129,135716,1,2,0:1:0:0:
111,190,135810,2,0,P|111:220|192:202,1,136.499995043278,4|0,0:2|0:0,0:0:0:0:
248,155,135998,5,2,1:0:0:0:
166,129,136091,1,2,0:1:0:0:
111,190,136185,2,0,P|111:220|197:211,1,136.499995043278,4|0,3:2|0:0,0:0:0:0:
248,155,136373,5,2,1:1:0:0:
166,129,136466,1,2,3:1:0:0:
111,190,136560,2,0,P|111:220|197:232,1,136.499995043278,4|0,3:2|0:0,0:0:0:0:
248,155,136748,5,2,1:0:0:0:
166,129,136841,1,2,0:1:0:0:
111,190,136935,2,0,P|111:220|201:238,1,136.499995043278,4|0,1:2|0:0,0:0:0:0:
505,269,137123,6,0,B|461:250|461:250|507:215,1,90.9999966955185,2|2,3:1|0:0,0:0:0:0:
393,285,137310,2,0,B|349:266|349:266|395:231,1,90.9999966955185,2|2,3:1|3:2,0:0:0:0:
283,302,137498,2,0,B|239:283|239:283|285:248,1,90.9999966955185,2|2,1:1|0:0,0:0:0:0:
54,207,137685,2,0,L|190:214,1,136.499995043278,4|0,3:2|0:0,0:0:0:0:
505,269,137873,6,0,B|461:250|461:250|507:215,1,90.9999966955185,2|2,1:0|3:2,0:0:0:0:
393,285,138060,2,0,B|349:266|349:266|395:231,1,90.9999966955185,2|2,3:1|0:0,0:0:0:0:
283,302,138248,1,4,1:2:0:0:
54,207,138435,1,0,3:0:0:0:
200,337,138623,6,0,B|121:268|121:268|125:239|125:239|115:267|115:267|3:296,1,272.999990086556,6|0,1:0|3:0,0:0:0:0:
56,353,138998,2,0,B|102:343|102:343|143:378,1,90.9999966955185,4|0,1:2|0:0,0:0:0:0:
181,187,139185,2,0,B|147:158|147:158|101:168,1,90.9999966955185,0|0,3:0|0:0,0:0:0:0:
257,249,139373,5,2,1:0:0:0:
257,249,139466,2,0,P|277:196|263:153,1,90.9999966955185,0|2,0:0|3:1,0:0:0:0:
41,203,139654,1,0,0:0:0:0:
41,203,139748,2,0,P|95:273|183:288,1,181.999993391037,4|0,1:2|0:0,0:0:0:0:
48,100,140123,6,0,B|71:61|71:61|111:91,1,90.9999966955185,2|2,3:1|0:2,0:0:0:0:
194,83,140310,2,0,B|217:44|217:44|257:74,1,90.9999966955185,2|2,3:1|3:2,0:0:0:0:
339,69,140498,2,0,B|362:30|362:30|402:60,1,90.9999966955185,2|2,1:1|0:2,0:0:0:0:
371,151,140685,2,0,B|322:153|322:153|291:141|291:141|225:145,1,136.499995043278,4|0,3:2|0:0,0:0:0:0:
48,100,140873,6,0,B|71:61|71:61|111:91,1,90.9999966955185,2|2,1:1|3:2,0:0:0:0:
194,83,141060,2,0,B|217:44|217:44|257:74,1,90.9999966955185,2|2,3:1|0:2,0:0:0:0:
271,216,141248,2,0,B|222:218|222:218|191:206|191:206|125:210,1,136.499995043278,4|0,1:2|0:0,0:0:0:0:
236,144,141435,2,0,B|290:140|290:140|321:152|321:152|370:150,1,136.499995043278,0|0,3:0|0:0,0:0:0:0:
479,265,141623,5,2,3:1:0:0:
400,227,141716,1,2,0:1:0:0:
346,292,141810,2,0,P|341:341|354:295,1,136.499995043278,4|0,0:2|0:0,0:0:0:0:
479,265,141998,5,2,1:1:0:0:
400,227,142091,1,2,0:1:0:0:
346,292,142185,2,0,P|340:344|354:295,1,136.499995043278,4|0,3:2|0:0,0:0:0:0:
479,265,142373,5,2,1:1:0:0:
400,227,142466,1,0,0:0:0:0:
346,292,142560,2,0,P|340:348|355:295,1,136.499995043278,4|0,3:2|0:0,0:0:0:0:
479,265,142748,5,0,0:0:0:0:
400,227,142841,1,0,0:0:0:0:
346,292,142935,2,0,P|340:352|361:301,1,136.499995043278,4|0,3:2|0:0,0:0:0:0:
472,258,143123,5,0,0:0:0:0:
393,220,143216,1,0,0:0:0:0:
339,285,143310,1,2,0:1:0:0:
260,247,143403,1,0,0:0:0:0:
198,312,143498,1,2,0:1:0:0:
119,274,143591,1,0,0:0:0:0:
54,339,143685,2,0,P|45:365|69:341,1,89.6999975981713,2|0,0:3|0:0,0:0:0:0:
332,280,143873,5,2,0:1:0:0:
253,242,143966,1,0,0:0:0:0:
191,307,144061,1,0,0:0:0:0:
112,269,144154,1,2,0:0:0:0:
47,334,144248,6,0,P|36:302|35:271,1,59.7999983987808,2|2,0:0|0:0,0:0:0:0:
61,200,144435,2,0,P|72:168|73:137,1,59.7999983987808,2|2,0:0|0:0,0:0:0:0:
45,62,144623,6,0,P|106:59|146:11,1,126.879988955292,2|0,3:1|0:0,0:0:0:0:
146,12,144998,2,0,P|109:58|51:64,1,120.63999815033
50,64,145373,2,0,P|105:58|143:17,1,114.399998246002,10|0,0:1|0:0,0:0:0:0:
143,18,145748,2,0,P|108:58|56:66,1,108.159994380737,0|0,1:0|0:0,0:0:0:0:
56,65,146123,2,0,P|105:58|141:22,1,101.919994393891,2|0,3:1|0:0,0:0:0:0:
141,24,146498,2,0,P|108:58|62:67,1,95.6799924011844,2|0,1:0|0:0,0:0:0:0:
62,66,146873,2,0,P|105:58|137:27,1,88.3999976329804
138,27,147248,2,0,P|109:56|69:66,1,83.1999961853028
70,67,147623,6,0,P|111:78|138:181,1,83.1999961853028,2|0,3:1|0:0,0:0:0:0:
138,106,147998,2,0,P|109:77|62:68,1,89.4399972639466,0|8,1:0|0:1,0:0:0:0:
63,67,148373,2,0,P|107:75|146:122,1,95.6799924011844,10|8,0:1|0:1,0:0:0:0:
142,111,148748,2,0,P|109:77|51:70,1,101.919994393891,0|2,1:0|0:1,0:0:0:0:
57,68,149123,2,0,P|107:75|145:120,1,108.159994380737,2|8,3:1|0:1,0:0:0:0:
144,117,149498,2,0,P|109:77|49:71,1,114.399998246002,2|8,1:0|0:1,0:0:0:0:
51,70,149873,2,0,P|107:75|146:123,1,120.63999815033
146,123,150248,2,0,P|109:77|44:73,1,126.879988955292
275,199,150623,6,0,P|335:205|387:167,1,126.879988955292,2|0,3:1|0:0,0:0:0:0:
275,199,150998,2,0,P|335:205|394:169,1,126.879988955292,0|8,1:0|0:1,0:0:0:0:
275,199,151373,2,0,P|335:205|400:174,1,126.879988955292,10|8,0:1|0:1,0:0:0:0:
275,199,151748,2,0,P|335:205|403:182,1,126.879988955292,0|2,1:0|0:1,0:0:0:0:
275,199,152123,2,0,P|335:205|405:191,1,126.879988955292,10|0,3:1|0:0,0:0:0:0:
275,199,152498,2,0,P|335:205|406:199,1,126.879988955292,2|8,1:0|0:1,0:0:0:0:
275,199,152873,2,0,P|335:205|408:207,1,126.879988955292,10|0,3:1|0:1,0:0:0:0:
275,199,153248,2,0,P|335:205|406:213,1,126.879988955292,0|0,0:1|0:1,0:0:0:0:
192,264,153623,6,0,P|128:256|65:250,1,126.879988955292,2|0,3:1|0:0,0:0:0:0:
192,264,153998,2,0,P|128:262|65:255,1,126.879988955292,0|8,1:0|0:1,0:0:0:0:
192,264,154373,2,0,P|128:269|65:263,1,126.879988955292,10|8,0:1|0:1,0:0:0:0:
192,264,154748,2,0,P|129:276|66:270,1,126.879988955292,0|8,1:0|0:1,0:0:0:0:
192,264,155123,2,0,P|132:283|69:277,1,126.879988955292,2|0,3:1|0:0,0:0:0:0:
192,264,155498,2,0,P|134:289|72:284,1,126.879988955292,2|8,1:0|0:1,0:0:0:0:
192,264,155873,2,0,P|138:295|76:290,1,126.879988955292,0|0,3:0|0:0,0:0:0:0:
189,266,156248,2,0,P|138:303|13:219,1,233.999998197556,0|0,1:0|0:0,0:0:0:0:
32,141,156623,6,0,B|79:116|74:40|74:40|97:113|156:115,1,233.999998197556,6|2,1:0|0:2,0:0:0:0:
201,180,156998,1,0,3:2:0:0:
355,193,157185,1,2,0:3:0:0:
201,180,157373,5,2,3:1:0:0:
270,248,157560,2,0,L|276:309,1,51.9999976158143,2|0,0:1|0:0,0:0:0:0:
355,193,157748,2,0,L|375:70,1,103.999995231629,2|2,3:1|0:3,0:0:0:0:
508,65,158123,6,0,L|483:227,1,155.999992847443,2|2,3:2|0:2,0:0:0:0:
407,367,158498,2,0,L|394:264,1,103.999995231629,2|2,3:2|0:3,0:0:0:0:
256,192,158873,12,2,159623,3:1:0:0:
104,210,159998,5,2,3:2:0:0:
204,235,160185,1,2,0:3:0:0:
24,274,160373,5,2,3:1:0:0:
124,299,160560,2,0,L|127:359,1,51.9999976158143,2|0,0:1|0:0,0:0:0:0:
99,106,160748,2,0,L|104:210,1,103.999995231629,2|2,3:1|0:3,0:0:0:0:
284,384,161123,5,2,3:2:0:0:
277,280,161310,1,2,0:2:0:0:
270,175,161498,2,0,L|265:71,1,103.999995231629,2|2,3:2|0:3,0:0:0:0:
256,192,161873,12,0,162529,0:0:0:0:
126,133,162623,5,0,3:0:0:0:
126,133,162810,1,0,3:0:0:0:
126,133,162998,1,0,3:0:0:0:
126,133,163185,1,0,3:0:0:0:
126,133,163373,1,0,3:0:0:0:
126,133,163560,1,0,3:0:0:0:
126,133,163748,1,0,3:0:0:0:
126,133,163935,1,0,3:0:0:0:
126,133,164123,6,0,L|88:159,1,38.9999996995926,0|0,3:0|0:0,0:0:0:0:
126,133,164310,2,0,L|91:163,1,38.9999996995926,0|0,3:0|0:0,0:0:0:0:
126,133,164498,2,0,L|94:167,1,38.9999996995926,0|0,3:0|0:0,0:0:0:0:
126,133,164685,2,0,L|98:170,1,38.9999996995926,0|0,3:0|0:0,0:0:0:0:
126,133,164873,2,0,L|104:175,1,38.9999996995926,0|0,3:0|0:0,0:0:0:0:
126,133,165060,2,0,L|109:177,1,38.9999996995926,0|0,3:0|0:0,0:0:0:0:
126,133,165248,2,0,L|113:178,1,38.9999996995926,0|0,3:0|0:0,0:0:0:0:
126,133,165435,2,0,L|118:179,1,38.9999996995926,0|0,3:0|0:0,0:0:0:0:
126,133,165623,6,0,L|124:175,1,38.9999996995926,0|0,3:0|0:0,0:0:0:0:
126,133,165716,2,0,L|129:175,1,38.9999996995926,0|0,3:0|0:0,0:0:0:0:
203,153,165810,2,0,L|201:195,1,38.9999996995926,0|0,3:0|0:0,0:0:0:0:
203,153,165904,2,0,L|206:197,1,38.9999996995926,0|0,3:0|0:0,0:0:0:0:
278,100,165998,6,0,L|271:57,1,38.9999996995926,0|0,3:0|0:0,0:0:0:0:
278,100,166091,2,0,L|276:58,1,38.9999996995926,0|0,3:0|0:0,0:0:0:0:
355,80,166185,2,0,L|353:38,1,38.9999996995926,0|0,3:0|0:0,0:0:0:0:
355,80,166279,2,0,L|358:37,1,38.9999996995926,0|0,3:0|0:0,0:0:0:0:
422,177,166373,6,0,L|467:182,1,38.9999996995926,0|0,3:0|0:0,0:0:0:0:
415,184,166466,2,0,L|420:139,1,38.9999996995926,0|0,3:0|0:0,0:0:0:0:
425,189,166560,2,0,L|380:184,1,38.9999996995926,0|0,3:0|0:0,0:0:0:0:
432,182,166654,2,0,L|427:227,1,38.9999996995926,0|0,3:0|0:0,0:0:0:0:
304,261,166748,6,0,L|349:266,1,38.9999996995926,0|0,3:0|0:0,0:0:0:0:
242,232,166841,2,0,L|247:187,1,38.9999996995926,0|0,3:0|0:0,0:0:0:0:
206,295,166935,2,0,L|161:290,1,38.9999996995926,0|0,3:0|0:0,0:0:0:0:
270,327,167029,2,0,L|265:372,1,38.9999996995926,0|0,3:0|0:0,0:0:0:0:
255,277,167123,5,4,3:2:0:0:
256,192,167169,12,0,168201,0:0:0:0:
255,277,168248,5,2,0:0:0:0:
195,227,168341,1,2,0:0:0:0:
175,151,168435,1,2,0:0:0:0:
202,77,168529,1,2,0:0:0:0:
275,32,168623,6,0,P|306:38|359:40,3,77.9999993991852,6|0|2|2,1:0|0:0|0:0|3:2,0:0:0:0:
512,94,168998,2,0,P|447:117|356:118,1,155.99999879837,2|2,0:1|3:2,0:0:0:0:
292,181,169279,1,2,0:2:0:0:
292,181,169373,5,2,1:1:0:0:
446,23,169560,1,2,0:1:0:0:
511,228,169748,1,2,0:1:0:0:
1,228,169935,2,0,L|11:139,1,77.9999993991852,0|0,3:0|0:0,0:0:0:0:
159,40,170123,6,0,P|198:38|237:32,3,77.9999993991852,2|2|2|2,0:1|0:2|0:2|0:2,0:0:0:0:
310,77,170497,1,2,3:1:0:0:
337,151,170591,1,2,0:2:0:0:
317,227,170685,1,2,0:2:0:0:
255,277,170779,1,2,0:2:0:0:
180,320,170873,6,0,L|99:323,1,77.9999993991852,2|0,1:1|0:0,0:0:0:0:
302,348,171060,2,0,L|380:346,1,77.9999993991852,0|2,0:0|3:1,0:0:0:0:
482,213,171248,6,0,L|405:216,1,77.9999993991852,0|0,0:0|0:0,0:0:0:0:
9,191,171435,2,0,L|87:189,1,77.9999993991852,2|0,0:1|0:0,0:0:0:0:
479,119,171623,5,2,3:1:0:0:
455,37,171717,1,0,0:0:0:0:
378,0,171811,1,2,0:2:0:0:
296,24,171905,1,0,0:0:0:0:
256,96,171998,2,0,L|255:255,1,155.99999879837,2|2,0:1|3:2,0:0:0:0:
379,187,172279,1,2,0:2:0:0:
379,187,172373,6,0,B|404:156|404:156|347:141,1,77.9999993991852,2|0,1:1|0:0,0:0:0:0:
144,146,172560,2,0,B|108:156|108:156|133:187,1,77.9999993991852,4|4,3:3|3:3,0:0:0:0:
255,368,172748,1,4,3:3:0:0:
255,368,172841,1,0,0:0:0:0:
255,368,172935,6,0,L|255:240,1,116.999999098778,0|0,3:0|0:0,0:0:0:0:
256,96,173123,5,2,0:1:0:0:
216,24,173216,1,2,0:2:0:0:
134,0,173310,1,2,0:2:0:0:
57,37,173404,1,2,0:2:0:0:
33,119,173498,1,2,3:1:0:0:
71,194,173591,1,2,0:2:0:0:
153,219,173685,1,2,0:2:0:0:
227,175,173779,1,2,0:2:0:0:
256,96,173873,5,2,1:1:0:0:
378,0,174060,1,0,0:0:0:0:
479,119,174248,2,0,P|483:150|480:204,3,77.9999993991852,0|0|0|0,0:0|0:0|0:0|0:0,0:0:0:0:
376,289,174623,5,4,0:3:0:0:
376,289,174716,1,0,0:0:0:0:
376,289,174810,1,0,1:0:0:0:
376,289,174904,1,0,0:0:0:0:
376,289,174998,1,0,1:0:0:0:
381,275,175185,5,0,1:0:0:0:
359,293,175279,1,0,0:0:0:0:
385,302,175373,1,0,1:0:0:0:
375,201,175560,1,0,1:0:0:0:
289,266,175748,1,0,1:0:0:0:
131,275,175935,5,0,1:0:0:0:
153,293,176029,1,0,0:0:0:0:
127,302,176123,5,0,1:0:0:0:
117,286,176216,1,0,0:0:0:0:
121,268,176310,1,0,1:0:0:0:
136,257,176404,1,0,0:0:0:0:
154,260,176498,1,0,1:0:0:0:
165,273,176591,1,0,0:0:0:0:
165,291,176685,1,0,1:0:0:0:
152,304,176779,1,0,0:0:0:0:
32,256,176873,5,0,1:0:0:0:
256,192,177060,1,0,1:0:0:0:
256,320,177248,1,0,1:0:0:0:
480,256,177435,1,0,1:0:0:0:
408,86,177623,5,0,1:0:0:0:
404,113,177716,1,0,1:0:0:0:
400,141,177810,1,0,1:0:0:0:
397,169,177904,1,0,1:0:0:0:
313,100,177998,5,0,1:0:0:0:
311,115,178091,1,0,1:0:0:0:
309,129,178185,1,0,1:0:0:0:
307,144,178279,1,0,1:0:0:0:
205,144,178373,5,0,1:0:0:0:
203,129,178467,1,0,1:0:0:0:
201,115,178561,1,0,1:0:0:0:
199,100,178654,1,0,1:0:0:0:
115,169,178748,5,0,1:0:0:0:
112,141,178842,1,0,1:0:0:0:
108,113,178936,1,0,1:0:0:0:
104,86,179029,1,0,1:0:0:0:
32,26,179123,5,0,1:0:0:0:
108,39,179216,1,0,1:0:0:0:
184,24,179310,1,0,1:0:0:0:
256,64,179404,1,0,1:0:0:0:
328,24,179498,1,0,1:0:0:0:
404,39,179592,1,0,1:0:0:0:
480,26,179685,2,0,P|488:55|487:85,1,51.9999976158143,0|0,1:0|1:0,0:0:0:0:
212,148,179873,5,8,0:1:0:0:
256,130,179966,1,8,0:1:0:0:
299,148,180060,1,8,0:1:0:0:
317,192,180153,1,0,0:0:0:0:
299,235,180247,1,8,0:1:0:0:
256,253,180341,1,0,0:0:0:0:
212,235,180435,1,8,0:1:0:0:
194,191,180529,1,8,0:0:0:0:
256,192,180623,6,0,L|256:320,2,116.999999098778,2|0|2,3:1|3:0|3:2,0:0:0:0:
349,148,181373,5,2,1:1:0:0:
91,44,181560,1,2,0:1:0:0:
349,148,181748,2,0,B|396:156|450:126|450:126|435:149|500:126,1,155.99999879837,2|2,0:1|3:2,0:0:0:0:
421,44,182029,1,2,0:2:0:0:
349,148,182123,6,0,B|341:173|344:187|344:187|362:199|359:227,3,77.9999993991852,2|2|2|2,0:1|0:2|0:2|0:2,0:0:0:0:
441,314,182498,2,0,B|433:288|436:275|436:275|454:263|451:235,3,77.9999993991852,2|2|0|2,3:1|0:2|0:0|0:2,0:0:0:0:
384,384,182873,5,2,1:0:0:0:
163,148,183060,1,0,0:0:0:0:
256,32,183248,1,0,0:0:0:0:
256,288,183435,1,2,0:1:0:0:
71,314,183623,6,0,B|78:288|76:275|76:275|58:263|61:235,3,77.9999993991852,2|0|2|2,3:1|0:0|0:2|3:2,0:0:0:0:
25,130,183998,2,0,B|77:149|62:126|62:126|116:156|163:148,1,155.99999879837,2|2,0:1|0:2,0:0:0:0:
256,160,184279,1,2,3:2:0:0:
349,148,184373,5,2,0:1:0:0:
354,174,184466,1,0,0:0:0:0:
359,200,184560,1,4,3:3:0:0:
365,226,184654,1,4,3:3:0:0:
323,286,184748,2,0,L|432:296,1,77.9999993991852,4|0,3:3|0:0,0:0:0:0:
189,286,184935,6,0,L|22:301,1,155.99999879837,0|2,1:0|0:1,0:0:0:0:
256,352,185310,1,2,3:2:0:0:
478,299,185498,1,2,0:1:0:0:
439,296,185591,1,2,0:2:0:0:
400,292,185685,1,2,0:2:0:0:
361,289,185779,1,2,0:2:0:0:
323,286,185873,5,4,1:0:0:0:
256,32,186060,1,0,0:0:0:0:
189,286,186248,2,0,P|153:353|34:299,1,233.999998197556,4|0,0:2|0:0,0:0:0:0:
12,193,186623,5,2,0:1:0:0:
36,204,186716,1,2,0:2:0:0:
63,206,186810,1,2,0:2:0:0:
89,198,186904,1,2,0:2:0:0:
110,180,186998,1,2,0:2:0:0:
380,97,187185,5,2,0:2:0:0:
407,92,187279,1,2,0:2:0:0:
433,99,187373,1,2,0:1:0:0:
416,0,187560,5,2,0:1:0:0:
256,64,187748,1,2,0:1:0:0:
433,99,187935,1,2,0:2:0:0:
452,111,188029,1,2,0:2:0:0:
500,193,188123,5,2,0:1:0:0:
476,204,188216,1,2,0:2:0:0:
449,206,188310,1,2,0:2:0:0:
423,198,188404,1,2,0:2:0:0:
402,180,188498,2,0,P|378:184|352:202,3,38.9999996995926,2|2|2|2,0:1|0:2|0:2|0:2,0:0:0:0:
256,64,188873,5,2,0:1:0:0:
416,0,189060,1,2,0:1:0:0:
110,180,189248,1,2,0:1:0:0:
256,64,189435,1,2,0:1:0:0:
96,0,189623,5,4,0:2:0:0:
80,16,189716,1,0,0:0:0:0:
70,37,189810,1,0,0:0:0:0:
72,61,189904,1,0,0:0:0:0:
85,80,189998,2,0,P|124:77|169:86,1,77.9999993991852,0|0,0:0|0:0,0:0:0:0:
222,126,190279,1,0,0:0:0:0:
256,192,190373,5,0,0:0:0:0:
256,0,190560,1,0,0:0:0:0:
256,192,190748,1,0,0:0:0:0:
511,102,190935,2,0,P|518:77|518:52,1,38.9999996995926,0|0,0:0|0:0,0:0:0:0:
416,0,191123,5,0,0:0:0:0:
432,16,191216,1,0,0:0:0:0:
442,37,191310,1,0,0:0:0:0:
440,61,191404,1,0,0:0:0:0:
427,80,191498,2,0,P|403:74|384:77,3,38.9999996995926,0|0|0|0,0:0|0:0|0:0|0:0,0:0:0:0:
401,144,191873,6,0,P|407:108|353:175,1,272.999997897148,0|0,0:0|0:0,0:0:0:0:
151,277,192248,6,0,L|145:164,1,77.9999993991852,2|0,0:3|0:0,0:0:0:0:
64,178,192435,1,2,0:1:0:0:
231,222,192529,1,2,0:1:0:0:
69,334,192623,6,0,L|63:168,1,155.99999879837,6|0,3:1|0:0,0:0:0:0:
153,354,192998,6,0,L|149:267,1,77.9999993991852,2|0,3:1|0:0,0:0:0:0:
153,354,193185,2,0,L|148:258,1,83.1999961853028,2|0,0:1|0:0,0:0:0:0:
238,374,193373,2,0,L|234:287,1,77.9999993991852,2|0,1:0|0:0,0:0:0:0:
235,296,193560,2,0,L|231:209,1,77.9999993991852,2|0,0:1|0:0,0:0:0:0:
232,218,193748,2,0,L|228:131,1,77.9999993991852,2|2,0:2|0:1,0:0:0:0:
315,332,193935,5,0,3:0:0:0:
311,254,194029,1,2,0:2:0:0:
390,289,194123,2,0,L|384:123,2,155.99999879837,6|2|2,0:1|0:1|0:1,0:0:0:0:
472,324,194685,5,2,0:2:0:0:
468,246,194779,1,2,0:2:0:0:
464,168,194873,1,2,1:0:0:0:
472,324,195060,1,2,0:1:0:0:
456,12,195248,1,4,0:2:0:0:
464,168,195435,2,0,L|460:81,1,77.9999993991852,2|0,3:1|0:0,0:0:0:0:
384,57,195623,6,0,L|375:237,1,155.99999879837,6|0,3:1|0:0,0:0:0:0:
307,25,195998,6,0,L|303:110,1,77.9999993991852,2|0,0:1|0:0,0:0:0:0:
299,184,196185,2,0,L|295:269,1,77.9999993991852,2|0,0:1|0:0,0:0:0:0:
228,40,196373,2,0,L|224:125,1,77.9999993991852,2|0,1:0|0:0,0:0:0:0:
228,40,196560,2,0,L|223:136,1,83.1999961853028,2|0,0:1|0:0,0:0:0:0:
228,40,196748,2,0,L|220:195,1,155.99999879837,2|0,0:2|3:0,0:0:0:0:
76,82,197029,1,2,0:2:0:0:
152,61,197123,6,0,L|144:216,2,155.99999879837,6|2|2,0:1|0:1|0:1,0:0:0:0:
74,163,197685,1,0,0:2:0:0:
66,241,197779,1,2,0:2:0:0:
59,318,197873,1,2,1:0:0:0:
143,218,198060,6,0,L|139:303,1,77.9999993991852,2|0,0:1|3:0,0:0:0:0:
228,40,198248,2,0,L|220:195,1,155.99999879837,4|2,0:2|3:1,0:0:0:0:
249,352,198529,1,0,0:0:0:0:
249,352,198623,6,0,L|404:343,1,155.99999879837,6|0,3:1|0:0,0:0:0:0:
249,352,198998,6,0,L|333:348,1,77.9999993991852,2|0,0:1|0:0,0:0:0:0:
249,352,199185,2,0,L|344:348,1,83.1999961853028,2|0,0:1|0:0,0:0:0:0:
249,352,199373,2,0,L|357:347,1,88.3999976329804,2|0,1:0|0:0,0:0:0:0:
507,336,199560,2,0,L|427:342,1,77.9999993991852,2|0,0:1|0:0,0:0:0:0:
249,352,199748,2,0,L|352:347,1,93.5999928520206,2|2,0:2|0:1,0:0:0:0:
429,341,199935,5,0,3:0:0:0:
342,347,200029,1,2,0:2:0:0:
455,267,200123,2,0,L|296:275,2,155.99999879837,6|2|2,0:1|0:1|0:1,0:0:0:0:
410,196,200685,5,2,0:2:0:0:
332,201,200779,1,2,0:2:0:0:
512,115,200873,2,0,L|356:123,1,155.99999879837,2|2,1:0|0:1,0:0:0:0:
332,201,201154,1,0,3:0:0:0:
276,129,201248,2,0,L|120:137,1,155.99999879837,4|2,0:2|3:1,0:0:0:0:
64,71,201529,1,0,0:0:0:0:
54,215,201623,6,0,L|221:223,1,155.99999879837,6|0,3:1|0:0,0:0:0:0:
7,292,201998,6,0,L|102:296,1,77.9999993991852,2|0,0:1|0:0,0:0:0:0:
250,304,202185,2,0,L|172:300,1,77.9999993991852,2|0,0:1|0:0,0:0:0:0:
7,292,202373,2,0,L|111:297,1,83.1999961853028,2|0,1:0|0:0,0:0:0:0:
250,304,202560,2,0,L|158:300,1,83.1999961853028,2|0,0:1|0:0,0:0:0:0:
7,292,202748,1,2,0:2:0:0:
250,304,202935,5,0,3:0:0:0:
90,295,203029,1,2,0:2:0:0:
209,222,203123,2,0,L|54:215,2,155.99999879837,6|2|2,0:1|0:1|0:2,0:0:0:0:
470,237,203685,5,2,0:0:0:0:
304,228,203779,1,2,0:0:0:0:
429,155,203873,2,0,L|273:147,1,155.99999879837,2|2,0:1|0:2,0:0:0:0:
85,62,204248,6,0,L|228:70,1,103.999995231629,8|0,0:0|0:0,0:0:0:0:
22,110,204623,6,0,P|10:88|7:61,3,51.9999976158143,2|0|0|0,0:0|0:0|0:0|0:0,0:0:0:0:
96,138,204998,5,2,0:0:0:0:
122,122,205091,1,0,0:0:0:0:
153,119,205185,1,2,0:0:0:0:
183,123,205279,1,0,0:0:0:0:
209,139,205373,1,10,0:0:0:0:
240,192,205466,1,0,0:0:0:0:
299,212,205560,1,2,0:0:0:0:
360,203,205654,1,0,0:0:0:0:
412,168,205748,1,2,0:0:0:0:
424,139,205841,1,0,0:0:0:0:
428,107,205935,1,2,0:0:0:0:
419,76,206029,1,2,0:0:0:0:
345,65,206123,6,0,P|357:38|374:20,3,51.9999976158143,2|0|2|0,0:0|0:0|0:0|0:0,0:0:0:0:
419,76,206498,5,2,0:0:0:0:
428,107,206592,1,0,0:0:0:0:
424,139,206686,1,2,0:0:0:0:
412,168,206779,1,2,0:0:0:0:
388,188,206873,1,10,0:0:0:0:
342,229,206966,1,0,0:0:0:0:
325,289,207060,1,2,0:0:0:0:
349,346,207154,1,0,0:0:0:0:
406,370,207248,1,2,0:0:0:0:
436,363,207341,1,0,0:0:0:0:
462,346,207435,1,2,0:0:0:0:
476,318,207529,1,2,0:0:0:0:
436,263,207623,6,0,P|475:249|498:254,3,51.9999976158143,2|0|0|0,0:0|0:0|0:0|0:0,0:0:0:0:
476,318,207998,5,2,0:0:0:0:
462,346,208092,1,0,0:0:0:0:
436,363,208186,1,2,0:0:0:0:
406,370,208279,1,0,0:0:0:0:
375,361,208373,1,10,0:0:0:0:
337,311,208466,1,0,0:0:0:0:
283,278,208560,1,2,0:0:0:0:
220,274,208654,1,0,0:0:0:0:
160,293,208748,1,2,0:0:0:0:
129,296,208841,1,0,0:0:0:0:
99,286,208935,1,2,0:0:0:0:
79,261,209029,1,2,0:0:0:0:
8,278,209123,6,0,P|6:249|14:223,3,51.9999976158143,2|0|2|0,0:0|0:0|0:0|0:0,0:0:0:0:
79,261,209498,5,2,0:0:0:0:
99,286,209592,1,0,0:0:0:0:
129,296,209686,1,2,0:0:0:0:
160,293,209779,1,2,0:0:0:0:
188,280,209873,1,10,0:0:0:0:
214,224,209966,1,0,0:0:0:0:
202,162,210060,1,2,0:0:0:0:
148,129,210154,1,0,0:0:0:0:
85,137,210248,1,2,0:0:0:0:
54,133,210341,1,0,0:0:0:0:
27,116,210435,1,2,0:0:0:0:
13,87,210529,1,2,0:0:0:0:
88,65,210623,6,0,P|96:47|81:59,3,51.9999976158143,2|0|0|0,0:0|0:0|0:0|0:0,0:0:0:0:
27,116,210998,5,2,0:0:0:0:
17,89,211091,1,0,0:0:0:0:
20,61,211185,1,2,0:0:0:0:
33,36,211279,1,0,0:0:0:0:
56,20,211373,1,10,0:0:0:0:
84,14,211466,1,0,0:0:0:0:
111,20,211560,1,2,0:0:0:0:
133,37,211654,1,0,0:0:0:0:
147,62,211748,1,2,0:0:0:0:
149,90,211841,1,0,0:0:0:0:
139,116,211935,1,2,0:0:0:0:
119,136,212029,1,2,0:0:0:0:
203,199,212123,6,0,P|197:183|210:193,3,38.9999996995926,2|0|2|0,0:0|0:0|0:0|0:0,0:0:0:0:
121,214,212498,5,2,0:0:0:0:
118,182,212591,1,0,0:0:0:0:
128,152,212685,1,2,0:0:0:0:
148,127,212779,1,2,0:0:0:0:
176,112,212873,1,10,0:0:0:0:
207,108,212966,1,0,0:0:0:0:
238,115,213060,1,2,0:0:0:0:
263,134,213154,1,0,0:0:0:0:
280,161,213248,1,2,0:0:0:0:
286,192,213341,1,0,0:0:0:0:
280,223,213435,1,2,0:0:0:0:
263,250,213529,1,2,0:0:0:0:
347,308,213623,6,0,P|353:292|340:302,3,38.9999996995926,2|0|0|0,0:0|0:0|0:0|0:0,0:0:0:0:
270,376,213998,5,2,0:0:0:0:
249,342,214091,1,0,0:0:0:0:
243,304,214185,1,2,0:0:0:0:
251,266,214279,1,0,0:0:0:0:
273,234,214373,1,10,0:0:0:0:
305,213,214466,1,0,0:0:0:0:
343,204,214560,1,2,0:0:0:0:
382,211,214654,1,0,0:0:0:0:
414,231,214748,1,2,0:0:0:0:
438,263,214841,1,0,0:0:0:0:
447,300,214935,1,2,0:0:0:0:
443,338,215029,1,2,0:0:0:0:
418,309,215123,5,2,0:0:0:0:
408,272,215216,1,0,0:0:0:0:
414,231,215310,1,2,0:0:0:0:
439,203,215404,1,0,0:0:0:0:
457,170,215498,1,2,0:0:0:0:
462,133,215591,1,0,0:0:0:0:
455,102,215685,1,2,0:0:0:0:
424,69,215779,1,0,0:0:0:0:
380,61,215873,1,2,0:0:0:0:
325,64,215966,1,0,0:0:0:0:
277,91,216060,1,2,0:0:0:0:
218,119,216154,1,0,0:0:0:0:
147,123,216248,1,2,0:0:0:0:
75,94,216341,1,0,0:0:0:0:
52,12,216435,1,2,0:0:0:0:
