osu file format v14

[General]
AudioFilename: audio.mp3
AudioLeadIn: 0
PreviewTime: 120149
Countdown: 0
SampleSet: Soft
StackLeniency: 0.2
Mode: 0
LetterboxInBreaks: 0
EpilepsyWarning: 1
WidescreenStoryboard: 1

[Editor]
DistanceSpacing: 1.6
BeatDivisor: 4
GridSize: 16
TimelineZoom: 2.1

[Metadata]
Title:CANDYYYLAND feat. LIZ (Pa's Lam System Remix)
TitleUnicode:CAND¥¥¥LAND feat. LIZ (Pa's Lam System Remix)
Artist:tofubeats
ArtistUnicode:tofubeats
Creator:ProfessionalBox
Version:Nathan's Extra
Source:
Tags:future bass candy land candyland collab probox winber1 handsome hehe sing toybot nathan sukinathan wolves fanzhen fanzhen0019 plaudible hobbes2 Kibbleru Doormat -Tochi electronic english Izzywing vikala
BeatmapID:1418503
BeatmapSetID:663519

[Difficulty]
HPDrainRate:5
CircleSize:4
OverallDifficulty:9
ApproachRate:9.3
SliderMultiplier:1.92
SliderTickRate:1

[Events]
//Background and Video events
0,0,"candyland.jpg",0,0
//Break Periods
2,72823,80403
2,144823,153069
//Storyboard Layer 0 (Background)
Sprite,Background,Centre,"candyland.jpg",320,240
Sprite,Background,Centre,"sb\blank.jpg",320,240 S,0,72618,,0.3968219 M,0,72618,74257,320,240,319.2986,239.2986 F,0,72993,,1 F,0,72993,84993,1
Sprite,Background,Centre,"sb\blank.jpg",320,240 F,0,-4257,-3507,0,1 M,0,-3507,,320,240 S,0,-3507,,0.3968218 F,0,-3507,618,1 F,0,618,6618,1
Sprite,Background,Centre,"candyland.jpg",320,240 M,0,618,,320,240 S,0,618,,0.396822 F,0,618,6618,0,1 F,0,6618,72618,1 F,0,72618,73368,1,0 F,0,73368,84618,0 F,0,84618,84993,0,1 F,0,84993,216524,1,0.9973333 F,0,216524,218118,0.9973333,0
Sprite,Background,Centre,"sb\blank.jpg",320,240 M,0,44868,,320,240 S,0,44868,,0.3968219 F,0,44868,47868,0,1 F,0,47868,48993,1 F,0,48993,49368,1,0 F,0,72618,73086,0.5084932,0 F,0,116493,119493,0,1 F,0,119493,120618,1 F,0,120618,120993,1,0 F,0,164493,167493,0,1 F,0,164493,167493,0,1 F,0,167493,168618,1 F,0,167493,168618,1 F,0,168618,168993,1,0 F,0,168618,168993,1,0
Sprite,Background,Centre,"sb\vig2.png",320,240 V,0,618,,0.4108494,0.4669588 F,0,618,1368,0,1 M,0,618,74118,320,240,320,240.7014 F,0,1368,216618,1,0.9986666 F,0,216618,218118,0.9986666,0
//Storyboard Layer 1 (Fail)
//Storyboard Layer 2 (Pass)
//Storyboard Layer 3 (Foreground)
Sprite,Foreground,Centre,"sb\tochi.png",320,240 M,0,-3507,,320,240 F,0,-3507,-3132,0,1 F,0,-3132,243,1 S,0,243,,0.6 F,0,243,618,1,0
Sprite,Foreground,Centre,"sb\blank.jpg",320,240 M,0,618,,320,240 S,0,618,,0.396822 P,0,618,,A F,0,618,2118,0.5084932,0 F,0,48618,48993,0,0.1753423 F,0,48993,49368,0.5084932,0 F,0,54993,55368,0.5084932,0 F,0,60993,61368,0.5084932,0 F,0,66993,67368,0.5084932,0 F,0,84618,84993,0.5084932,0 F,0,120618,120993,0.5084932,0 F,0,123618,123993,0.5084932,0 F,0,126618,126993,0.5084932,0 F,0,129618,129993,0.5084932,0 F,0,132618,132993,0.5084932,0 F,0,135618,135993,0.5084932,0 F,0,138618,138993,0.5084932,0 F,0,141618,141993,0.5084932,0 F,0,144618,144993,0.5084932,0 F,0,168618,168993,0.5084932,0 F,0,171618,171993,0.5084932,0 F,0,174618,174993,0.5084932,0 F,0,180899,181274,0.5084932,0 F,0,183618,183993,0.5084932,0 F,0,186618,186993,0.5084932,0 F,0,189618,189993,0.5084932,0 F,0,192618,192993,0.5084932,0 F,0,195618,195993,0.5084932,0 F,0,198618,198993,0.5084932,0 F,0,201618,201993,0.5084932,0 F,0,204618,204993,0.5084932,0
Sprite,Foreground,Centre,"sb\r.png",320,240 V,0,618,,1.45589,0.4389043 M,1,618,993,320,398,320,458 F,0,618,993,0,0.4 C,0,993,12243,0,0,0 M,0,993,72243,320,458 F,0,993,72243,0.4 M,1,72243,72618,320,458,320,518 F,0,72243,72618,0.4,0 S,0,84618,,0.5090413 V,0,84618,,1.45589,0.4389043 M,1,84618,84993,320,398,320,458 F,0,84618,84993,0,0.4 M,0,84993,216243,320,458 F,0,84993,216243,0.4 M,1,216243,216617,320,458,320,518 F,0,216243,216617,0.4,0
Sprite,Foreground,Centre,"sb\nametag_nathan.png",320,240 S,0,618,,0.5090413 M,1,618,993,320,398,320,458 F,0,618,993,0,1 M,0,993,72243,320,458 F,0,993,72243,1 M,1,72243,72618,320,458,320,518 F,0,72243,72618,1,0 S,0,84618,,0.5090413 M,1,84618,84993,320,398,320,458 F,0,84618,84993,0,1 M,0,84993,216243,320,458 F,0,84993,216243,1 M,1,216243,216617,320,458,320,518 F,0,216243,216617,1,0
Sprite,Foreground,Centre,"sb\break_credits\song_artist.png",320,240 M,1,73743,74118,-127.2993,111.6493,320,111.6493 F,0,73743,74118,0,1 S,0,74118,,0.5 M,0,74118,77118,320,111.6493,319.9769,111.6493 F,0,74118,77118,1 M,2,77118,77493,319.9769,111.6493,766.0482,111.6493 F,0,77118,77493,1,0
Sprite,Foreground,Centre,"sb\break_credits\song_title.png",320,240 M,1,73743,74118,810.9589,156.537,320,156.537 F,0,73743,74118,0,1 S,0,74118,,0.5 M,0,74118,77118,320,156.537 F,0,74118,77118,1 M,2,77118,77493,320,156.537,-171.6603,156.537 F,0,77118,77493,1,0
Sprite,Foreground,Centre,"sb\break_credits\diff_credits2.png",320,240 M,1,77118,77493,-155.5288,326.2685,320,326.2685 F,0,77118,77493,0,1 S,0,77493,,0.5 M,0,77493,80118,320,326.2685 F,0,77493,80118,1 M,2,80118,80493,320,326.2685,794.126,326.2685 F,0,80118,80493,1,0
Sprite,Foreground,Centre,"sb\break_credits\sb_credits.png",320,240 M,1,77118,77493,799.0356,378.1699,320,378.1699 F,0,77118,77493,0,1 S,0,77493,,0.5 M,0,77493,80118,320,378.1699 F,0,77493,80118,1 M,2,80118,80493,320,378.1699,-161.1397,378.1699 F,0,80118,80493,1,0
//Storyboard Layer 4 (Overlay)
//Storyboard Sound Samples

[TimingPoints]
623,375,4,2,42,30,1,0
623,-200,4,2,42,30,0,0
1935,-200,4,2,1,10,0,0
2123,-200,4,2,41,30,0,0
3435,-200,4,2,1,10,0,0
3623,-200,4,2,38,30,0,0
4935,-200,4,2,1,10,0,0
5123,-200,4,2,42,30,0,0
5685,-200,4,2,1,10,0,0
5779,-200,4,2,1,10,0,0
5873,-133.333333333333,4,2,40,30,0,0
6435,-133.333333333333,4,2,1,10,0,0
6529,-200,4,2,1,10,0,0
6623,-200,4,2,42,30,0,0
7935,-200,4,2,1,10,0,0
8123,-200,4,2,41,30,0,0
9435,-200,4,2,1,10,0,0
9623,-200,4,2,38,30,0,0
10935,-200,4,2,1,10,0,0
11123,-200,4,2,40,40,0,0
11404,-200,4,2,1,10,0,0
11498,-133.333333333333,4,2,41,40,0,0
11779,-133.333333333333,4,2,1,10,0,0
11873,-100,4,2,42,40,0,0
12154,-100,4,2,1,10,0,0
12248,-80,4,2,44,40,0,0
12529,-80,4,2,1,10,0,0
12623,-100,4,2,1,40,0,0
13560,-200,4,2,1,40,0,0
14123,-100,4,2,1,40,0,0
14404,-100,4,2,1,10,0,0
14498,-100,4,2,41,40,0,0
15154,-100,4,2,1,10,0,0
15248,-100,4,2,42,40,0,0
16560,-200,4,2,42,40,0,0
17123,-100,4,2,42,40,0,0
18154,-100,4,2,1,10,0,0
18248,-100,4,2,1,40,0,0
20404,-100,4,2,1,10,0,0
20498,-100,4,2,41,40,0,0
20966,-100,4,2,1,10,0,0
21060,-100,4,2,1,40,0,0
21154,-100,4,2,1,10,0,0
21248,-100,4,2,42,40,0,0
23498,-80,4,2,42,40,0,0
23873,-66.6666666666667,4,2,2,40,0,0
23966,-66.6666666666667,4,2,1,40,0,0
24248,-57.1428571428571,4,2,1,40,0,0
24623,-100,4,2,3,50,0,0
24716,-100,4,2,1,50,0,0
24998,-100,4,2,42,50,0,0
26123,-100,4,2,41,50,0,0
27623,-100,4,2,38,50,0,0
29123,-100,4,2,42,50,0,0
29873,-100,4,2,41,50,0,0
30623,-100,4,2,42,50,0,0
32123,-100,4,2,41,50,0,0
33623,-100,4,2,38,50,0,0
35123,-100,4,2,42,50,0,0
35873,-80,4,2,41,50,0,0
36248,-66.6666666666667,4,2,41,50,0,0
36623,-80,4,2,1,60,0,0
37279,-80,4,2,1,20,0,0
37373,-80,4,2,1,60,0,0
38029,-80,4,2,1,20,0,0
38123,-80,4,2,1,60,0,0
38404,-80,4,2,1,20,0,0
38498,-80,4,2,1,60,0,0
38779,-80,4,2,1,20,0,0
38873,-80,4,2,1,60,0,0
42623,-57.1428571428571,4,2,1,60,0,0
45623,-57.1428571428571,4,2,3,60,0,0
46373,-57.1428571428571,4,2,3,70,0,0
47123,-100,4,2,3,70,0,0
47873,-100,4,2,1,30,0,0
48060,-100,4,2,1,40,0,0
48248,-100,4,2,1,50,0,0
48435,-100,4,2,1,60,0,0
48623,-100,4,2,1,30,0,0
48998,-50,4,2,1,60,0,1
49373,-50,4,2,1,20,0,0
49466,-50,4,2,1,30,0,0
49560,-50,4,2,1,40,0,0
49654,-50,4,2,1,50,0,0
49748,-50,4,2,1,60,0,0
49935,-50,4,2,1,60,0,1
50310,-100,4,2,1,60,0,1
50498,-50,4,2,1,50,0,0
50591,-50,4,2,1,40,0,0
50685,-50,4,2,1,30,0,0
50779,-50,4,2,1,20,0,0
50873,-133.333333333333,4,2,1,60,0,1
51248,-50,4,2,1,60,0,1
52373,-50,4,2,1,60,0,0
52560,-50,4,2,1,40,0,0
52748,-100,4,2,1,40,0,0
53123,-50,4,2,1,60,0,1
53498,-66.6666666666667,4,2,1,60,0,1
53873,-100,4,2,1,30,0,1
54060,-50,4,2,1,40,0,1
54248,-33.3333333333333,4,2,1,50,0,1
54435,-25,4,2,1,60,0,1
54623,-200,4,2,1,40,0,0
54998,-50,4,2,1,60,0,1
55373,-50,4,2,1,20,0,0
55419,-50,4,2,1,10,0,0
55466,-50,4,2,1,30,0,0
55513,-50,4,2,1,10,0,0
55560,-50,4,2,1,40,0,0
55607,-50,4,2,1,10,0,0
55654,-50,4,2,1,50,0,0
55701,-50,4,2,1,10,0,0
55748,-50,4,2,1,60,0,0
55935,-50,4,2,1,60,0,1
56498,-500,4,2,1,60,0,0
56873,-50,4,2,1,60,0,1
60623,-500,4,2,1,40,0,0
60998,-50,4,2,1,60,0,1
61373,-50,4,2,1,20,0,0
61466,-50,4,2,1,30,0,0
61560,-50,4,2,1,40,0,0
61654,-50,4,2,1,50,0,0
61748,-50,4,2,1,60,0,0
61935,-50,4,2,1,60,0,1
62498,-500,4,2,1,40,0,0
62873,-50,4,2,1,60,0,1
63998,-100,4,2,1,40,0,0
64373,-50,4,2,1,60,0,1
65873,-166.666666666667,4,2,1,60,0,1
66623,-166.666666666667,4,2,1,40,0,0
66998,-50,4,2,1,60,0,1
67373,-500,4,2,1,40,0,0
67748,-50,4,2,1,60,0,0
67935,-50,4,2,1,60,0,1
68310,-100,4,2,1,60,0,1
68498,-66.6666666666667,4,2,1,20,0,0
68544,-66.6666666666667,4,2,1,10,0,0
68591,-66.6666666666667,4,2,1,30,0,0
68638,-66.6666666666667,4,2,1,10,0,0
68685,-66.6666666666667,4,2,1,40,0,0
68732,-66.6666666666667,4,2,1,10,0,0
68779,-66.6666666666667,4,2,1,50,0,0
68826,-66.6666666666667,4,2,1,10,0,0
68873,-50,4,2,1,60,0,1
71123,-200,4,2,1,20,0,1
71498,-133.333333333333,4,2,1,30,0,1
71873,-100,4,2,1,40,0,1
72248,-80,4,2,1,50,0,1
72623,-80,4,2,1,50,0,0
84248,-66.6666666666667,4,2,1,60,0,0
84623,-80,4,2,4,40,0,0
87623,-80,4,2,4,40,0,0
90248,-500,4,2,4,40,0,0
90623,-80,4,2,4,40,0,0
96623,-80,4,1,4,50,0,0
108248,-66.6666666666667,4,1,4,50,0,0
108623,-100,4,1,3,60,0,0
108716,-100,4,1,4,60,0,0
119873,-100,4,2,1,60,0,0
120248,-50,4,2,1,60,0,0
120623,-50,4,2,3,60,0,1
120716,-50,4,2,1,60,0,1
121935,-50,4,2,1,40,0,1
122310,-50,4,2,1,60,0,1
124935,-50,4,2,1,40,0,1
125310,-50,4,2,1,60,0,1
131498,-50,4,2,1,60,0,0
132623,-40,4,2,3,70,0,1
132716,-40,4,2,1,70,0,1
138623,-40,4,2,3,70,0,1
138716,-40,4,2,1,70,0,1
143873,-133.333333333333,4,2,1,70,0,1
144154,-100,4,2,1,20,0,1
144248,-100,4,2,1,30,0,1
144341,-100,4,2,1,40,0,1
144435,-100,4,2,1,50,0,1
144529,-100,4,2,4,40,0,1
144623,-100,4,2,3,40,0,0
144810,-100,4,2,4,40,0,0
156248,-100,4,2,4,60,0,0
156623,-80,4,2,3,60,0,0
156716,-80,4,2,1,60,0,0
162248,-500,4,2,1,60,0,0
162623,-80,4,2,1,60,0,0
164123,-80,4,2,1,65,0,0
165623,-80,4,2,1,70,0,0
165998,-80,4,2,1,75,0,0
166373,-50,4,2,1,80,0,0
166654,-50,4,2,1,85,0,0
167123,-50,4,2,1,60,0,0
167873,-50,4,2,1,30,0,0
168060,-50,4,2,1,60,0,0
168248,-66.6666666666667,4,2,1,60,0,0
168623,-66.6666666666667,4,2,3,60,0,1
168716,-66.6666666666667,4,2,1,60,0,1
174623,-100,4,2,4,40,0,0
179873,-66.6666666666667,4,2,4,40,0,0
180060,-50,4,2,4,40,0,0
180623,-66.6666666666667,4,2,1,70,0,0
180904,-66.6666666666667,4,2,1,70,0,1
180998,-66.6666666666667,4,2,1,70,0,1
183435,-66.6666666666667,4,2,1,60,0,1
186248,-500,4,2,1,60,0,0
186623,-100,4,2,1,60,0,0
192248,-57.1428571428571,4,2,1,60,0,0
192623,-57.1428571428571,4,2,3,60,0,1
192716,-57.1428571428571,4,2,1,60,0,1
192998,-57.1428571428571,4,2,1,70,0,1
194873,-57.1428571428571,4,2,1,70,0,1
195248,-57.1428571428571,4,2,1,45,0,1
195998,-57.1428571428571,4,2,1,70,0,1
197873,-57.1428571428571,4,2,1,70,0,1
198248,-57.1428571428571,4,2,1,45,0,1
198998,-57.1428571428571,4,2,1,70,0,1
200873,-57.1428571428571,4,2,1,70,0,1
201248,-57.1428571428571,4,2,1,45,0,1
201998,-57.1428571428571,4,2,1,70,0,1
204248,-57.1428571428571,4,2,1,40,0,1
204623,-10000,4,2,1,40,0,0
204998,-10000,4,2,1,30,0,0
205373,-10000,4,2,1,40,0,0
206123,-10000,4,2,1,25,0,0
206873,-10000,4,2,1,40,0,0
207623,-10000,4,2,1,25,0,0
208373,-10000,4,2,1,40,0,0
209123,-10000,4,2,1,25,0,0
209873,-10000,4,2,1,40,0,0
210623,-10000,4,2,1,25,0,0
211373,-10000,4,2,1,40,0,0
212123,-10000,4,2,1,25,0,0
212873,-10000,4,2,1,40,0,0
213623,-10000,4,2,1,25,0,0
214373,-10000,4,2,1,40,0,0
215873,-10000,4,2,1,35,0,0
216060,-10000,4,2,1,30,0,0
216248,-10000,4,2,1,25,0,0
216435,-10000,4,2,1,20,0,0
217935,-10000,4,2,1,5,0,0

[Colours]
Combo1 : 150,245,148
Combo2 : 96,150,240
Combo3 : 240,96,99
Combo4 : 228,73,217

[HitObjects]
422,153,623,5,2,0:0:0:0:
422,153,1373,2,0,L|311:145,1,96,0|0,0:0|0:0,0:0:0:0:
229,90,2123,6,0,P|341:93|363:30,2,192,2|0|2,0:0|0:0|0:0,0:0:0:0:
182,264,3998,2,0,P|174:292|174:329,1,48,0|0,0:0|0:0,0:0:0:0:
182,264,4373,2,0,P|154:255|117:255,1,48,0|0,0:0|0:0,0:0:0:0:
182,264,4748,2,0,P|190:236|190:199,1,48,0|0,0:0|0:0,0:0:0:0:
75,126,5123,6,0,L|258:140,1,168,2|0,0:0|0:0,0:0:0:0:
75,126,5873,6,0,L|341:147,1,252.000009613037,2|0,0:0|0:0,0:0:0:0:
422,153,6623,5,2,0:0:0:0:
422,153,7373,2,0,L|311:145,1,96,0|0,0:0|0:0,0:0:0:0:
229,90,8123,6,0,P|341:93|363:30,1,192,2|0,0:0|0:0,0:0:0:0:
182,264,9623,5,2,0:0:0:0:
74,218,9810,6,0,P|79:249|74:272,2,48
288,252,10373,5,0,0:0:0:0:
184,311,10560,2,0,P|179:280|184:257,2,48
226,151,11123,6,0,P|188:142|169:142,1,48,2|0,0:0|0:0,0:0:0:0:
269,206,11498,6,0,P|236:158|210:142,1,72.0000027465821,2|0,0:0|0:0,0:0:0:0:
255,298,11873,6,0,P|272:225|269:206,1,96,2|0,0:0|0:0,0:0:0:0:
143,320,12248,6,0,P|229:316|266:284,1,120,2|0,0:0|0:0,0:0:0:0:
416,139,12623,6,0,L|395:349,1,192,0|0,3:0|0:0,0:0:0:0:
396,330,13373,1,8,0:0:0:0:
254,297,13560,2,0,L|248:233,2,48,0|0|0,0:0|0:0|0:0,0:0:0:0:
346,92,14123,6,0,P|294:98|229:82,1,96,0|0,3:0|0:0,0:0:0:0:
298,173,14498,2,0,P|318:124|365:76,1,96,2|0,0:0|0:0,0:0:0:0:
140,156,14873,2,0,B|124:93|127:52,1,96,8|0,0:0|0:0,0:0:0:0:
398,264,15248,2,0,P|444:240|511:233,1,96,2|0,3:2|0:0,0:0:0:0:
213,263,15623,6,0,P|306:286|398:263,1,192,0|0,3:0|0:0,0:0:0:0:
397,263,16373,1,8,0:0:0:0:
472,323,16560,2,0,P|477:358|479:382,2,48,0|0|0,0:0|0:0|0:0,0:0:0:0:
392,175,17123,6,0,P|401:128|477:28,2,144,0|0|0,3:0|3:0|3:0,0:0:0:0:
289,0,17873,2,0,P|307:46|345:95,1,96,8|0,0:0|0:0,0:0:0:0:
392,175,18248,2,0,P|343:167|281:175,1,96,0|0,3:0|0:0,0:0:0:0:
463,337,18623,6,0,P|458:243|393:176,1,192,2|0,3:2|0:0,0:0:0:0:
393,176,19373,1,8,0:0:0:0:
112,285,20123,6,0,P|159:292|206:289,1,96,0|0,3:0|0:0,0:0:0:0:
63,366,20498,2,0,P|83:322|113:285,1,96,2|0,0:0|0:0,0:0:0:0:
166,211,20873,1,8,0:0:0:0:
148,371,21060,1,0,0:0:0:0:
22,265,21248,1,2,3:2:0:0:
22,265,21623,5,0,3:0:0:0:
108,149,21810,5,0,0:0:0:0:
143,174,21998,1,0,0:0:0:0:
166,211,22185,1,0,0:0:0:0:
184,65,22373,5,8,0:0:0:0:
166,211,22560,5,0,0:0:0:0:
240,156,22748,1,0,0:0:0:0:
329,155,22935,1,0,0:0:0:0:
166,211,23123,6,0,P|117:211|71:198,1,96,0|0,0:0|0:0,0:0:0:0:
166,211,23498,6,0,P|226:211|284:229,1,120,0|0,0:0|0:0,0:0:0:0:
187,71,23873,6,0,P|165:139|166:211,1,144.000005493164,0|0,0:0|0:0,0:0:0:0:
165,371,24248,6,0,P|187:290|166:210,1,168.000001602173,0|0,0:0|0:0,0:0:0:0:
121,9,24623,5,4,0:1:0:0:
187,71,24810,1,0,0:0:0:0:
18,142,24998,1,10,0:0:0:0:
103,107,25185,5,0,0:0:0:0:
103,107,25279,1,2,0:0:0:0:
103,107,25373,1,0,0:0:0:0:
10,218,25560,1,2,0:0:0:0:
161,270,25748,5,8,0:0:0:0:
85,183,25935,2,0,L|90:253,1,48,0|0,0:0|0:0,0:0:0:0:
231,324,26123,5,6,0:0:0:0:
240,307,26216,1,0,0:0:0:0:
247,279,26310,1,0,0:0:0:0:
240,241,26404,1,0,0:0:0:0:
170,184,26498,6,0,L|173:136,3,48,10|0|0|2,0:0|0:0|0:0|0:0,0:0:0:0:
355,312,26873,2,0,P|333:228|304:165,1,144,2|0,0:0|0:0,0:0:0:0:
310,176,27248,2,0,P|342:166|370:155,1,48,10|0,0:0|0:0,0:0:0:0:
218,150,27435,2,0,P|195:142|172:136,1,48,2|0,0:0|0:0,0:0:0:0:
325,77,27623,5,6,0:0:0:0:
363,70,27716,1,0,0:0:0:0:
391,77,27810,1,0,0:0:0:0:
408,86,27904,1,0,0:0:0:0:
415,93,27998,1,10,0:0:0:0:
451,184,28185,5,0,0:0:0:0:
451,184,28279,1,2,0:0:0:0:
451,184,28373,1,0,0:0:0:0:
355,160,28560,1,2,0:0:0:0:
503,109,28748,5,10,0:0:0:0:
399,280,28935,2,0,P|385:238|387:216,1,48,0|0,0:0|0:0,0:0:0:0:
325,77,29123,5,6,0:0:0:0:
308,86,29216,1,0,0:0:0:0:
286,105,29310,1,0,0:0:0:0:
271,140,29404,1,0,0:0:0:0:
355,160,29498,6,0,P|378:156|400:145,3,48,10|0|0|2,0:0|0:0|0:0|0:0,0:0:0:0:
202,206,29873,2,0,P|248:215|293:233,1,96,2|2,0:0|0:0,0:0:0:0:
173,297,30248,2,0,B|181:242|204:200,1,96,10|2,0:0|0:0,0:0:0:0:
329,72,30623,5,6,0:0:0:0:
298,96,30716,1,0,0:0:0:0:
270,102,30810,1,0,0:0:0:0:
251,103,30904,1,0,0:0:0:0:
242,100,30998,1,10,0:0:0:0:
266,19,31185,5,0,0:0:0:0:
266,19,31279,1,2,0:0:0:0:
266,19,31373,1,0,0:0:0:0:
242,100,31560,1,2,0:0:0:0:
70,33,31748,5,10,0:0:0:0:
161,34,31935,2,0,P|157:64|134:108,1,48,0|0,0:0|0:0,0:0:0:0:
33,128,32123,5,6,0:0:0:0:
219,125,32310,2,0,P|196:145|150:164,1,48,0|0,0:0|0:0,0:0:0:0:
34,222,32498,2,0,P|87:213|187:263,1,144,10|2,0:0|0:0,0:0:0:0:
185,267,32873,5,2,0:0:0:0:
386,199,33060,2,0,P|355:200|308:185,1,48,2|0,0:0|0:0,0:0:0:0:
181,154,33248,2,0,P|227:181|271:283,1,144,10|0,0:0|0:0,0:0:0:0:
268,285,33623,5,6,0:0:0:0:
467,364,33810,2,0,P|443:345|416:303,1,48,0|0,0:0|0:0,0:0:0:0:
338,197,33998,2,0,P|356:247|324:354,1,144,10|2,0:0|0:0,0:0:0:0:
321,354,34373,5,0,0:0:0:0:
321,354,34748,2,0,P|273:362|226:360,1,96,10|0,0:0|0:0,0:0:0:0:
253,133,35123,5,6,0:0:0:0:
270,124,35216,1,0,0:0:0:0:
298,117,35310,1,0,0:0:0:0:
336,124,35404,1,0,0:0:0:0:
305,204,35498,6,0,P|301:226|307:249,3,48,10|0|0|2,0:0|0:0|0:0|0:0,0:0:0:0:
444,93,35873,6,0,P|450:134|441:164,1,60,2|0,0:0|0:0,0:0:0:0:
396,293,36060,1,2,0:0:0:0:
446,151,36248,6,0,P|396:196|366:203,1,72.0000027465821,10|0,0:0|0:0,0:0:0:0:
307,250,36435,1,2,0:0:0:0:
393,197,36623,6,0,P|328:157|275:153,1,120,4|0,1:0|0:0,0:0:0:0:
423,309,36998,2,0,P|414:233|385:188,1,120,0|0,0:0|0:0,0:0:0:0:
168,62,37373,6,0,P|140:114|137:174,1,120,0|0,1:0|0:0,0:0:0:0:
275,18,37748,2,0,P|216:28|167:62,1,120,0|0,0:0|0:0,0:0:0:0:
166,254,38123,6,0,P|197:304|247:336,1,120,4|0,1:2|0:0,0:0:0:0:
167,61,38498,2,0,P|107:63|54:90,1,120,0|0,1:0|0:0,0:0:0:0:
277,245,38873,2,0,P|325:107|297:-8,1,240,2|2,1:2|1:2,0:0:0:0:
309,17,39623,6,0,P|334:86|357:106,1,60,4|0,1:2|0:0,0:0:0:0:
425,136,39810,1,0,0:0:0:0:
264,177,39998,2,0,P|336:189|365:179,1,60,0|0,1:0|0:0,0:0:0:0:
425,136,40185,1,0,0:0:0:0:
381,296,40373,2,0,P|428:239|434:209,1,60,0|0,1:0|0:0,0:0:0:0:
425,136,40560,1,0,0:0:0:0:
457,358,40748,2,0,P|352:308|253:339,1,180,0|0,1:2|0:0,0:0:0:0:
264,177,41123,6,0,P|336:189|365:179,1,60,4|0,1:2|0:0,0:0:0:0:
425,136,41310,1,0,0:0:0:0:
381,296,41498,2,0,P|428:239|434:209,1,60,0|0,1:0|0:0,0:0:0:0:
425,136,41685,1,0,0:0:0:0:
457,358,41873,2,0,P|352:308|253:339,1,180,2|0,1:2|0:0,0:0:0:0:
128,276,42248,2,0,P|233:326|332:295,1,180,2|0,1:2|0:0,0:0:0:0:
403,246,42623,6,0,P|363:204|318:186,1,84.0000008010864,4|0,1:0|0:0,0:0:0:0:
197,182,42810,5,0,1:0:0:0:
264,222,42998,1,4,1:2:0:0:
266,143,43185,1,0,0:0:0:0:
146,321,43373,6,0,P|188:281|206:236,1,84.0000008010864,0|0,1:0|0:0,0:0:0:0:
266,143,43560,5,0,1:0:0:0:
125,228,43748,1,4,1:2:0:0:
267,300,43935,1,0,0:0:0:0:
134,128,44123,6,0,P|174:170|219:188,1,84.0000008010864,0|0,1:0|0:0,0:0:0:0:
335,254,44310,5,0,1:0:0:0:
259,50,44498,1,4,1:2:0:0:
125,228,44685,1,0,0:0:0:0:
401,97,44873,6,0,P|359:137|341:182,1,84.0000008010864,0|0,1:0|0:0,0:0:0:0:
267,300,45060,5,0,1:0:0:0:
487,189,45248,1,4,1:2:0:0:
259,50,45435,1,0,0:0:0:0:
346,326,45623,6,0,P|297:315|255:292,1,84.0000008010864,0|2,1:0|0:0,0:0:0:0:
292,176,45810,6,0,P|340:186|382:209,1,84.0000008010864,0|2,1:0|0:0,0:0:0:0:
422,296,45998,6,0,P|384:318|337:326,1,84.0000008010864,0|2,1:0|0:0,0:0:0:0:
215,206,46185,6,0,P|253:184|300:176,1,84.0000008010864,0|2,1:0|0:0,0:0:0:0:
465,224,46373,6,0,P|444:267|414:303,1,84.0000008010864,0|2,1:0|0:0,0:0:0:0:
173,277,46560,6,0,P|193:233|223:197,1,84.0000008010864,0|2,1:0|0:0,0:0:0:0:
450,142,46748,6,0,P|463:188|463:235,1,84.0000008010864,0|2,1:0|0:0,0:0:0:0:
187,358,46935,6,0,P|174:312|174:265,1,84.0000008010864,0|2,1:0|0:0,0:0:0:0:
288,138,47123,5,0,1:0:0:0:
289,157,47216,1,0,1:0:0:0:
291,176,47310,1,0,1:0:0:0:
293,195,47404,1,0,1:0:0:0:
295,214,47498,1,0,1:0:0:0:
296,233,47591,1,0,1:0:0:0:
298,252,47685,1,0,1:0:0:0:
300,271,47779,1,0,1:0:0:0:
302,290,47873,6,0,P|310:320|322:348,1,48,2|0,0:0|0:0,0:0:0:0:
434,375,48060,1,2,0:0:0:0:
316,335,48248,6,0,P|341:352|368:366,1,48,2|0,0:0|0:0,0:0:0:0:
502,329,48435,1,2,0:0:0:0:
420,296,48623,6,0,L|406:220,3,48,0|8|0|8,3:0|3:0|3:0|3:0,0:0:0:0:
323,206,48998,6,0,B|431:249|515:190|515:190|455:128,1,288,4|0,1:2|0:0,1:1:0:0:
269,122,49373,5,2,0:0:0:0:
237,143,49466,1,2,0:0:0:0:
225,200,49560,1,2,0:0:0:0:
255,273,49654,1,2,0:0:0:0:
345,308,49748,2,0,P|409:316|449:311,1,96,2|2,1:2|0:0,0:0:0:0:
175,262,49935,6,0,B|67:219|-17:278|-17:278|42:339,1,288,4|0,3:2|0:0,1:1:0:0:
191,378,50310,2,0,P|202:356|207:333,1,48,0|0,3:0|3:0,0:0:0:0:
255,273,50498,5,2,0:0:0:0:
225,200,50591,1,2,0:0:0:0:
237,143,50685,1,2,0:0:0:0:
269,122,50779,1,2,0:0:0:0:
323,206,50873,6,0,P|345:256|334:323,1,108.000004119873,0|0,1:0|0:0,1:1:0:0:
323,206,51248,6,0,B|366:257|328:349|328:349|259:363|181:317,1,288,4|0,3:2|0:0,1:1:0:0:
239,168,51623,6,0,P|343:185|438:238,1,192,0|0,3:0|0:0,1:1:0:0:
244,145,51904,2,0,P|348:126|454:142,1,192,0|0,3:0|0:0,1:1:0:0:
239,119,52185,1,0,3:0:0:0:
313,56,52279,1,0,3:0:0:0:
413,45,52373,1,0,3:0:0:0:
413,45,53123,6,0,P|374:143|395:246,1,192,4|0,1:2|0:0,1:1:0:0:
440,284,53404,1,0,0:0:0:0:
386,226,53498,2,0,P|280:205|262:212,1,72.0000027465821,0|0,3:0|0:0,1:1:0:0:
126,159,53685,2,0,P|161:151|192:133,1,72.0000027465821,0|0,3:0|0:0,1:1:0:0:
255,58,53873,5,6,1:0:0:0:
255,58,54060,6,0,B|251:106|273:158,1,96,2|0,0:0|0:0,0:0:0:0:
270,152,54248,6,0,P|287:82|288:10,1,144.000005493164,2|0,0:0|0:0,0:0:0:0:
288,10,54435,6,0,P|287:106|316:198,1,192,2|0,0:0|0:0,0:0:0:0:
350,367,54623,5,0,3:0:0:0:
350,367,54998,6,0,P|254:333|331:197,1,288,4|0,1:2|0:0,1:1:0:0:
325,285,55373,5,2,0:0:0:0:
286,286,55466,1,2,0:0:0:0:
243,247,55560,1,2,0:0:0:0:
224,171,55654,1,2,0:0:0:0:
288,107,55748,2,0,B|334:101|334:101|382:126,1,96,4|0,1:2|0:0,1:1:0:0:
469,266,55935,6,0,B|377:269|316:196|316:196|325:253|268:295,1,288,0|0,3:0|0:0,1:1:0:0:
165,364,56310,1,0,3:0:0:0:
176,282,56404,1,0,3:0:0:0:
187,201,56498,6,0,L|191:169,1,28.8,0|0,0:0|0:0,0:0:0:0:
131,80,56873,6,0,P|215:65|263:89,1,96,4|0,1:2|0:0,1:1:0:0:
372,101,57060,1,0,0:0:0:0:
131,80,57248,2,0,P|265:157|387:78,1,288,0|0,3:0|0:0,1:1:0:0:
492,169,57623,6,0,P|446:183|411:215,1,96,2|0,2:1|0:0,0:0:0:0:
259,240,57810,1,2,2:1:0:0:
262,325,57904,1,2,2:1:0:0:
331,369,57998,2,0,P|341:322|331:275,1,96,6|0,3:2|0:0,0:0:0:0:
245,126,58185,2,0,P|280:158|325:172,1,96,6|0,3:2|0:0,0:0:0:0:
512,324,58373,6,0,L|393:303,1,96,2|0,2:1|0:0,0:0:0:0:
174,262,58560,1,2,1:0:0:0:
417,307,58748,6,0,B|388:110|388:110|296:202,1,288,4|0,3:2|0:0,1:1:0:0:
229,179,59123,6,0,B|244:224|244:224|277:257,1,96,6|0,3:2|0:0,0:0:0:0:
417,307,59310,1,2,0:0:0:0:
229,179,59498,6,0,B|234:130|234:130|267:95,1,96,6|0,3:2|0:0,0:0:0:0:
397,17,59685,1,2,0:0:0:0:
229,179,59873,6,0,L|361:169,1,96,2|0,1:0|0:0,0:0:0:0:
474,157,60060,1,2,1:0:0:0:
229,179,60248,6,0,B|30:193|30:193|118:127,1,288,4|0,0:0|0:0,0:0:0:0:
214,97,60623,6,0,L|244:94,1,28.8,2|2,3:2|0:0,0:0:0:0:
361,124,60998,6,0,P|274:126|386:209,1,288,4|0,1:2|0:0,1:1:0:0:
380,49,61373,5,2,0:0:0:0:
342,35,61466,1,2,0:0:0:0:
284,40,61560,1,2,0:0:0:0:
216,76,61654,1,2,0:0:0:0:
171,161,61748,2,0,P|188:256|215:288,1,96,0|0,1:0|0:0,1:1:0:0:
351,362,61935,6,0,B|409:373|409:373|431:296|397:219|397:219|330:255,1,288,4|0,3:2|0:0,1:1:0:0:
351,362,62310,2,0,P|446:345|478:318,1,96,4|0,3:2|0:0,1:1:0:0:
431,145,62498,6,0,B|395:137,1,28.8,0|0,3:0|0:0,0:0:0:0:
299,135,62873,6,0,B|387:91|477:106|477:106|372:9,1,288,4|0,1:2|0:0,1:1:0:0:
272,248,63248,2,0,B|189:193|157:108|157:108|126:247,1,288,4|0,3:2|0:0,1:1:0:0:
366,314,63623,6,0,P|367:266|385:222,1,96,0|0,3:0|0:0,1:1:0:0:
279,43,63810,2,0,P|297:87|299:135,1,96,0|0,3:0|0:0,1:1:0:0:
272,248,63998,2,0,B|257:275|257:312,3,48,2|2|0|0,0:0|0:0|0:0|0:0,0:0:0:0:
167,295,64373,6,0,L|182:187,1,96,4|0,1:2|0:0,1:1:0:0:
25,47,64560,1,0,3:0:0:0:
13,129,64654,2,0,L|-2:237,1,96,4|0,1:2|0:0,0:0:0:0:
153,377,64841,1,0,3:0:0:0:
167,295,64935,2,0,L|182:187,1,96,4|0,1:2|0:0,0:0:0:0:
120,119,65123,6,0,P|80:205|95:321,1,192,0|0,3:0|0:0,0:0:0:0:
120,119,65404,2,0,P|174:196|282:241,1,192,0|0,3:0|0:0,0:0:0:0:
120,119,65685,2,0,P|174:122|226:95,1,96,2|0,3:2|0:0,0:0:0:0:
387,108,65873,6,0,P|334:77|307:77,1,86.3999973632813,0|0,1:0|0:0,1:1:0:0:
416,186,66248,2,0,P|405:133|384:105,1,86.3999973632813,4|0,0:0|0:0,0:0:0:0:
366,276,66623,5,0,3:0:0:0:
366,276,66998,6,0,B|299:227|222:257|222:257|255:336|255:336|281:333|304:341,1,288,4|0,1:2|0:0,1:1:0:0:
461,317,67373,6,0,P|465:294|465:285,1,28.8,0|0,3:0|0:0,0:0:0:0:
433,212,67748,6,0,P|386:181|317:167,1,96,0|0,1:0|0:0,1:1:0:0:
165,196,67935,6,0,B|255:225|348:170|348:170|236:76,1,288,4|0,1:2|3:0,0:0:0:0:
85,163,68310,2,0,P|78:196|82:229,1,48,0|0,3:0|0:0,0:0:0:0:
148,282,68498,5,2,0:0:0:0:
184,294,68591,1,2,0:0:0:0:
241,297,68685,1,2,2:0:0:0:
316,283,68779,1,2,0:0:0:0:
408,240,68873,6,0,P|434:197|434:148,1,96,4|0,1:2|0:0,0:0:0:0:
285,18,69060,1,0,0:0:0:0:
408,240,69248,2,0,P|313:131|150:180,1,288,8|0,3:0|0:0,0:0:0:0:
195,321,69623,6,0,B|257:350|257:350|240:227,1,192,0|0,3:0|0:0,0:0:0:0:
120,87,69904,2,0,B|58:58|58:58|74:180,1,192,0|0,3:0|0:0,1:1:0:0:
240,227,70185,2,0,L|145:241,1,96,0|0,3:0|0:0,1:1:0:0:
74,180,70373,6,0,L|469:232,1,384,4|2,1:0|0:0,0:0:0:0:
454,230,71123,6,0,P|470:267|462:315,1,72,2|0,0:0|0:0,0:0:0:0:
367,176,71498,6,0,P|420:191|457:239,1,108.000004119873,2|0,0:0|0:0,0:0:0:0:
267,265,71873,6,0,P|301:203|367:176,1,144,2|0,0:0|0:0,0:0:0:0:
367,384,72248,6,0,P|284:345|270:253,1,180,2|0,0:0|0:0,0:0:0:0:
468,299,72623,5,0,3:0:0:0:
256,192,81623,12,0,83685,0:0:0:0:
146,266,83873,6,0,P|126:221|128:182,1,60,0|0,0:0|0:0,0:0:0:0:
200,91,84060,1,0,0:0:0:0:
125,210,84248,6,0,P|138:162|167:128,1,72.0000027465821,2|0,0:0|0:0,0:0:0:0:
281,62,84435,1,0,0:0:0:0:
151,145,84623,6,0,P|203:183|281:186,1,120,4|2,0:0|1:2,0:0:0:0:
137,30,84998,2,0,P|130:94|166:163,1,120,2|2,1:2|1:2,0:0:0:0:
386,107,85373,6,0,P|334:69|256:66,1,120,2|2,1:2|1:2,0:0:0:0:
400,222,85748,2,0,P|406:157|370:88,1,120,2|0,1:2|0:0,0:0:0:0:
384,361,86123,6,0,P|442:351|489:315,1,120,0|2,0:0|1:2,0:0:0:0:
215,244,86498,2,0,P|178:291|169:349,1,120,2|2,1:2|1:2,0:0:0:0:
390,168,86873,2,0,P|284:138|222:59,1,180,2|0,1:2|0:0,0:0:0:0:
224,68,87248,5,2,1:2:0:0:
207,51,87341,1,2,1:2:0:0:
183,45,87435,1,2,1:2:0:0:
160,52,87529,1,2,1:2:0:0:
143,69,87623,6,0,P|123:103|121:136,1,60,2|0,0:2|0:0,0:0:0:0:
172,200,87810,1,2,1:2:0:0:
47,168,87998,2,0,P|66:202|94:220,1,60,2|0,1:2|0:0,0:0:0:0:
172,200,88185,1,2,1:2:0:0:
82,293,88373,2,0,P|121:293|151:278,1,60,2|0,1:2|0:0,0:0:0:0:
172,200,88560,1,2,1:2:0:0:
208,325,88748,6,0,P|241:278|228:135,1,180,2|0,1:2|0:0,0:0:0:0:
47,168,89123,6,0,P|66:202|94:220,1,60,2|0,1:2|0:0,0:0:0:0:
172,200,89310,1,2,1:2:0:0:
82,293,89498,2,0,P|121:293|151:278,1,60,2|0,1:2|0:0,0:0:0:0:
172,200,89685,1,2,1:2:0:0:
208,325,89873,6,0,P|241:278|228:135,1,180,2|0,0:2|0:0,0:0:0:0:
171,93,90248,6,0,P|168:107|167:121,1,28.8,0|0,1:0|0:0,0:0:0:0:
243,86,90623,6,0,P|268:88|316:106,1,60,2|0,1:2|0:0,0:0:0:0:
396,167,90810,1,2,1:2:0:0:
243,86,90998,2,0,P|336:113|405:179,1,180,4|0,1:2|0:0,0:0:0:0:
462,278,91373,6,0,P|472:255|481:204,1,60,2|0,1:2|0:0,0:0:0:0:
468,104,91560,1,2,1:2:0:0:
462,278,91748,2,0,P|485:183|462:91,1,180,4|0,1:2|0:0,0:0:0:0:
299,187,92123,6,0,P|288:209|279:260,1,60,2|0,1:2|0:0,0:0:0:0:
292,360,92310,1,2,1:2:0:0:
299,187,92498,2,0,P|275:281|298:373,1,180,4|0,1:2|0:0,0:0:0:0:
193,211,92873,6,0,P|168:213|120:231,1,60,2|0,1:2|0:0,0:0:0:0:
39,292,93060,1,2,1:2:0:0:
193,211,93248,2,0,P|100:238|31:304,1,180,6|2,1:2|1:2,0:0:0:0:
16,147,93623,6,0,P|65:163|103:162,1,60,2|0,1:2|0:0,0:0:0:0:
152,130,93810,1,2,1:2:0:0:
70,22,93998,2,0,P|80:72|100:104,1,60,2|0,1:2|0:0,0:0:0:0:
152,130,94185,1,2,1:2:0:0:
205,5,94373,2,0,P|166:39|148:72,1,60,2|0,1:2|0:0,0:0:0:0:
152,130,94560,1,2,1:2:0:0:
320,113,94748,2,0,P|195:45|157:46,1,180,6|0,1:2|0:0,0:0:0:0:
70,22,95123,6,0,P|80:72|100:104,1,60,2|0,1:2|0:0,0:0:0:0:
152,130,95310,1,2,1:2:0:0:
205,5,95498,2,0,P|166:39|148:72,1,60,2|0,1:2|0:0,0:0:0:0:
152,130,95685,1,2,1:2:0:0:
320,113,95873,2,0,P|195:45|157:46,1,180,0|0,1:0|0:0,0:0:0:0:
84,79,96248,2,0,P|49:123|39:166,1,60,2|0,1:2|0:0,0:0:0:0:
26,209,96435,2,0,P|27:265|47:304,1,60,0|0,1:0|1:0,0:0:0:0:
170,372,96623,6,0,L|183:168,2,180,4|8|8,3:2|0:0|0:0,0:0:0:0:
421,340,97373,2,0,P|375:297|254:279,1,180,0|8,3:0|0:0,0:0:0:0:
263,277,97935,6,0,P|351:268|402:222,1,120,8|0,0:0|3:0,0:0:0:0:
263,277,98216,2,0,P|209:250|150:251,1,120,0|8,0:0|0:0,0:0:0:0:
263,277,98498,2,0,P|276:220|266:167,1,60,0|0,0:0|0:0,0:0:0:0:
260,135,98685,2,0,P|217:95|166:77,1,60,8|0,0:0|0:0,0:0:0:0:
111,184,98873,2,0,L|88:5,2,180,0|8|8,3:0|0:0|0:0,0:0:0:0:
260,135,99623,6,0,L|237:313,2,180,2|0|8,3:2|0:0|0:0,0:0:0:0:
423,47,100373,2,0,P|379:125|379:220,1,180,2|0,3:2|0:0,0:0:0:0:
377,213,100935,6,0,P|273:222|226:257,1,120,0|2,0:0|3:2,0:0:0:0:
377,213,101216,2,0,P|396:269|392:328,1,120,0|0,0:0|0:0,0:0:0:0:
377,213,101498,2,0,P|370:166|375:138,1,60,2|0,0:2|0:0,0:0:0:0:
467,233,101685,2,0,P|474:280|469:308,1,60,8|0,0:0|0:0,0:0:0:0:
279,132,101873,2,0,L|482:109,2,180,2|8|8,3:2|0:0|0:0,0:0:0:0:
151,202,102623,6,0,P|84:152|47:98,1,120,4|8,3:2|0:0,0:0:0:0:
151,202,102904,2,0,P|141:285|112:344,1,120,8|0,0:0|0:0,0:0:0:0:
151,202,103185,2,0,P|187:178|252:173,1,60,8|0,0:0|0:0,0:0:0:0:
339,194,103373,2,0,P|392:235|425:354,1,180,0|8,3:0|0:0,0:0:0:0:
426,339,103935,6,0,P|372:355|275:326,1,120,8|0,0:0|3:0,0:0:0:0:
426,339,104216,2,0,P|438:281|473:233,1,120,0|8,0:0|0:0,0:0:0:0:
426,339,104498,2,0,P|398:316|375:285,1,60,0|0,0:0|0:0,0:0:0:0:
306,243,104685,2,0,P|312:206|327:170,1,60,8|0,0:0|0:0,0:0:0:0:
406,120,104873,2,0,P|321:148|233:134,2,180,0|8|8,3:0|0:0|0:0,0:0:0:0:
468,36,105623,5,0,3:0:0:0:
256,192,105716,12,8,107685,0:0:0:0:
446,169,107873,6,0,P|419:188|368:193,1,60,0|0,0:0|0:0,0:0:0:0:
260,127,108060,1,0,0:0:0:0:
393,194,108248,6,0,P|360:191|308:159,1,72.0000027465821,0|0,0:0|0:0,0:0:0:0:
240,46,108435,1,0,0:0:0:0:
242,287,108623,5,6,1:0:0:0:
391,105,108904,1,2,0:1:0:0:
154,70,109185,1,6,0:1:0:0:
260,168,109373,5,2,0:0:0:0:
260,168,109466,1,0,0:0:0:0:
284,52,109654,1,2,0:0:0:0:
284,52,109748,1,0,0:0:0:0:
136,194,109935,6,0,P|121:245|120:346,1,144,6|0,0:0|0:0,0:0:0:0:
136,194,110498,2,0,P|175:197|198:210,1,48,0|0,0:0|0:0,0:0:0:0:
118,335,110685,2,0,P|95:341|71:341,1,48,6|0,0:0|0:0,0:0:0:0:
12,281,110873,5,2,0:0:0:0:
249,232,111154,1,2,0:0:0:0:
63,70,111435,1,6,0:0:0:0:
140,198,111623,5,2,0:0:0:0:
140,198,111716,1,0,0:0:0:0:
225,82,111904,1,0,0:0:0:0:
225,82,111998,1,2,0:0:0:0:
63,70,112185,1,2,0:0:0:0:
142,115,112373,5,2,0:0:0:0:
20,269,112654,1,0,0:0:0:0:
241,297,112935,6,0,P|332:281|417:285,1,144,2|0,0:2|0:0,0:0:0:0:
241,297,113498,2,0,P|241:320|247:344,1,48,2|0,0:0|0:0,0:0:0:0:
384,282,113685,2,0,B|378:223|372:206,1,48,2|0,0:0|0:0,0:0:0:0:
311,142,113873,6,0,P|239:140|168:126,2,144,6|2|2,0:0|0:0|0:0,0:0:0:0:
399,75,114623,5,2,0:0:0:0:
244,244,114904,1,0,0:0:0:0:
461,302,115185,1,2,0:2:0:0:
376,190,115373,5,2,0:0:0:0:
376,190,115466,1,0,0:0:0:0:
339,348,115654,1,0,0:0:0:0:
339,348,115748,1,6,0:0:0:0:
184,153,115935,6,0,P|164:188|157:314,1,144,2|0,0:2|0:0,0:0:0:0:
183,153,116498,2,0,P|170:173|161:195,1,48,6|0,0:0|0:0,0:0:0:0:
150,288,116685,2,0,P|148:265|150:241,1,48,2|0,0:2|0:0,0:0:0:0:
279,245,116873,5,2,0:0:0:0:
40,174,117154,1,0,0:0:0:0:
248,29,117435,1,2,0:2:0:0:
183,153,117623,5,2,0:0:0:0:
256,192,117716,12,0,119873,0:0:0:0:
282,155,120248,6,0,P|292:120|348:49,1,96,2|0,0:0|0:0,0:0:0:0:
418,258,120435,2,0,P|408:293|352:364,1,96,2|0,0:0|0:0,0:0:0:0:
206,260,120623,6,0,P|214:188|302:284,1,288,6|0,1:0|0:0,0:0:0:0:
206,260,120998,2,0,P|214:188|302:284,1,288,2|0,1:0|0:0,0:0:0:0:
206,260,121373,6,0,P|152:136|160:75,1,192,2|2,1:0|0:0,0:0:0:0:
311,275,121654,2,0,P|405:275|488:323,1,192,2|0,1:0|0:0,0:0:0:0:
206,260,121935,2,0,P|123:307|28:308,1,192,2|0,1:0|0:0,0:0:0:0:
28,308,122310,6,0,P|5:209|-29:163,1,96,2|0,0:1|0:0,0:0:0:0:
156,83,122498,2,0,P|140:128|136:175,1,96,2|0,1:0|0:0,0:0:0:0:
136,175,122873,6,0,L|397:201,1,192,2|2,1:0|0:0,0:0:0:0:
145,270,123154,2,0,L|135:174,1,96,2|0,1:0|0:0,0:0:0:0:
341,65,123341,1,2,0:0:0:0:
337,98,123435,2,0,L|327:193,1,96,0|0,1:0|0:0,0:0:0:0:
232,352,123623,6,0,B|206:162|206:162|284:286,1,288,2|0,1:0|0:0,0:0:0:0:
232,352,123998,2,0,B|206:162|206:162|284:286,1,288,2|0,1:0|0:0,0:0:0:0:
232,352,124373,6,0,P|127:326|29:333,1,192,2|2,1:0|0:0,0:0:0:0:
257,243,124654,2,0,P|352:245|445:221,1,192,2|2,1:0|0:0,0:0:0:0:
232,352,124935,2,0,P|174:273|78:201,1,192,2|0,1:0|0:0,0:0:0:0:
101,214,125310,6,0,P|131:108|132:73,1,96,2|0,0:1|0:0,0:0:0:0:
235,164,125498,2,0,P|341:136|372:120,1,96,2|0,1:0|0:0,0:0:0:0:
235,164,125873,6,0,P|205:58|204:23,1,96,2|0,1:0|0:0,0:0:0:0:
399,266,126060,2,0,P|322:344|292:363,1,96,2|0,0:1|1:0,0:0:0:0:
392,57,126248,2,0,P|498:84|529:100,1,96,2|0,0:1|0:0,0:0:0:0:
235,164,126435,2,0,P|311:85|341:66,1,96,2|0,1:0|0:0,0:0:0:0:
447,169,126623,6,0,P|336:204|431:304,1,288,2|0,1:0|0:0,0:0:0:0:
447,169,126998,2,0,P|336:204|431:304,1,288,2|0,1:0|0:0,0:0:0:0:
447,169,127373,6,0,P|454:67|380:-6,1,192,2|2,1:0|0:0,0:0:0:0:
413,307,127654,2,0,P|311:300|238:374,1,192,2|0,1:0|0:0,0:0:0:0:
447,169,127935,2,0,P|348:140|237:175,1,192,2|0,1:0|0:0,0:0:0:0:
263,159,128310,6,0,P|199:194|153:197,1,96,2|0,0:1|0:0,0:0:0:0:
109,46,128498,2,0,P|155:57|194:84,1,96,2|0,1:0|0:0,0:0:0:0:
194,84,128873,6,0,L|183:316,1,192,2|2,1:0|0:0,0:0:0:0:
283,100,129154,2,0,B|240:75|240:75|171:89,1,96,2|0,1:0|0:0,0:0:0:0:
71,236,129341,1,2,0:0:0:0:
97,260,129435,2,0,B|140:285|140:285|209:271,1,96,2|0,1:0|0:0,0:0:0:0:
325,210,129623,6,0,B|270:181|270:181|264:345|264:345|387:287,1,288,2|0,1:0|0:0,0:0:0:0:
325,210,129998,2,0,B|270:181|270:181|264:345|264:345|387:287,1,288,2|0,1:0|0:0,0:0:0:0:
325,210,130373,6,0,P|197:182|117:192,1,192,2|0,1:0|0:0,0:0:0:0:
319,318,130654,2,0,P|415:303|478:277,1,96,2|2,0:0|0:0,0:0:0:0:
448,115,130841,1,2,1:2:0:0:
414,115,130935,2,0,P|318:130|227:174,1,192,2|0,0:0|0:0,0:0:0:0:
139,229,131216,1,0,0:0:0:0:
143,197,131310,2,0,P|128:101|102:38,1,96,0|0,0:0|0:0,0:0:0:0:
310,233,131498,2,0,P|325:329|351:392,1,96,0|0,0:0|0:0,0:0:0:0:
276,62,131685,5,0,0:0:0:0:
276,62,131779,1,8,0:3:0:0:
276,62,131873,1,0,0:0:0:0:
143,197,132248,1,2,0:0:0:0:
143,197,132623,6,0,B|143:118|208:30|208:30|300:85|337:149,1,360,4|0,1:2|0:0,0:0:0:0:
143,197,132998,2,0,B|143:118|208:30|208:30|300:85|337:149,1,360,0|0,1:2|0:0,0:0:0:0:
143,197,133373,6,0,P|25:37|26:0,1,240,2|2,0:1|3:1,0:0:0:0:
337,149,133654,2,0,P|257:331|224:348,1,240
143,197,133935,2,0,P|222:14|255:-2,1,240,0|2,0:0|3:1,0:0:0:0:
246,1,134310,6,0,P|322:48|377:121,1,120,2|2,3:1|3:2,0:0:0:0:
239,229,134498,2,0,P|241:139|277:55,1,120,2|2,1:1|0:0,0:0:0:0:
249,110,134873,6,0,L|11:133,1,240,2|2,1:0|3:1,0:0:0:0:
210,3,135154,2,0,B|244:42|244:42|251:131,1,120,2|4,0:0|1:2,0:0:0:0:
118,286,135341,1,0,0:0:0:0:
50,240,135435,2,0,B|16:201|16:201|10:132,1,120,0|0,3:0|0:0,0:0:0:0:
108,6,135623,5,2,3:1:0:0:
114,87,135716,1,2,0:1:0:0:
122,171,135810,1,4,0:2:0:0:
346,253,135998,1,2,1:0:0:0:
340,172,136091,1,2,0:1:0:0:
332,88,136185,1,4,3:2:0:0:
108,6,136373,6,0,L|130:277,1,240,2|4,1:1|3:2,0:0:0:0:
351,327,136654,2,0,L|329:56,1,240,0|2,0:0|0:1,0:0:0:0:
108,6,136935,2,0,P|165:133|264:133,1,240,4|2,1:2|3:1,0:0:0:0:
251,138,137310,6,0,P|191:123|87:133,1,120,2|2,3:1|3:2,0:0:0:0:
337,228,137498,2,0,P|396:227|454:212,1,120,2|2,1:1|0:0,0:0:0:0:
454,212,137873,6,0,P|319:261|247:368,1,240,2|2,1:0|3:1,0:0:0:0:
251,138,138154,2,0,P|369:127|464:56,1,240,2|0,0:0|0:0,0:0:0:0:
454,212,138435,2,0,B|440:268|441:334,1,120,0|0,3:0|0:0,0:0:0:0:
105,282,138623,6,0,P|223:180|275:327,1,360,6|0,1:2|0:0,0:0:0:0:
105,282,138998,2,0,P|223:180|275:327,1,360,0|0,1:2|0:0,0:0:0:0:
105,282,139373,6,0,P|32:165|45:38,1,240,2|2,1:0|3:1,0:0:0:0:
278,321,139654,2,0,P|400:258|455:142,1,240
105,282,139935,2,0,P|108:222|237:72,1,240,0|2,0:0|3:1,0:0:0:0:
212,82,140310,6,0,P|235:153|232:206,1,120,2|2,3:1|3:2,0:0:0:0:
34,286,140498,2,0,P|34:226|56:170,1,120,2|2,1:1|0:2,0:0:0:0:
55,170,140873,6,0,L|334:193,1,240,2|2,1:1|3:1,0:0:0:0:
47,50,141154,2,0,L|56:191,1,120,2|4,0:2|1:2,0:0:0:0:
241,357,141341,1,0,0:0:0:0:
302,309,141435,2,0,L|293:168,1,120,0|0,3:0|0:0,0:0:0:0:
174,6,141623,6,0,B|115:135|210:247|210:247|181:189|206:144,1,360,2|0,1:1|0:0,0:0:0:0:
174,6,141998,2,0,B|115:135|210:247|210:247|181:189|206:144,1,360,2|0,1:1|0:0,0:0:0:0:
174,6,142373,6,0,P|51:33|10:207,1,240,2|0,1:1|0:0,0:0:0:0:
203,150,142654,2,0,P|287:243|444:268,1,240,2|0,3:1|0:0,0:0:0:0:
174,6,142935,2,0,P|121:96|130:260,1,240,2|0,3:1|0:0,0:0:0:0:
118,228,143310,6,0,P|150:295|202:338,1,120,2|0,0:1|0:0,0:0:0:0:
381,181,143498,2,0,P|453:187|517:163,1,120,2|0,0:1|0:0,0:0:0:0:
498,174,143873,6,0,P|491:113|499:64,2,108.000004119873,2|2|2,0:1|0:0|0:0,0:0:0:0:
226,28,144623,5,4,1:0:0:0:
256,192,153623,12,2,156248,3:1:0:0:
178,285,156623,5,6,1:0:0:0:
178,285,156998,2,0,L|189:131,1,120,0|2,3:2|0:3,0:0:0:0:
193,79,157373,1,2,3:1:0:0:
89,278,157560,1,2,0:1:0:0:
91,254,157654,1,0,0:0:0:0:
94,230,157748,2,0,L|101:155,1,60,2|0,3:1|0:0,0:0:0:0:
108,75,157935,1,2,0:3:0:0:
5,249,158123,6,0,L|23:59,1,180,2|2,3:2|0:2,0:0:0:0:
108,75,158498,2,0,L|91:254,1,180,2|2,3:2|0:2,0:0:0:0:
186,262,158873,2,0,L|193:187,1,60,2|0,3:1|0:0,0:0:0:0:
204,90,159060,2,0,L|198:149,1,60,2|0,0:1|0:0,0:0:0:0:
178,345,159248,1,2,3:1:0:0:
478,102,159623,5,2,3:1:0:0:
478,102,159998,2,0,L|486:221,1,120,2|2,3:2|0:3,0:0:0:0:
307,119,160373,2,0,L|315:238,1,120,2|2,3:1|0:1,0:0:0:0:
472,18,160748,2,0,L|478:96,1,60,2|0,3:1|0:0,0:0:0:0:
301,28,160935,2,0,L|307:106,1,60,2|0,0:3|0:0,0:0:0:0:
398,168,161123,6,0,L|389:48,1,120,2|2,3:2|0:2,0:0:0:0:
489,275,161498,2,0,L|474:58,1,180,2|2,3:2|0:2,0:0:0:0:
319,283,161873,2,0,L|304:66,1,180,2|0,3:1|0:0,0:0:0:0:
391,77,162248,6,0,L|389:45,1,28.8,2|0,3:1|0:0,0:0:0:0:
309,26,162623,5,0,3:0:0:0:
291,23,162810,1,0,3:0:0:0:
465,126,162998,5,0,3:0:0:0:
267,228,163185,1,0,3:0:0:0:
454,299,163373,5,0,3:0:0:0:
472,296,163560,1,0,3:0:0:0:
358,132,163748,6,0,L|355:204,1,60,0|0,3:0|0:0,0:0:0:0:
353,278,163935,2,0,L|356:206,1,60,0|0,3:0|0:0,0:0:0:0:
129,151,164123,5,0,3:0:0:0:
111,148,164310,1,0,3:0:0:0:
186,35,164498,6,0,L|189:107,1,60,0|0,3:0|0:0,0:0:0:0:
193,275,164685,2,0,L|190:203,1,60,0|0,3:0|0:0,0:0:0:0:
14,44,164873,5,0,3:0:0:0:
260,155,165060,1,0,3:0:0:0:
52,300,165248,5,0,3:0:0:0:
34,303,165435,1,0,3:0:0:0:
177,147,165623,5,0,3:0:0:0:
184,124,165716,1,0,3:0:0:0:
206,95,165810,1,0,3:0:0:0:
249,75,165904,1,0,3:0:0:0:
308,85,165998,1,0,3:0:0:0:
340,148,166091,1,0,3:0:0:0:
316,228,166185,1,0,3:0:0:0:
235,257,166279,1,0,3:0:0:0:
160,198,166373,6,0,P|145:147|151:81,1,96,0|0,3:0|3:0,0:0:0:0:
395,211,166560,2,0,P|410:262|404:328,1,96,0|0,3:0|3:0,0:0:0:0:
140,319,166748,2,0,P|88:306|34:268,1,96,0|0,3:0|3:0,0:0:0:0:
249,75,166935,2,0,P|295:85|337:109,1,96,0|0,3:0|3:0,0:0:0:0:
352,364,167123,5,4,3:2:0:0:
352,364,168248,5,2,0:0:0:0:
325,330,168341,1,2,0:0:0:0:
332,271,168435,1,2,0:0:0:0:
389,226,168529,1,2,0:0:0:0:
405,302,168623,5,6,1:0:0:0:
330,316,168716,1,0,0:0:0:0:
284,280,168810,1,2,0:0:0:0:
272,243,168904,2,0,P|258:176|284:99,1,144.000005493164,2|0,3:2|0:0,0:0:0:0:
334,60,169185,2,0,P|282:105|246:113,1,72.0000027465821,2|2,3:2|0:2,0:0:0:0:
98,82,169373,1,2,1:1:0:0:
167,25,169466,2,0,P|268:85|293:173,1,144.000005493164,0|0,0:0|0:0,0:0:0:0:
191,208,169748,2,0,P|160:191|135:165,1,72.0000027465821,2|0,0:1|0:0,0:0:0:0:
397,88,169935,5,0,3:0:0:0:
422,170,170029,1,0,0:0:0:0:
407,240,170123,1,2,0:1:0:0:
361,275,170216,1,2,0:2:0:0:
318,283,170310,1,2,0:2:0:0:
289,276,170404,1,2,0:2:0:0:
329,206,170498,5,2,3:1:0:0:
360,233,170591,1,2,0:2:0:0:
363,291,170685,1,2,0:2:0:0:
325,351,170779,1,2,0:2:0:0:
240,370,170873,6,0,P|200:368|56:313,1,144.000005493164,2|0,1:1|0:0,0:0:0:0:
196,234,171154,2,0,P|214:268|238:420,1,144.000005493164,2|0,3:1|0:0,0:0:0:0:
45,242,171435,2,0,P|65:212|89:185,1,72.0000027465821,2|0,0:1|0:0,0:0:0:0:
129,45,171623,5,2,3:1:0:0:
200,70,171716,1,0,0:0:0:0:
222,124,171810,1,2,0:2:0:0:
211,166,171904,2,0,P|279:186|352:184,1,144.000005493164,2|0,3:2|0:0,0:0:0:0:
368,115,172185,2,0,P|355:148|352:184,1,72.0000027465821,2|2,3:2|0:2,0:0:0:0:
262,319,172373,2,0,P|361:277|341:173,1,216.000008239746,2|4,1:1|3:3,0:0:0:0:
257,171,172748,2,0,P|221:174|187:187,1,72.0000027465821,4|0,3:3|0:0,0:0:0:0:
85,110,172935,5,0,3:0:0:0:
60,192,173029,1,0,0:0:0:0:
75,261,173123,1,2,0:1:0:0:
121,297,173216,1,2,0:2:0:0:
164,305,173310,1,2,0:2:0:0:
193,297,173404,1,2,0:2:0:0:
153,227,173498,5,2,3:1:0:0:
122,254,173591,1,2,0:2:0:0:
119,312,173685,1,2,0:2:0:0:
157,373,173779,1,2,0:2:0:0:
244,363,173873,2,0,P|282:309|259:111,1,216.000008239746,2|0,1:1|0:0,0:0:0:0:
189,78,174248,5,0,0:0:0:0:
189,91,174341,1,0,0:0:0:0:
190,105,174435,1,0,0:0:0:0:
191,119,174529,1,0,0:0:0:0:
193,134,174623,6,0,L|197:206,3,48,4|0|0|0,0:3|0:0|1:0|0:0,0:0:0:0:
109,95,174998,1,0,1:0:0:0:
251,262,175185,1,0,1:0:0:0:
251,262,175279,1,0,0:0:0:0:
251,262,175373,2,0,L|179:266,1,48,0|0,1:0|0:0,0:0:0:0:
68,191,175560,2,0,L|140:187,1,48,0|0,1:0|0:0,0:0:0:0:
124,323,175748,2,0,L|120:251,1,48,0|0,1:0|0:0,0:0:0:0:
285,185,175935,1,0,1:0:0:0:
285,185,176029,1,0,0:0:0:0:
285,185,176123,5,0,1:0:0:0:
301,194,176216,1,0,0:0:0:0:
319,216,176310,1,0,1:0:0:0:
329,253,176404,1,0,0:0:0:0:
326,301,176498,5,0,1:0:0:0:
368,262,176591,1,0,0:0:0:0:
435,265,176685,1,0,1:0:0:0:
468,334,176779,1,0,0:0:0:0:
395,380,176873,6,0,P|369:381|332:377,1,48,0|0,1:0|0:0,0:0:0:0:
489,206,177060,2,0,B|506:244|510:262,1,48,0|0,1:0|0:0,0:0:0:0:
290,220,177248,2,0,P|302:196|324:166,1,48,0|0,1:0|0:0,0:0:0:0:
414,111,177435,2,0,P|413:151|405:180,1,48,0|0,1:0|0:0,0:0:0:0:
395,270,177623,5,0,1:0:0:0:
256,192,177716,12,0,179685,1:0:0:0:
244,69,179873,6,0,L|233:158,1,72.0000027465821,8|8,0:1|0:1,0:0:0:0:
143,139,180060,1,8,0:1:0:0:
235,140,180248,6,0,L|221:244,1,96,8|0,0:1|0:0,0:0:0:0:
67,197,180435,1,8,0:1:0:0:
307,264,180623,5,2,3:1:0:0:
268,329,180716,1,0,0:0:0:0:
210,339,180810,1,0,0:0:0:0:
175,323,180904,2,0,P|115:288|13:304,1,144.000005493164,0|0,3:0|0:0,0:0:0:0:
3,349,181185,2,0,P|30:320|43:271,1,72.0000027465821,2|2,3:2|0:2,0:0:0:0:
116,105,181373,1,2,1:1:0:0:
45,152,181466,2,0,B|23:212|23:212|45:308,1,144.000005493164,0|0,0:0|0:0,0:0:0:0:
205,130,181748,2,0,P|192:60|177:34,1,72.0000027465821,2|0,0:1|0:0,0:0:0:0:
142,239,181935,5,2,3:2:0:0:
188,311,182029,1,2,0:2:0:0:
251,344,182123,1,2,0:1:0:0:
308,332,182216,1,2,0:2:0:0:
341,304,182310,1,2,0:2:0:0:
354,277,182404,1,2,0:2:0:0:
275,263,182498,5,2,3:1:0:0:
275,303,182591,1,2,0:2:0:0:
318,343,182685,1,2,0:2:0:0:
388,353,182779,1,2,0:2:0:0:
448,291,182873,2,0,B|470:231|470:231|436:112,1,144.000005493164,2|0,1:0|0:0,0:0:0:0:
310,124,183154,2,0,P|410:156|475:147,1,144.000005493164,2|0,3:1|0:0,0:0:0:0:
413,3,183435,2,0,L|394:81,1,72.0000027465821,2|0,0:1|0:0,0:0:0:0:
310,228,183623,5,2,3:1:0:0:
236,207,183716,1,0,0:0:0:0:
210,155,183810,1,2,0:2:0:0:
205,119,183904,2,0,P|135:123|60:193,1,144.000005493164,2|0,3:2|0:0,0:0:0:0:
14,197,184185,2,0,P|63:179|92:137,1,72.0000027465821,2|2,0:2|3:2,0:0:0:0:
100,42,184373,2,0,B|33:25|33:25|88:205,1,216.000008239746,2|4,0:1|3:3,0:0:0:0:
272,186,184748,2,0,P|244:163|209:154,1,72.0000027465821,4|0,3:3|0:0,0:0:0:0:
98,338,184935,5,0,1:0:0:0:
146,269,185029,1,0,0:0:0:0:
210,238,185123,1,2,0:1:0:0:
266,252,185216,1,2,0:2:0:0:
299,281,185310,1,2,3:2:0:0:
311,309,185404,1,2,0:2:0:0:
231,324,185498,5,2,0:1:0:0:
234,283,185591,1,2,0:2:0:0:
277,245,185685,1,2,0:2:0:0:
348,238,185779,1,2,0:2:0:0:
399,308,185873,6,0,L|382:395,1,72.0000027465821,4|0,1:0|0:0,1:1:0:0:
308,170,186060,2,0,L|325:83,1,72.0000027465821,0|0,0:0|0:0,0:0:0:0:
512,206,186248,6,0,L|506:238,1,28.8,4|0,0:2|0:0,0:0:0:0:
423,230,186623,6,0,L|364:219,3,48,2|2|2|2,0:1|0:2|0:2|0:2,0:0:0:0:
416,120,186998,1,2,0:2:0:0:
241,137,187185,1,2,0:2:0:0:
241,137,187279,1,2,0:2:0:0:
241,137,187373,2,0,L|182:148,1,48,2|0,0:1|0:0,0:0:0:0:
257,218,187560,2,0,L|198:229,1,48,2|0,0:1|0:0,0:0:0:0:
271,304,187748,2,0,L|212:315,1,48,2|0,0:1|0:0,0:0:0:0:
384,229,187935,5,2,0:2:0:0:
384,229,188029,1,2,0:2:0:0:
384,229,188123,2,0,L|443:240,3,48,2|2|2|2,0:1|0:2|0:2|0:2,0:0:0:0:
378,315,188498,2,0,L|437:326,3,48,2|2|2|2,0:1|0:2|0:2|0:2,0:0:0:0:
392,147,188873,6,0,L|451:158,1,48,2|0,0:1|0:0,0:0:0:0:
257,218,189060,2,0,L|198:229,1,48,2|0,0:1|0:0,0:0:0:0:
344,138,189248,2,0,L|403:149,1,48,2|0,0:1|0:0,0:0:0:0:
304,209,189435,2,0,L|245:220,1,48,2|0,0:1|0:0,0:0:0:0:
323,171,189623,5,4,0:2:0:0:
256,192,189716,12,0,191873,0:0:0:0:
177,384,192248,6,0,L|192:297,1,84.0000008010864,2|0,0:3|0:0,0:0:0:0:
213,198,192435,1,2,0:1:0:0:
213,198,192529,1,2,0:1:0:0:
213,198,192623,2,0,P|173:211|126:213,1,84.0000008010864,6|0,3:1|0:0,0:0:0:0:
213,198,192998,6,0,P|173:211|126:213,1,84.0000008010864,2|0,3:1|0:0,0:0:0:0:
0,125,193185,2,0,P|41:127|81:140,1,84.0000008010864,2|0,0:1|0:0,0:0:0:0:
172,41,193373,1,2,1:0:0:0:
213,198,193560,6,0,P|173:211|126:213,1,84.0000008010864,2|0,0:1|0:0,0:0:0:0:
0,125,193748,2,0,P|41:127|81:140,1,84.0000008010864,2|2,0:2|0:1,0:0:0:0:
274,32,193935,5,0,3:0:0:0:
274,32,194029,1,2,0:2:0:0:
274,32,194123,2,0,L|263:133,1,84.0000008010864,6|0,0:1|0:0,0:0:0:0:
351,210,194310,2,0,L|360:126,1,84.0000008010864,2|0,0:1|0:0,0:0:0:0:
465,54,194498,2,0,L|454:155,1,84.0000008010864,2|0,0:1|0:0,0:0:0:0:
274,32,194685,5,2,0:2:0:0:
274,32,194779,1,2,0:2:0:0:
274,32,194873,2,0,L|256:229,1,168.000001602173,2|2,1:0|0:1,0:0:0:0:
351,210,195154,2,0,L|369:13,1,168.000001602173,0|0,3:0|0:0,0:0:0:0:
465,54,195435,2,0,L|455:137,1,84.0000008010864,2|0,3:1|0:0,0:0:0:0:
369,343,195623,5,6,3:1:0:0:
369,343,195998,2,0,P|308:327|270:297,1,84.0000008010864,2|0,0:1|0:0,0:0:0:0:
230,228,196185,2,0,P|213:168|220:120,1,84.0000008010864,2|0,0:1|0:0,0:0:0:0:
402,172,196373,1,2,1:0:0:0:
369,343,196560,6,0,P|308:327|270:297,1,84.0000008010864,2|0,0:1|0:0,0:0:0:0:
230,228,196748,2,0,P|213:168|220:120,1,84.0000008010864,2|2,0:2|0:1,0:0:0:0:
453,261,196935,5,0,3:0:0:0:
453,261,197029,1,2,0:2:0:0:
453,261,197123,2,0,L|359:252,1,84.0000008010864,6|0,0:1|0:0,0:0:0:0:
141,302,197310,2,0,L|224:311,1,84.0000008010864,2|0,0:1|0:0,0:0:0:0:
218,67,197498,2,0,B|227:112|227:112|209:161,1,84.0000008010864,2|0,0:1|0:0,0:0:0:0:
453,261,197685,5,0,0:2:0:0:
453,261,197779,1,2,0:2:0:0:
453,261,197873,2,0,L|249:238,1,168.000001602173,2|2,1:0|0:1,0:0:0:0:
141,302,198154,2,0,P|248:283|301:202,1,168.000001602173,0|0,3:0|0:0,0:0:0:0:
218,67,198435,2,0,P|184:131|191:173,1,84.0000008010864,2|0,3:1|0:0,0:0:0:0:
386,233,198623,6,0,L|376:150,1,84.0000008010864,6|0,3:1|0:0,0:0:0:0:
386,233,198998,6,0,L|376:150,1,84.0000008010864,2|0,0:1|0:0,0:0:0:0:
183,141,199185,2,0,L|100:131,1,84.0000008010864,2|0,0:1|0:0,0:0:0:0:
218,349,199373,1,2,1:0:0:0:
386,233,199560,6,0,L|376:150,1,84.0000008010864,2|0,0:1|0:0,0:0:0:0:
183,141,199748,2,0,L|100:131,1,84.0000008010864,2|2,0:2|0:1,0:0:0:0:
321,337,199935,5,0,3:0:0:0:
321,337,200029,1,2,0:2:0:0:
321,337,200123,2,0,P|301:290|273:256,1,84.0000008010864,6|0,0:1|0:0,0:0:0:0:
59,222,200310,2,0,P|109:228|153:220,1,84.0000008010864,2|0,0:1|0:0,0:0:0:0:
300,61,200498,2,0,P|269:101|253:143,1,84.0000008010864,2|0,0:1|0:0,0:0:0:0:
321,337,200685,5,2,0:2:0:0:
321,337,200779,1,2,0:2:0:0:
321,337,200873,2,0,P|301:290|219:201,1,168.000001602173,2|2,1:0|0:1,0:0:0:0:
59,222,201154,2,0,P|109:228|227:201,1,168.000001602173,0|0,3:0|0:0,0:0:0:0:
300,61,201435,2,0,P|269:101|253:143,1,84.0000008010864,2|0,3:1|0:0,0:0:0:0:
211,298,201623,5,6,3:1:0:0:
211,298,201998,2,0,L|298:292,1,84.0000008010864,2|0,0:1|0:0,0:0:0:0:
127,166,202185,2,0,L|40:160,1,84.0000008010864,2|0,0:1|0:0,0:0:0:0:
38,316,202373,1,2,1:0:0:0:
211,298,202560,6,0,L|298:292,1,84.0000008010864,2|0,0:1|0:0,0:0:0:0:
127,166,202748,2,0,L|40:160,1,84.0000008010864,2|2,0:2|0:1,0:0:0:0:
132,353,202935,5,0,3:0:0:0:
132,353,203029,1,2,0:2:0:0:
132,353,203123,2,0,B|115:310|115:310|131:249,1,84.0000008010864,6|0,0:1|0:0,0:0:0:0:
206,123,203310,2,0,B|223:166|223:166|207:227,1,84.0000008010864,2|0,0:1|0:0,0:0:0:0:
302,371,203498,2,0,B|285:328|285:328|301:267,1,84.0000008010864,2|2,0:2|0:2,0:0:0:0:
132,353,203685,5,2,0:0:0:0:
132,353,203779,1,2,0:0:0:0:
132,353,203873,2,0,B|115:310|115:310|131:249,1,84.0000008010864,2|2,0:1|0:2,0:0:0:0:
206,123,204060,2,0,B|223:166|223:166|207:227,1,84.0000008010864,2|2,0:2|0:2,0:0:0:0:
302,371,204248,1,8,0:0:0:0:
302,371,204623,5,2,0:0:0:0:
