osu file format v14

[General]
AudioFilename: audio.mp3
AudioLeadIn: 0
PreviewTime: 168623
Countdown: 0
SampleSet: Soft
StackLeniency: 0.7
Mode: 2
LetterboxInBreaks: 0
WidescreenStoryboard: 1

[Editor]
Bookmarks: 48998,51623,54623,72576,96576,102623,108576,114576,132576,207951
DistanceSpacing: 1
BeatDivisor: 4
GridSize: 4
TimelineZoom: 2.4

[Metadata]
Title:CANDYYYLAND feat. LIZ (Pa's Lam System Remix)
TitleUnicode:CAND¥¥¥LAND feat. LIZ (Pa's Lam System Remix)
Artist:tofubeats
ArtistUnicode:tofubeats
Creator:Kukkai
Version:Salad
Source:
Tags:GiGas future bass instrumental electronic english candyland candy land
BeatmapID:4556243
BeatmapSetID:697012

[Difficulty]
HPDrainRate:3
CircleSize:3
OverallDifficulty:7
ApproachRate:7
SliderMultiplier:1.5
SliderTickRate:1

[Events]
//Background and Video events
0,0,"sugarrush.png",0,0
//Break Periods
2,72823,79973
2,144823,152723
//Storyboard Layer 0 (Background)
//Storyboard Layer 1 (Fail)
//Storyboard Layer 2 (Pass)
//Storyboard Layer 3 (Foreground)
//Storyboard Layer 4 (Overlay)
//Storyboard Sound Samples

[TimingPoints]
623,375,4,2,1,40,1,0
623,-100,4,2,1,40,0,0
716,-100,4,2,1,5,0,0
2123,-100,4,2,1,40,0,0
2216,-100,4,2,1,5,0,0
3623,-100,4,2,1,40,0,0
3716,-100,4,2,1,5,0,0
5123,-100,4,2,1,40,0,0
5216,-100,4,2,1,5,0,0
5873,-100,4,2,1,40,0,0
5966,-100,4,2,1,5,0,0
6623,-100,4,2,1,40,0,0
6716,-100,4,2,1,5,0,0
8123,-100,4,2,1,40,0,0
8216,-100,4,2,1,5,0,0
9623,-100,4,2,1,40,0,0
9716,-100,4,2,1,5,0,0
11123,-100,4,2,1,42,0,0
11216,-100,4,2,1,5,0,0
11498,-100,4,2,1,44,0,0
11591,-100,4,2,1,5,0,0
11873,-100,4,2,1,46,0,0
11966,-100,4,2,1,5,0,0
12248,-100,4,2,1,48,0,0
12341,-100,4,2,1,5,0,0
12623,-100,4,2,1,50,0,0
23123,-100,4,2,1,52,0,0
23216,-100,4,2,1,5,0,0
23498,-100,4,2,1,54,0,0
23591,-100,4,2,1,5,0,0
23873,-100,4,2,1,56,0,0
23966,-100,4,2,1,5,0,0
24248,-100,4,2,1,58,0,0
24341,-100,4,2,1,5,0,0
24623,-100,4,2,2,60,0,0
36623,-100,4,2,2,60,0,0
47498,-100,4,2,2,55,0,0
47591,-100,4,2,2,50,0,0
47685,-100,4,2,2,45,0,0
47779,-100,4,2,2,40,0,0
47873,-100,4,2,2,30,0,0
48623,-100,4,2,1,60,0,0
48998,-100,4,2,1,60,0,1
50966,-100,4,2,1,5,0,1
51248,-100,4,2,1,60,0,1
51341,-100,4,2,1,5,0,1
51623,-100,4,2,1,60,0,1
51810,-100,4,2,1,5,0,1
51904,-100,4,2,1,60,0,1
52091,-100,4,2,1,5,0,1
52185,-100,4,2,1,60,0,1
52373,-100,4,2,1,60,0,1
54623,-100,4,2,1,60,0,0
54716,-100,4,2,1,5,0,0
54998,-100,4,2,1,60,0,1
55373,-100,4,2,1,60,0,1
56591,-100,4,2,1,5,0,1
56873,-100,4,2,1,60,0,1
60623,-100,4,2,1,60,0,0
60998,-100,4,2,1,60,0,1
66529,-100,4,2,1,5,0,1
66623,-100,4,2,1,60,0,0
66716,-100,4,2,1,5,0,0
66998,-100,4,2,1,60,0,1
67279,-100,4,2,1,5,0,1
67373,-100,4,2,1,60,0,1
67466,-100,4,2,1,5,0,1
67748,-100,4,2,1,60,0,1
69623,-100,4,2,1,60,0,0
69810,-100,4,2,1,5,0,0
69904,-100,4,2,1,60,0,0
70091,-100,4,2,1,5,0,0
70185,-100,4,2,1,60,0,0
70279,-100,4,2,1,5,0,0
70373,-100,4,2,1,60,0,0
70466,-100,4,2,1,5,0,0
71123,-100,4,2,1,60,0,0
84623,-100,4,2,2,30,0,0
85373,-100,4,2,2,31,0,0
86123,-100,4,2,2,32,0,0
86873,-100,4,2,2,33,0,0
87623,-100,4,2,2,34,0,0
88373,-100,4,2,2,35,0,0
89123,-100,4,2,2,36,0,0
89873,-100,4,2,2,37,0,0
90623,-100,4,2,2,38,0,0
91373,-100,4,2,2,39,0,0
92123,-100,4,2,2,40,0,0
92873,-100,4,2,2,41,0,0
93623,-100,4,2,2,42,0,0
94373,-100,4,2,2,43,0,0
95123,-100,4,2,2,44,0,0
95873,-100,4,2,2,45,0,0
96623,-100,4,2,2,46,0,0
97373,-100,4,2,2,47,0,0
98123,-100,4,2,2,48,0,0
98873,-100,4,2,2,49,0,0
99623,-100,4,2,2,50,0,0
100373,-100,4,2,2,51,0,0
101123,-100,4,2,2,52,0,0
101873,-100,4,2,2,53,0,0
102623,-100,4,2,2,54,0,0
103373,-100,4,2,2,55,0,0
104123,-100,4,2,2,56,0,0
104873,-100,4,2,2,57,0,0
105623,-100,4,2,2,58,0,0
106373,-100,4,2,2,59,0,0
107123,-100,4,2,2,60,0,0
107873,-100,4,2,2,60,0,0
108623,-100,4,2,2,60,0,0
111623,-100,4,2,2,60,0,0
111810,-100,4,2,2,5,0,0
111904,-100,4,2,2,60,0,0
112091,-100,4,2,2,5,0,0
112185,-100,4,2,2,60,0,0
112279,-100,4,2,2,5,0,0
112373,-100,4,2,2,60,0,0
112560,-100,4,2,2,5,0,0
112654,-100,4,2,2,60,0,0
112841,-100,4,2,2,5,0,0
112935,-100,4,2,2,60,0,0
113123,-100,4,2,2,5,0,0
113216,-100,4,2,2,60,0,0
113404,-100,4,2,2,5,0,0
113498,-100,4,2,2,60,0,0
113591,-100,4,2,2,5,0,0
113685,-100,4,2,2,60,0,0
113779,-100,4,2,2,5,0,0
113873,-100,4,2,2,60,0,0
114060,-100,4,2,2,5,0,0
114154,-100,4,2,2,60,0,0
114341,-100,4,2,2,5,0,0
114435,-100,4,2,2,60,0,0
114529,-100,4,2,2,5,0,0
114623,-100,4,2,2,60,0,0
114810,-100,4,2,2,5,0,0
114904,-100,4,2,2,60,0,0
115091,-100,4,2,2,5,0,0
115185,-100,4,2,2,60,0,0
115279,-100,4,2,2,5,0,0
115373,-100,4,2,2,55,0,0
115560,-100,4,2,2,5,0,0
115654,-100,4,2,2,55,0,0
115841,-100,4,2,2,5,0,0
115935,-100,4,2,2,50,0,0
116123,-100,4,2,2,5,0,0
116216,-100,4,2,2,50,0,0
116404,-100,4,2,2,5,0,0
116498,-100,4,2,2,50,0,0
116591,-100,4,2,2,5,0,0
116685,-100,4,2,2,50,0,0
116779,-100,4,2,2,5,0,0
116873,-100,4,2,2,45,0,0
117060,-100,4,2,2,5,0,0
117154,-100,4,2,2,45,0,0
117341,-100,4,2,2,5,0,0
117435,-100,4,2,2,45,0,0
117529,-100,4,2,2,5,0,0
117623,-100,4,2,2,40,0,0
117810,-100,4,2,2,5,0,0
117904,-100,4,2,2,40,0,0
118091,-100,4,2,2,5,0,0
118185,-100,4,2,2,40,0,0
118279,-100,4,2,2,5,0,0
118373,-100,4,2,2,35,0,0
118560,-100,4,2,2,5,0,0
118654,-100,4,2,2,35,0,0
118841,-100,4,2,2,5,0,0
118935,-100,4,2,2,35,0,0
119029,-100,4,2,2,5,0,0
119123,-100,4,2,2,30,0,0
119873,-100,4,2,1,60,0,0
120623,-100,4,2,1,60,0,1
130935,-100,4,2,1,60,0,0
132623,-100,4,2,1,60,0,1
142935,-100,4,2,1,60,0,0
144623,-100,4,2,2,40,0,0
147623,-100,4,2,2,45,0,0
150623,-100,4,2,2,50,0,0
153623,-100,4,2,2,55,0,0
156623,-100,4,2,2,60,0,0
168248,-100,4,2,0,60,0,0
168623,-100,4,2,1,60,0,1
174623,-100,4,2,2,60,0,0
177623,-100,4,2,2,60,0,0
179873,-100,4,2,0,60,0,0
180623,-100,4,2,1,60,0,1
186060,-100,4,2,2,60,0,1
186623,-100,4,2,2,55,0,0
189623,-100,4,2,2,50,0,0
192248,-100,4,2,0,50,0,0
192623,-100,4,2,1,60,0,1
204623,-100,4,2,2,40,0,0

[Colours]
Combo1 : 231,204,193
Combo2 : 143,78,50
Combo3 : 193,137,113
Combo4 : 178,105,87
Combo5 : 127,123,102

[HitObjects]
184,360,623,6,0,P|112:344|212:100,1,450,2|0,1:2|0:0,0:0:0:0:
352,356,2123,6,0,P|416:344|332:92,1,450,2|0,0:0|0:0,0:0:0:0:
180,188,3623,6,0,P|308:40|448:196,1,450,2|0,0:0|0:0,0:0:0:0:
288,372,5123,6,0,P|156:236|320:104,1,450,2|0,0:0|0:0,0:0:0:0:
456,124,6623,6,0,P|268:8|96:132,1,450,2|0,0:0|0:0,0:0:0:0:
264,368,8123,6,0,P|412:264|248:120,1,450,2|0,0:0|0:0,0:0:0:0:
104,376,9623,6,0,P|104:316|424:156,1,450,2|0,0:0|0:0,0:0:0:0:
232,348,11123,6,0,L|232:188,1,150,2|2,0:0|0:0,0:0:0:0:
388,188,11873,2,0,L|388:28,1,150,2|2,0:0|0:0,0:0:0:0:
84,300,12623,6,0,L|240:300,1,150,2|0,1:2|0:0,0:0:0:0:
384,296,13373,2,0,L|384:136,1,150,8|0,0:0|0:0,0:0:0:0:
196,152,14123,6,0,L|36:152,2,150,2|0|8,1:2|0:0|0:0,0:0:0:0:
344,148,15248,1,0,1:0:0:0:
184,128,15623,6,0,L|184:288,1,150,2|0,1:2|0:0,0:0:0:0:
332,280,16373,2,0,L|332:96,1,150,8|0,0:0|0:0,0:0:0:0:
152,128,17123,6,0,L|40:128,2,112.5,2|0|0,1:2|1:0|1:0,0:0:0:0:
228,128,17873,2,0,L|392:128,1,150,8|0,0:0|1:0,0:0:0:0:
212,352,18623,6,0,L|212:184,1,150,2|0,1:2|0:0,0:0:0:0:
360,196,19373,2,0,L|184:196,1,150,8|0,0:0|0:0,0:0:0:0:
360,200,20123,6,0,P|384:152|336:44,1,150,2|0,1:2|0:0,0:0:0:0:
208,56,20873,2,0,L|368:56,1,150,8|0,0:0|1:0,0:0:0:0:
168,352,21623,6,0,P|96:336|188:200,1,300,2|8,1:2|0:0,0:0:0:0:
320,192,22748,1,0,0:0:0:0:
468,196,23123,6,0,L|468:16,1,150,2|2,1:2|0:0,0:0:0:0:
320,32,23873,2,0,L|484:32,1,150,2|2,0:0|0:0,0:0:0:0:
188,192,24623,6,0,L|28:192,2,150,8|8|8,0:0|0:0|0:0,0:0:0:0:
264,192,25560,1,0,0:0:0:0:
340,192,25748,1,8,0:0:0:0:
184,368,26123,6,0,L|184:192,1,150,8|8,0:0|0:0,0:0:0:0:
332,224,26873,1,8,0:0:0:0:
332,148,27060,1,0,0:0:0:0:
256,148,27248,1,8,0:0:0:0:
180,148,27435,1,0,0:0:0:0:
336,80,27623,6,0,L|500:80,2,150,8|8|8,0:0|0:0|0:0,0:0:0:0:
260,80,28560,1,0,0:0:0:0:
184,80,28748,1,8,0:0:0:0:
356,356,29123,6,0,P|368:300|328:192,1,150,8|8,0:0|0:0,0:0:0:0:
196,200,29873,1,8,0:0:0:0:
272,200,30060,1,0,0:0:0:0:
348,200,30248,1,8,0:0:0:0:
348,200,30435,1,0,0:0:0:0:
196,132,30623,6,0,L|24:132,1,150,8|8,0:0|0:0,0:0:0:0:
196,140,31373,2,0,L|292:140,2,75,8|0|8,0:0|0:0|0:0,0:0:0:0:
48,128,32123,6,0,L|48:280,1,150,8|8,0:0|0:0,0:0:0:0:
196,284,32873,1,8,0:0:0:0:
272,284,33060,1,0,0:0:0:0:
196,284,33248,1,8,0:0:0:0:
120,284,33435,1,0,0:0:0:0:
280,212,33623,6,0,L|436:212,1,150,8|8,0:0|0:0,0:0:0:0:
280,220,34373,2,0,L|192:220,2,75,8|0|8,0:0|0:0|0:0,0:0:0:0:
436,216,35123,6,0,P|456:152|408:64,1,150,8|8,0:0|0:0,0:0:0:0:
276,76,35873,2,0,L|276:160,1,75,8|0,0:0|0:0,0:0:0:0:
352,152,36248,2,0,L|444:152,1,75,8|0,0:0|0:0,0:0:0:0:
272,344,36623,6,0,L|116:344,1,150,8|8,1:1|0:1,0:0:0:0:
272,344,37373,2,0,P|296:292|248:200,1,150,8|8,0:1|0:1,0:0:0:0:
84,164,38123,6,0,L|268:164,1,150,8|8,1:1|0:1,0:0:0:0:
84,164,38873,2,0,L|84:340,1,150,8|8,0:1|0:1,0:0:0:0:
360,224,39623,6,0,L|204:224,1,150,8|8,1:1|0:1,0:0:0:0:
360,228,40373,2,0,L|456:228,2,75,8|0|8,0:1|0:1|0:1,0:0:0:0:
192,264,41123,6,0,L|192:100,1,150,8|8,1:1|0:1,0:0:0:0:
268,116,41685,1,0,0:1:0:0:
344,112,41873,2,0,L|496:112,1,150,8|8,0:1|0:1,0:0:0:0:
224,248,42623,6,0,L|140:248,2,75,8|8|8,1:1|0:1|0:1,0:0:0:0:
372,252,43373,2,0,L|468:252,2,75,8|8|8,1:1|0:1|0:1,0:0:0:0:
224,260,44123,5,8,1:1:0:0:
299,260,44310,1,8,0:1:0:0:
374,260,44498,1,8,0:1:0:0:
224,260,44873,1,8,1:1:0:0:
149,260,45060,1,8,0:1:0:0:
74,260,45248,1,8,0:1:0:0:
344,352,45623,6,0,P|368:304|332:212,1,150,8|8,1:1|1:1,0:0:0:0:
264,216,46185,1,8,1:1:0:0:
188,216,46373,2,0,L|368:216,1,150,8|8,1:1|1:1,0:0:0:0:
148,340,47123,5,8,1:1:0:0:
76,325,47310,1,8,1:1:0:0:
44,261,47498,1,8,1:1:0:0:
74,195,47685,1,0,0:1:0:0:
144,179,47873,2,0,L|308:180,1,150,0|0,0:1|0:0,0:0:0:0:
148,176,48623,1,8,0:3:0:0:
420,360,48998,6,0,L|420:208,1,150,8|0,0:1|0:0,0:0:0:0:
268,212,49748,1,8,0:1:0:0:
192,212,49935,6,0,L|360:212,1,150,0|0,1:0|1:0,0:0:0:0:
416,216,50498,2,0,L|236:216,1,150,0|8,0:0|1:0,0:0:0:0:
116,216,51248,1,0,1:0:0:0:
384,132,51623,6,0,L|504:132,2,112.5,0|0|0,1:0|1:0|1:0,0:0:0:0:
308,132,52373,1,8,1:1:0:0:
136,352,53123,6,0,L|136:192,1,150,0|0,1:0|1:0,0:0:0:0:
212,204,53685,1,0,1:0:0:0:
288,204,53873,2,0,L|288:36,1,150,8|0,0:1|0:0,0:0:0:0:
32,156,54623,5,0,1:0:0:0:
180,156,54998,1,8,0:1:0:0:
328,160,55373,2,0,P|348:224|328:316,1,150,0|8,0:0|0:1,0:0:0:0:
260,304,55935,6,0,L|440:304,1,150,0|0,1:0|1:0,0:0:0:0:
333,304,56498,1,0,0:0:0:0:
176,156,56873,2,0,L|16:156,1,150,8|0,0:1|1:0,0:0:0:0:
296,288,57623,6,0,L|392:288,2,75,0|0|0,1:0|1:0|1:0,0:0:0:0:
220,288,58185,1,0,1:0:0:0:
296,288,58373,2,0,L|452:288,1,150,8|0,0:1|1:0,0:0:0:0:
256,188,59123,6,0,L|136:188,2,112.5,0|0|0,1:0|1:0|1:0,0:0:0:0:
332,184,59873,2,0,L|332:356,1,150,8|0,1:0|0:0,0:0:0:0:
76,260,60623,5,0,1:0:0:0:
224,260,60998,2,0,L|384:260,2,150,8|0|8,0:1|0:0|0:1,0:0:0:0:
148,260,61935,6,0,P|132:172|172:116,1,150,0|0,1:0|1:0,0:0:0:0:
236,128,62498,1,0,0:0:0:0:
384,128,62873,2,0,L|216:124,1,150,8|0,0:1|1:0,0:0:0:0:
488,284,63623,6,0,L|488:204,1,75,0|0,1:0|1:0,0:0:0:0:
412,208,63998,1,0,0:0:0:0:
264,208,64373,2,0,L|148:208,2,112.5,8|8|8,0:1|0:1|0:1,0:0:0:0:
340,204,65123,6,0,L|340:72,1,112.5,0|0,1:0|1:0,0:0:0:0:
228,80,65685,1,0,1:0:0:0:
152,80,65873,2,0,L|332:80,1,150,8|0,0:1|0:0,0:0:0:0:
48,320,66623,5,0,1:0:0:0:
196,324,66998,2,0,P|224:284|172:196,1,150,8|0,0:1|0:0,0:0:0:0:
36,228,67748,1,8,0:1:0:0:
112,228,67935,6,0,L|288:228,1,150,0|0,1:0|1:0,0:0:0:0:
336,228,68498,1,0,0:0:0:0:
176,228,68873,2,0,P|140:176|188:104,1,150,8|0,0:1|1:0,0:0:0:0:
432,320,69623,6,0,L|284:320,1,112.5,0|0,1:0|1:0,0:0:0:0:
208,316,70185,1,0,1:0:0:0:
132,316,70373,2,0,L|456:320,1,300,8|0,0:1|1:0,0:0:0:0:
256,192,71498,12,0,72623,1:0:0:0:
256,192,80873,12,2,84248,0:0:0:0:
320,364,84623,6,0,L|320:204,1,150,8|0,0:0|0:0,0:0:0:0:
172,208,85373,2,0,L|172:52,1,150,8|0,0:0|0:0,0:0:0:0:
320,56,86123,5,8,0:0:0:0:
172,56,86498,1,0,0:0:0:0:
320,56,86873,2,0,L|492:56,1,150,8|0,0:0|0:0,0:0:0:0:
292,352,87623,6,0,L|292:184,1,150,8|0,0:0|0:0,0:0:0:0:
440,188,88373,1,8,0:0:0:0:
365,188,88560,1,0,0:0:0:0:
290,188,88748,1,0,0:0:0:0:
124,192,89123,6,0,L|300:192,1,150,8|0,0:0|0:0,0:0:0:0:
200,196,89685,1,0,0:0:0:0:
124,196,89873,2,0,L|124:32,1,150,8|0,0:0|0:0,0:0:0:0:
404,252,90623,6,0,L|404:160,1,75,8|0,0:0|0:0,0:0:0:0:
328,176,90998,1,0,0:0:0:0:
180,180,91373,1,8,0:0:0:0:
255,180,91560,1,0,0:0:0:0:
330,180,91748,1,0,0:0:0:0:
180,184,92123,6,0,L|80:184,2,75,8|0|0,0:0|0:0|0:0,0:0:0:0:
328,180,92873,2,0,L|416:180,2,75,8|0|0,0:0|0:0|0:0,0:0:0:0:
160,360,93623,6,0,L|160:188,1,150,8|0,0:0|0:0,0:0:0:0:
312,208,94373,2,0,L|392:208,2,75,8|0|0,0:0|0:0|0:0,0:0:0:0:
136,100,95123,6,0,L|320:100,1,150,8|0,0:0|0:0,0:0:0:0:
360,100,95685,1,0,0:0:0:0:
284,100,95873,2,0,L|200:100,1,75,10|2,0:0|0:0,0:0:0:0:
284,100,96248,2,0,L|372:100,1,75,10|2,0:0|0:0,0:0:0:0:
196,360,96623,6,0,P|176:320|212:220,1,150,8|10,1:0|0:0,0:0:0:0:
280,228,97185,1,2,0:0:0:0:
356,228,97373,2,0,L|356:60,1,150,10|10,0:0|0:0,0:0:0:0:
180,76,98123,6,0,L|340:76,1,150,10|10,0:0|0:0,0:0:0:0:
256,76,98685,1,2,0:0:0:0:
180,72,98873,2,0,P|152:136|188:220,1,150,10|10,0:0|0:0,0:0:0:0:
440,276,99623,6,0,L|264:276,1,150,10|10,0:0|0:0,0:0:0:0:
140,284,100373,2,0,L|48:284,2,75,10|2|10,0:0|0:0|0:0,0:0:0:0:
316,284,101123,6,0,P|340:224|296:148,1,150,10|10,0:0|0:0,0:0:0:0:
228,156,101685,1,2,0:0:0:0:
152,156,101873,2,0,L|152:336,1,150,10|10,0:0|0:0,0:0:0:0:
408,164,102623,6,0,L|496:164,2,75,10|2|10,0:0|0:0|0:0,0:0:0:0:
260,160,103373,1,10,0:0:0:0:
184,160,103560,1,2,0:0:0:0:
108,160,103748,1,10,0:0:0:0:
256,160,104123,5,10,0:0:0:0:
332,160,104310,1,2,0:0:0:0:
332,84,104498,1,10,0:0:0:0:
182,84,104873,1,10,0:0:0:0:
257,84,105060,1,2,0:0:0:0:
332,84,105248,1,10,0:0:0:0:
60,376,105623,6,0,P|44:328|80:220,1,150,10|10,0:0|0:0,0:0:0:0:
216,220,106373,1,10,0:0:0:0:
141,220,106560,1,2,0:0:0:0:
66,220,106748,1,10,0:0:0:0:
248,228,107123,6,0,P|264:176|224:80,1,150,10|10,0:0|0:0,0:0:0:0:
160,88,107685,1,2,0:0:0:0:
236,88,107873,2,0,L|328:88,1,75,2|2,0:0|0:0,0:0:0:0:
236,88,108248,2,0,L|140:88,1,75,2|2,0:0|0:0,0:0:0:0:
328,376,108623,6,0,L|448:376,2,112.5,2|2|2,1:0|0:0|0:0,0:0:0:0:
252,376,109373,2,0,L|252:240,1,112.5,2|2,0:0|0:0,0:0:0:0:
372,180,109935,6,0,L|236:180,1,112.5,2|2,0:0|0:0,0:0:0:0:
148,180,110498,2,0,L|148:92,1,75,10|2,0:0|0:0,0:0:0:0:
224,104,110873,2,0,L|352:104,2,112.5,2|2|2,0:0|0:0|0:0,0:0:0:0:
60,372,111623,6,0,L|60:244,1,112.5,2|2,0:0|0:0,0:0:0:0:
172,252,112185,1,2,0:0:0:0:
248,252,112373,2,0,L|380:252,1,112.5,2|2,0:0|0:0,0:0:0:0:
232,252,112935,6,0,L|232:120,1,112.5,2|2,0:0|0:0,0:0:0:0:
344,132,113498,2,0,L|436:132,2,75,2|2|2,0:0|0:0|0:0,0:0:0:0:
232,128,114154,2,0,L|232:264,1,112.5,2|2,0:0|0:0,0:0:0:0:
392,240,114623,6,0,L|508:240,2,112.5,2|2|2,0:0|0:0|0:0,0:0:0:0:
316,236,115373,2,0,L|168:236,1,112.5,2|2,0:0|0:0,0:0:0:0:
336,236,115935,6,0,L|336:104,1,112.5,2|2,0:0|0:0,0:0:0:0:
223,123,116498,1,2,0:0:0:0:
147,123,116685,1,2,0:0:0:0:
223,123,116873,2,0,L|339:123,2,112.5,2|2|2,0:0|0:0|0:0,0:0:0:0:
60,356,117623,6,0,L|60:228,1,112.5,2|2,0:0|0:0,0:0:0:0:
172,236,118185,1,2,0:0:0:0:
248,236,118373,2,0,L|376:236,2,112.5,2|2|2,0:0|0:0|0:0,0:0:0:0:
84,188,119123,5,2,0:0:0:0:
256,192,119498,12,0,119873,1:0:0:0:
380,332,120248,6,0,L|380:240,1,75,2|2,0:0|0:0,0:0:0:0:
216,264,120623,6,0,L|60:264,1,150,2|2,1:2|1:2,0:0:0:0:
244,176,121373,2,0,L|380:176,1,112.5,2|2,1:2|1:2,0:0:0:0:
152,336,121935,6,0,P|116:312|172:236,1,150,2|2,1:2|1:2,0:0:0:0:
232,236,122498,2,0,L|392:236,1,150,2|2,1:2|1:2,0:0:0:0:
268,236,123154,2,0,L|268:104,1,112.5,2|2,1:2|1:2,0:0:0:0:
428,288,123623,6,0,P|460:256|408:176,1,150,2|2,1:2|1:2,0:0:0:0:
268,180,124373,2,0,L|132:180,1,112.5,2|2,1:2|1:2,0:0:0:0:
356,352,124935,6,0,L|512:352,1,150,2|2,1:2|1:2,0:0:0:0:
432,352,125498,1,2,1:2:0:0:
284,348,125873,1,2,1:2:0:0:
396,348,126154,2,0,L|396:216,1,112.5,0|2,1:2|1:2,0:0:0:0:
232,236,126623,6,0,L|56:236,1,150,2|2,1:2|1:2,0:0:0:0:
232,240,127373,2,0,L|232:108,1,112.5,2|2,1:2|1:2,0:0:0:0:
28,76,127935,6,0,L|196:76,1,150,2|2,1:2|1:2,0:0:0:0:
252,76,128498,2,0,L|84:76,1,150,2|2,1:2|1:2,0:0:0:0:
216,68,129154,2,0,L|216:192,1,112.5,2|2,1:2|1:2,0:0:0:0:
64,352,129623,6,0,P|32:320|80:240,1,150,2|2,1:2|1:2,0:0:0:0:
224,232,130373,2,0,L|344:232,1,112.5,2|2,1:2|1:2,0:0:0:0:
124,228,130935,6,0,P|96:192|144:100,1,150,2|2,1:0|0:0,0:0:0:0:
208,104,131498,1,2,0:0:0:0:
356,108,131873,2,0,L|356:264,1,150,2|2,0:0|0:0,0:0:0:0:
84,264,132623,6,0,L|264:264,1,150,2|2,1:2|1:2,0:0:0:0:
84,260,133373,2,0,L|84:132,1,112.5,2|2,0:2|0:2,0:0:0:0:
288,144,133935,6,0,L|452:144,1,150,2|2,0:2|0:2,0:0:0:0:
364,144,134498,1,2,1:2:0:0:
216,144,134873,6,0,L|216:44,1,75,0|0,0:2|1:2,0:0:0:0:
292,68,135248,2,0,L|376:68,1,75,2|2,1:2|1:2,0:0:0:0:
204,368,135623,6,0,P|172:324|228:240,1,150,2|2,1:2|1:2,0:0:0:0:
360,224,136373,2,0,L|360:96,1,112.5,2|2,0:2|0:2,0:0:0:0:
160,240,136935,6,0,L|332:240,1,150,2|2,1:2|0:2,0:0:0:0:
236,236,137498,2,0,P|200:188|260:112,1,150,0|2,1:2|1:2,0:0:0:0:
352,116,138154,2,0,L|352:264,1,112.5,2|2,0:2|1:2,0:0:0:0:
196,340,138623,6,0,P|156:312|220:240,1,150,2|2,1:2|1:2,0:0:0:0:
344,228,139373,2,0,L|216:228,1,112.5,2|2,0:2|0:2,0:0:0:0:
440,224,139935,6,0,P|468:176|408:88,1,150,2|2,1:2|0:2,0:0:0:0:
356,96,140498,2,0,L|176:96,1,150,2|2,1:2|0:2,0:0:0:0:
92,96,141154,2,0,L|232:96,1,112.5,2|2,0:2|1:2,0:0:0:0:
368,368,141623,6,0,P|408:316|344:268,1,150,2|2,1:2|1:2,0:0:0:0:
208,256,142373,2,0,L|208:132,1,112.5,2|2,1:2|1:2,0:0:0:0:
412,72,142935,6,0,L|248:72,1,150,2|2,1:2|0:2,0:0:0:0:
188,72,143498,1,2,0:2:0:0:
336,72,143873,2,0,P|368:116|328:212,1,150,2|2,0:2|0:2,0:0:0:0:
268,200,144435,1,2,0:2:0:0:
96,200,144623,5,0,1:0:0:0:
256,192,153623,12,8,156248,0:0:0:0:
84,348,156623,6,0,L|84:164,1,150,0|0,1:0|1:0,0:0:0:0:
232,208,157373,2,0,L|232:40,1,150,0|0,1:0|1:0,0:0:0:0:
380,68,158123,6,0,L|380:240,1,150,0|0,1:0|1:0,0:0:0:0:
232,228,158873,1,0,1:0:0:0:
157,228,159060,1,2,0:0:0:0:
82,228,159248,1,0,1:0:0:0:
352,340,159623,6,0,L|504:340,2,150,0|0|0,1:0|1:0|1:0,0:0:0:0:
204,340,160748,1,0,1:0:0:0:
352,344,161123,6,0,L|352:184,1,150,0|0,1:0|1:0,0:0:0:0:
204,200,161873,2,0,L|76:200,2,112.5,0|2|2,1:0|0:0|0:0,0:0:0:0:
364,356,162623,6,0,L|456:356,2,75,0|0|0,1:2|1:2|1:2,0:0:0:0:
216,348,163373,2,0,L|120:348,2,75,0|0|0,1:2|1:2|1:2,0:0:0:0:
364,356,164123,5,0,1:2:0:0:
289,356,164310,1,0,1:2:0:0:
214,356,164498,1,0,1:2:0:0:
64,360,164873,2,0,L|64:268,1,75,0|0,1:2|1:2,0:0:0:0:
140,288,165248,1,0,1:2:0:0:
412,288,165623,5,0,1:2:0:0:
439,218,165810,1,0,1:2:0:0:
433,144,165998,1,0,1:2:0:0:
394,81,166185,1,0,1:2:0:0:
331,42,166373,1,0,1:2:0:0:
257,35,166560,1,0,1:2:0:0:
187,62,166748,1,0,1:2:0:0:
464,244,167123,5,0,1:2:0:0:
80,236,168248,5,0,0:0:0:0:
356,244,168623,2,0,L|480:244,2,112.5,0|0|0,1:0|1:0|1:0,0:0:0:0:
280,244,169373,2,0,L|432:244,1,150,8|0,0:1|0:0,0:0:0:0:
268,360,169935,6,0,P|204:320|288:220,1,225,0|0,1:0|1:0,0:0:0:0:
452,216,170873,2,0,L|452:80,1,112.5,8|0,0:1|0:0,0:0:0:0:
340,100,171435,1,0,0:0:0:0:
176,352,171623,6,0,L|48:352,2,112.5,0|0|0,1:0|1:0|1:0,0:0:0:0:
252,348,172373,2,0,L|92:348,1,150,8|0,0:1|0:0,0:0:0:0:
264,284,172935,6,0,P|324:240|240:144,1,225,0|0,1:0|1:0,0:0:0:0:
100,132,173873,2,0,L|100:300,1,150,8|0,0:1|0:0,0:0:0:0:
376,308,174623,6,0,L|456:308,2,75,8|0|8,1:2|0:0|0:0,0:0:0:0:
228,308,175373,1,8,0:0:0:0:
303,308,175560,1,0,0:0:0:0:
378,308,175748,1,8,0:0:0:0:
228,308,176123,6,0,L|152:308,2,75,8|0|8,0:0|0:0|0:0,0:0:0:0:
376,308,176873,2,0,L|376:216,1,75,8|0,0:0|0:0,0:0:0:0:
300,232,177248,1,8,0:0:0:0:
36,232,177623,5,8,0:0:0:0:
40,157,177810,1,8,0:0:0:0:
77,93,177998,1,8,0:0:0:0:
139,52,178185,1,8,0:0:0:0:
213,43,178373,1,8,0:0:0:0:
140,44,178560,1,8,0:0:0:0:
64,44,178748,1,8,0:0:0:0:
340,360,179123,5,8,0:0:0:0:
397,314,179310,1,8,0:0:0:0:
408,242,179498,1,8,0:0:0:0:
367,181,179685,1,8,0:0:0:0:
295,165,179873,1,8,0:0:0:0:
220,168,180060,1,0,0:0:0:0:
220,92,180248,1,0,0:0:0:0:
480,84,180623,5,0,1:0:0:0:
368,84,180904,2,0,L|368:216,1,112.5,0|0,1:0|1:0,0:0:0:0:
444,200,181373,2,0,L|264:200,1,150,8|0,0:1|0:0,0:0:0:0:
136,344,181935,6,0,P|64:296|160:220,1,225,0|0,1:0|1:0,0:0:0:0:
288,228,182873,1,8,0:1:0:0:
176,232,183154,2,0,L|176:108,1,112.5,0|0,0:0|0:0,0:0:0:0:
340,112,183623,6,0,L|456:112,2,112.5,0|0|0,1:0|1:0|1:0,0:0:0:0:
264,112,184373,2,0,L|264:292,1,150,8|0,0:1|0:0,0:0:0:0:
428,264,184935,6,0,P|496:224|416:132,1,225,0|0,1:0|0:0,0:0:0:0:
276,136,185873,2,0,L|440:136,1,150,8|2,0:1|0:0,0:0:0:0:
156,296,186623,6,0,L|64:296,2,75,2|2|2,0:0|0:0|0:0,0:0:0:0:
304,292,187373,2,0,L|412:292,2,75,2|2|2,0:0|0:0|0:0,0:0:0:0:
156,304,188123,6,0,L|156:200,1,75,2|2,0:0|0:0,0:0:0:0:
232,232,188498,1,2,0:0:0:0:
380,228,188873,1,2,0:0:0:0:
456,228,189060,1,2,0:0:0:0:
456,228,189248,1,2,0:0:0:0:
180,344,189623,6,0,L|180:236,6,75,2|2|2|2|2|2|2,0:0|0:0|0:0|0:0|0:0|0:0|0:0,0:0:0:0:
328,348,191123,5,2,0:0:0:0:
396,323,191310,1,2,0:0:0:0:
422,255,191498,1,2,0:0:0:0:
387,192,191685,1,2,0:0:0:0:
316,177,191873,1,2,0:0:0:0:
168,184,192248,2,0,L|168:80,1,75,0|0,0:0|0:0,0:0:0:0:
336,344,192623,6,0,P|372:312|308:236,1,150,0|0,1:0|0:0,0:0:0:0:
256,232,193185,1,0,0:0:0:0:
180,232,193373,2,0,L|180:64,1,150,8|0,0:1|0:0,0:0:0:0:
336,336,193935,6,0,L|496:336,1,150,0|0,1:0|0:0,0:0:0:0:
412,336,194498,2,0,L|240:336,1,150,0|8,0:0|0:1,0:0:0:0:
336,336,195060,2,0,L|432:336,2,75,2|2|2,0:0|0:0|1:2,0:0:0:0:
176,336,195623,6,0,P|144:300|192:216,1,150,0|0,1:0|0:0,0:0:0:0:
260,216,196185,1,0,0:0:0:0:
336,216,196373,2,0,L|336:44,1,150,8|0,0:1|0:0,0:0:0:0:
180,64,196935,6,0,L|12:64,1,150,0|0,1:0|0:0,0:0:0:0:
104,64,197498,2,0,L|264:64,1,150,0|8,0:0|0:1,0:0:0:0:
180,60,198060,2,0,L|92:60,2,75,2|2|2,0:0|0:0|1:2,0:0:0:0:
344,364,198623,6,0,P|372:324|316:244,1,150,0|0,1:0|0:0,0:0:0:0:
252,244,199185,1,0,0:0:0:0:
176,244,199373,2,0,L|16:244,1,150,8|0,0:1|0:0,0:0:0:0:
184,364,199935,6,0,P|212:328|152:240,1,150,0|0,1:0|0:0,0:0:0:0:
96,244,200498,2,0,L|280:244,1,150,0|8,0:0|0:1,0:0:0:0:
320,244,201060,1,2,0:0:0:0:
396,244,201248,1,2,0:0:0:0:
320,244,201435,1,2,1:2:0:0:
160,240,201623,6,0,P|128:180|176:116,1,150,0|0,1:0|0:0,0:0:0:0:
244,116,202185,1,0,0:0:0:0:
320,116,202373,2,0,L|496:116,1,150,8|0,0:1|0:0,0:0:0:0:
316,376,202935,6,0,P|280:328|340:260,1,150,0|0,1:0|0:0,0:0:0:0:
400,264,203498,2,0,L|224:264,1,150,0|2,0:0|0:0,0:0:0:0:
176,264,204060,1,2,0:0:0:0:
176,188,204248,1,2,0:0:0:0:
252,184,204435,1,2,0:0:0:0:
416,184,204623,5,4,0:0:0:0:
