osu file format v14

[General]
AudioFilename: audio.mp3
AudioLeadIn: 0
PreviewTime: 168623
Countdown: 0
SampleSet: Soft
StackLeniency: 0.7
Mode: 2
LetterboxInBreaks: 0
WidescreenStoryboard: 1

[Editor]
Bookmarks: 72576,96576,108576,114576,132576,207951
DistanceSpacing: 1
BeatDivisor: 4
GridSize: 4
TimelineZoom: 2.4

[Metadata]
Title:CANDYYYLAND feat. LIZ (Pa's Lam System Remix)
TitleUnicode:CAND¥¥¥LAND feat. LIZ (Pa's Lam System Remix)
Artist:tofubeats
ArtistUnicode:tofubeats
Creator:Kukkai
Version:Rain
Source:
Tags:GiGas future bass instrumental electronic english candyland candy land
BeatmapID:4553850
BeatmapSetID:697012

[Difficulty]
HPDrainRate:5
CircleSize:4
OverallDifficulty:9
ApproachRate:9
SliderMultiplier:1.9
SliderTickRate:2

[Events]
//Background and Video events
0,0,"sugarrush.png",0,0
//Break Periods
2,72823,80273
//Storyboard Layer 0 (Background)
//Storyboard Layer 1 (Fail)
//Storyboard Layer 2 (Pass)
//Storyboard Layer 3 (Foreground)
//Storyboard Layer 4 (Overlay)
//Storyboard Sound Samples

[TimingPoints]
623,375,4,2,1,40,1,0
623,-111.111111111111,4,2,1,40,0,0
716,-100,4,2,1,5,0,0
2123,-100,4,2,1,40,0,0
2216,-100,4,2,1,5,0,0
3623,-100,4,2,1,40,0,0
3716,-100,4,2,1,5,0,0
5123,-100,4,2,1,40,0,0
5216,-100,4,2,1,5,0,0
5873,-100,4,2,1,40,0,0
5966,-100,4,2,1,5,0,0
6623,-100,4,2,1,40,0,0
6716,-100,4,2,1,5,0,0
8123,-100,4,2,1,40,0,0
8216,-100,4,2,1,5,0,0
9623,-100,4,2,1,40,0,0
9716,-100,4,2,1,5,0,0
11123,-100,4,2,1,42,0,0
11216,-100,4,2,1,5,0,0
11498,-90.9090909090909,4,2,1,44,0,0
11591,-90.9090909090909,4,2,1,5,0,0
11873,-83.3333333333333,4,2,1,46,0,0
11966,-83.3333333333333,4,2,1,5,0,0
12248,-76.9230769230769,4,2,1,48,0,0
12341,-76.9230769230769,4,2,1,5,0,0
12623,-90.9090909090909,4,2,1,50,0,0
23123,-90.9090909090909,4,2,1,52,0,0
23216,-90.9090909090909,4,2,1,5,0,0
23498,-90.9090909090909,4,2,1,54,0,0
23591,-90.9090909090909,4,2,1,5,0,0
23873,-90.9090909090909,4,2,1,56,0,0
23966,-90.9090909090909,4,2,1,5,0,0
24248,-90.9090909090909,4,2,1,58,0,0
24341,-90.9090909090909,4,2,1,5,0,0
24623,-90.9090909090909,4,2,2,60,0,0
36623,-90.9090909090909,4,2,2,60,0,0
47498,-90.9090909090909,4,2,2,55,0,0
47591,-90.9090909090909,4,2,2,50,0,0
47685,-90.9090909090909,4,2,2,45,0,0
47779,-90.9090909090909,4,2,2,40,0,0
47873,-90.9090909090909,4,2,2,30,0,0
48623,-90.9090909090909,4,2,1,60,0,0
48998,-90.9090909090909,4,2,1,60,0,1
50966,-90.9090909090909,4,2,1,5,0,1
51248,-90.9090909090909,4,2,1,60,0,1
51341,-90.9090909090909,4,2,1,5,0,1
51623,-90.9090909090909,4,2,1,60,0,1
51810,-90.9090909090909,4,2,1,5,0,1
51904,-90.9090909090909,4,2,1,60,0,1
52091,-90.9090909090909,4,2,1,5,0,1
52185,-90.9090909090909,4,2,1,60,0,1
52373,-90.9090909090909,4,2,1,60,0,1
54623,-90.9090909090909,4,2,1,60,0,0
54716,-90.9090909090909,4,2,1,5,0,0
54998,-90.9090909090909,4,2,1,60,0,1
55373,-90.9090909090909,4,2,1,60,0,1
56591,-90.9090909090909,4,2,1,5,0,1
56873,-90.9090909090909,4,2,1,60,0,1
60623,-90.9090909090909,4,2,1,60,0,0
60998,-90.9090909090909,4,2,1,60,0,1
66529,-90.9090909090909,4,2,1,5,0,1
66623,-90.9090909090909,4,2,1,60,0,0
66716,-90.9090909090909,4,2,1,5,0,0
66998,-90.9090909090909,4,2,1,60,0,1
67279,-90.9090909090909,4,2,1,5,0,1
67373,-90.9090909090909,4,2,1,60,0,1
67466,-90.9090909090909,4,2,1,5,0,1
67748,-90.9090909090909,4,2,1,60,0,1
69623,-90.9090909090909,4,2,1,60,0,0
69810,-90.9090909090909,4,2,1,5,0,0
69904,-90.9090909090909,4,2,1,60,0,0
70091,-90.9090909090909,4,2,1,5,0,0
70185,-90.9090909090909,4,2,1,60,0,0
70279,-90.9090909090909,4,2,1,5,0,0
70373,-90.9090909090909,4,2,1,60,0,0
70466,-90.9090909090909,4,2,1,5,0,0
71123,-90.9090909090909,4,2,1,60,0,0
84623,-100,4,2,2,30,0,0
85373,-100,4,2,2,31,0,0
86123,-100,4,2,2,32,0,0
86873,-100,4,2,2,33,0,0
87623,-100,4,2,2,34,0,0
88373,-100,4,2,2,35,0,0
89123,-100,4,2,2,36,0,0
89873,-99.009900990099,4,2,2,37,0,0
90623,-98.0392156862745,4,2,2,38,0,0
91373,-97.0873786407767,4,2,2,39,0,0
92123,-96.1538461538461,4,2,2,40,0,0
92873,-95.2380952380952,4,2,2,41,0,0
93623,-94.3396226415094,4,2,2,42,0,0
94373,-93.4579439252336,4,2,2,43,0,0
95123,-92.5925925925926,4,2,2,44,0,0
95873,-91.743119266055,4,2,2,45,0,0
96623,-90.9090909090909,4,2,2,46,0,0
97373,-90.9090909090909,4,2,2,47,0,0
98123,-90.9090909090909,4,2,2,48,0,0
98873,-90.9090909090909,4,2,2,49,0,0
99623,-90.9090909090909,4,2,2,50,0,0
100373,-90.9090909090909,4,2,2,51,0,0
101123,-90.9090909090909,4,2,2,52,0,0
101873,-90.9090909090909,4,2,2,53,0,0
102623,-90.9090909090909,4,2,2,54,0,0
103373,-90.9090909090909,4,2,2,55,0,0
104123,-90.9090909090909,4,2,2,56,0,0
104873,-90.9090909090909,4,2,2,57,0,0
105623,-90.9090909090909,4,2,2,58,0,0
106373,-90.9090909090909,4,2,2,59,0,0
107123,-90.9090909090909,4,2,2,60,0,0
107873,-90.9090909090909,4,2,2,60,0,0
108623,-90.9090909090909,4,2,2,60,0,0
111623,-90.9090909090909,4,2,2,60,0,0
111810,-90.9090909090909,4,2,2,5,0,0
111904,-90.9090909090909,4,2,2,60,0,0
112091,-90.9090909090909,4,2,2,5,0,0
112185,-90.9090909090909,4,2,2,60,0,0
112279,-90.9090909090909,4,2,2,5,0,0
112373,-90.9090909090909,4,2,2,60,0,0
112560,-90.9090909090909,4,2,2,5,0,0
112654,-90.9090909090909,4,2,2,60,0,0
112841,-90.9090909090909,4,2,2,5,0,0
112935,-90.9090909090909,4,2,2,60,0,0
113123,-90.9090909090909,4,2,2,5,0,0
113216,-90.9090909090909,4,2,2,60,0,0
113404,-90.9090909090909,4,2,2,5,0,0
113498,-90.9090909090909,4,2,2,60,0,0
113591,-90.9090909090909,4,2,2,5,0,0
113685,-90.9090909090909,4,2,2,60,0,0
113779,-90.9090909090909,4,2,2,5,0,0
113873,-90.9090909090909,4,2,2,60,0,0
114060,-90.9090909090909,4,2,2,5,0,0
114154,-90.9090909090909,4,2,2,60,0,0
114341,-90.9090909090909,4,2,2,5,0,0
114435,-90.9090909090909,4,2,2,60,0,0
114529,-90.9090909090909,4,2,2,5,0,0
114623,-90.9090909090909,4,2,2,60,0,0
114810,-90.9090909090909,4,2,2,5,0,0
114904,-90.9090909090909,4,2,2,60,0,0
115091,-90.9090909090909,4,2,2,5,0,0
115185,-90.9090909090909,4,2,2,60,0,0
115279,-90.9090909090909,4,2,2,5,0,0
115373,-90.9090909090909,4,2,2,55,0,0
115560,-90.9090909090909,4,2,2,5,0,0
115654,-90.9090909090909,4,2,2,55,0,0
115841,-90.9090909090909,4,2,2,5,0,0
115935,-90.9090909090909,4,2,2,50,0,0
116123,-90.9090909090909,4,2,2,5,0,0
116216,-90.9090909090909,4,2,2,50,0,0
116404,-90.9090909090909,4,2,2,5,0,0
116498,-90.9090909090909,4,2,2,50,0,0
116591,-90.9090909090909,4,2,2,5,0,0
116685,-90.9090909090909,4,2,2,50,0,0
116779,-90.9090909090909,4,2,2,5,0,0
116873,-90.9090909090909,4,2,2,45,0,0
117060,-90.9090909090909,4,2,2,5,0,0
117154,-90.9090909090909,4,2,2,45,0,0
117341,-90.9090909090909,4,2,2,5,0,0
117435,-90.9090909090909,4,2,2,45,0,0
117529,-90.9090909090909,4,2,2,5,0,0
117623,-90.9090909090909,4,2,2,40,0,0
117810,-90.9090909090909,4,2,2,5,0,0
117904,-90.9090909090909,4,2,2,40,0,0
118091,-90.9090909090909,4,2,2,5,0,0
118185,-90.9090909090909,4,2,2,40,0,0
118279,-90.9090909090909,4,2,2,5,0,0
118373,-90.9090909090909,4,2,2,35,0,0
118560,-90.9090909090909,4,2,2,5,0,0
118654,-90.9090909090909,4,2,2,35,0,0
118841,-90.9090909090909,4,2,2,5,0,0
118935,-90.9090909090909,4,2,2,35,0,0
119029,-90.9090909090909,4,2,2,5,0,0
119123,-90.9090909090909,4,2,2,30,0,0
119873,-90.9090909090909,4,2,1,60,0,0
120623,-90.9090909090909,4,2,1,60,0,1
130935,-90.9090909090909,4,2,1,60,0,0
132623,-90.9090909090909,4,2,1,60,0,1
142935,-90.9090909090909,4,2,1,60,0,0
144623,-90.9090909090909,4,2,2,40,0,0
147623,-90.9090909090909,4,2,2,45,0,0
150623,-90.9090909090909,4,2,2,50,0,0
153623,-90.9090909090909,4,2,2,55,0,0
156623,-90.9090909090909,4,2,2,60,0,0
168248,-90.9090909090909,4,2,0,60,0,0
168623,-90.9090909090909,4,2,1,60,0,1
174623,-90.9090909090909,4,2,2,60,0,0
177623,-90.9090909090909,4,2,2,60,0,0
179873,-90.9090909090909,4,2,0,60,0,0
180623,-90.9090909090909,4,2,1,60,0,1
186060,-90.9090909090909,4,2,2,60,0,1
186623,-90.9090909090909,4,2,2,55,0,0
189623,-90.9090909090909,4,2,2,50,0,0
192248,-90.9090909090909,4,2,0,50,0,0
192623,-90.9090909090909,4,2,1,60,0,1
204623,-100,4,2,2,40,0,0

[Colours]
Combo1 : 231,204,193
Combo2 : 143,78,50
Combo3 : 193,137,113
Combo4 : 178,105,87
Combo5 : 127,123,102

[HitObjects]
220,364,623,6,0,P|48:292|252:20,1,641.249980430604,2|0,1:2|0:0,0:0:0:0:
288,20,2123,6,0,P|496:264|224:372,1,712.5,2|0,0:0|0:0,0:0:0:0:
180,364,3623,6,0,P|132:308|372:348,1,712.5,2|0,0:0|0:0,0:0:0:0:
368,328,5123,6,0,L|32:328,1,332.5,2|0,0:0|0:0,0:0:0:0:
84,328,5873,2,0,L|428:328,1,332.5,2|0,0:0|0:0,0:0:0:0:
368,328,6623,6,0,P|104:316|264:16,1,712.5,2|0,0:0|0:0,0:0:0:0:
288,20,8123,6,0,P|376:48|144:340,1,712.5,2|0,0:0|0:0,0:0:0:0:
116,324,9623,6,0,P|304:108|312:320,1,665,2|0,0:0|0:0,0:0:0:0:
68,284,11123,6,0,L|68:168,1,95,2|0,0:0|0:0,0:0:0:0:
224,188,11498,2,0,L|224:64,1,104.500003189087,2|0,0:0|0:0,0:0:0:0:
396,76,11873,2,0,L|396:192,1,113.999996520996,2|0,0:0|0:0,0:0:0:0:
212,196,12248,2,0,L|84:196,1,123.499994346619,2|0,0:0|0:0,0:0:0:0:
348,352,12623,6,0,P|420:300|324:260,1,209.000006378174,2|0,1:2|0:0,0:0:0:0:
244,248,13185,1,0,0:0:0:0:
88,252,13373,2,0,L|88:136,1,104.500003189087,8|0,0:0|0:0,0:0:0:0:
192,144,13748,2,0,L|80:144,1,104.500003189087,0|0,0:0|0:0,0:0:0:0:
336,368,14123,6,0,P|404:312|304:268,1,209.000006378174,2|0,1:2|0:0,0:0:0:0:
224,256,14685,1,0,0:0:0:0:
384,256,14873,2,0,L|384:136,1,104.500003189087,8|0,0:0|0:0,0:0:0:0:
224,256,15248,2,0,L|104:256,1,104.500003189087,0|0,1:0|0:0,0:0:0:0:
368,304,15623,6,0,L|128:308,1,209.000006378174,2|0,1:2|0:0,0:0:0:0:
159,307,16185,1,0,0:0:0:0:
320,304,16373,2,0,L|320:168,1,104.500003189087,8|0,0:0|0:0,0:0:0:0:
216,204,16748,2,0,L|96:204,1,104.500003189087,0|0,0:0|0:0,0:0:0:0:
360,104,17123,5,2,1:2:0:0:
184,108,17404,1,0,1:0:0:0:
360,104,17685,1,0,1:0:0:0:
100,376,17873,2,0,L|100:256,1,104.500003189087,8|0,0:0|0:0,0:0:0:0:
260,272,18248,2,0,L|392:272,1,104.500003189087,0|0,1:0|0:0,0:0:0:0:
104,276,18623,6,0,P|40:244|116:164,1,209.000006378174,2|0,1:2|0:0,0:0:0:0:
212,160,19185,1,0,0:0:0:0:
372,232,19373,2,0,L|256:232,1,104.500003189087,8|0,0:0|0:0,0:0:0:0:
164,228,19748,2,0,L|164:116,1,104.500003189087,0|0,0:0|0:0,0:0:0:0:
428,316,20123,6,0,L|176:316,1,209.000006378174,2|0,1:2|0:0,0:0:0:0:
324,316,20685,1,0,0:0:0:0:
168,316,20873,2,0,L|168:188,1,104.500003189087,8|0,0:0|0:0,0:0:0:0:
320,204,21248,2,0,L|444:204,1,104.500003189087,0|0,1:0|0:0,0:0:0:0:
152,336,21623,6,0,L|268:336,1,104.500003189087,2|0,1:2|0:0,0:0:0:0:
152,336,21998,2,0,L|152:196,1,104.500003189087,0|0,0:0|0:0,0:0:0:0:
312,216,22373,2,0,L|312:96,1,104.500003189087,8|0,0:0|0:0,0:0:0:0:
208,108,22748,1,0,0:0:0:0:
364,112,22935,1,0,0:0:0:0:
104,360,23123,6,0,L|104:244,1,104.500003189087,2|0,1:2|0:0,0:0:0:0:
272,256,23498,2,0,L|272:124,1,104.500003189087,2|0,0:0|0:0,0:0:0:0:
104,112,23873,2,0,L|244:112,1,104.500003189087,2|0,0:0|0:0,0:0:0:0:
390,114,24248,2,0,L|388:224,1,104.500003189087,2|0,0:0|0:0,0:0:0:0:
136,360,24623,5,8,0:0:0:0:
86,354,24716,1,0,0:0:0:0:
64,309,24810,1,0,0:0:0:0:
90,267,24904,1,0,0:0:0:0:
140,267,24998,1,8,0:0:0:0:
296,268,25185,2,0,L|352:268,2,52.2500015945435,0|0|8,0:0|0:0|0:0,0:0:0:0:
140,267,25560,1,0,0:0:0:0:
296,268,25748,2,0,L|416:268,1,104.500003189087,8|0,0:0|0:0,0:0:0:0:
144,208,26123,6,0,L|72:208,2,52.2500015945435,8|0|0,0:0|0:0|0:0,0:0:0:0:
196,208,26404,1,0,0:0:0:0:
143,208,26497,1,8,0:0:0:0:
91,208,26591,1,0,0:0:0:0:
144,208,26685,1,0,0:0:0:0:
300,208,26873,6,0,L|300:80,1,104.500003189087,8|0,0:0|0:0,0:0:0:0:
144,100,27248,2,0,L|24:100,1,104.500003189087,8|0,0:0|0:0,0:0:0:0:
304,288,27623,5,8,0:0:0:0:
354,286,27716,1,0,0:0:0:0:
379,243,27810,1,0,0:0:0:0:
357,199,27904,1,0,0:0:0:0:
307,193,27998,1,8,0:0:0:0:
152,196,28185,2,0,L|152:128,1,52.2500015945435,0|0,0:0|0:0,0:0:0:0:
208,144,28373,1,8,0:0:0:0:
364,144,28560,1,0,0:0:0:0:
208,144,28748,2,0,L|68:144,1,104.500003189087,8|0,0:0|0:0,0:0:0:0:
352,360,29123,6,0,L|352:300,1,52.2500015945435,8|0,0:0|0:0,0:0:0:0:
296,304,29310,2,0,L|240:304,1,52.2500015945435,0|0,0:0|0:0,0:0:0:0:
296,304,29498,1,8,0:0:0:0:
348,304,29591,1,0,0:0:0:0:
400,304,29685,1,0,0:0:0:0:
244,308,29873,2,0,L|116:308,1,104.500003189087,8|0,0:0|0:0,0:0:0:0:
296,304,30248,2,0,L|296:164,1,104.500003189087,8|0,0:0|0:0,0:0:0:0:
48,212,30623,5,8,0:0:0:0:
44,160,30716,1,0,0:0:0:0:
68,115,30810,1,0,0:0:0:0:
113,89,30904,1,0,0:0:0:0:
165,92,30998,1,8,0:0:0:0:
324,96,31185,1,0,0:0:0:0:
271,96,31278,1,0,0:0:0:0:
219,96,31372,1,8,0:0:0:0:
376,100,31560,1,0,0:0:0:0:
220,100,31748,2,0,L|108:100,1,104.500003189087,8|0,0:0|0:0,0:0:0:0:
368,272,32123,6,0,L|428:272,2,52.2500015945435,8|0|0,0:0|0:0|0:0,0:0:0:0:
312,272,32404,2,0,L|312:208,1,52.2500015945435,0|8,0:0|0:0,0:0:0:0:
420,212,32685,1,0,0:0:0:0:
264,212,32873,2,0,L|140:212,1,104.500003189087,8|0,0:0|0:0,0:0:0:0:
312,212,33248,2,0,L|428:212,1,104.500003189087,8|0,0:0|0:0,0:0:0:0:
148,160,33623,6,0,L|148:80,1,52.2500015945435,8|0,0:0|0:0,0:0:0:0:
204,104,33810,1,0,0:0:0:0:
260,112,33904,2,0,L|260:44,1,52.2500015945435,0|8,0:0|0:0,0:0:0:0:
104,60,34185,2,0,L|40:60,2,52.2500015945435,0|0|8,0:0|0:0|0:0,0:0:0:0:
260,56,34560,1,0,0:0:0:0:
104,60,34748,2,0,L|104:172,1,104.500003189087,8|0,0:0|0:0,0:0:0:0:
364,332,35123,6,0,L|364:268,1,52.2500015945435,8|0,0:0|0:0,0:0:0:0:
312,256,35310,1,0,0:0:0:0:
364,279,35404,2,0,L|456:280,1,52.2500015945435,0|8,0:0|0:0,0:0:0:0:
260,284,35685,1,0,0:0:0:0:
416,279,35873,2,0,L|416:147,1,104.500003189087,8|0,0:0|0:0,0:0:0:0:
260,156,36248,2,0,L|124:156,1,104.500003189087,8|0,0:0|0:0,0:0:0:0:
424,368,36623,6,0,P|488:324|408:244,1,209.000006378174,8|8,1:1|0:1,0:0:0:0:
212,241,37373,2,0,L|456:241,1,209.000006378174,8|8,0:1|0:1,0:0:0:0:
316,240,37935,1,0,0:0:0:0:
60,352,38123,6,0,L|304:352,1,209.000006378174,8|8,1:1|0:1,0:0:0:0:
60,352,38873,2,0,L|60:136,1,209.000006378174,8|8,0:1|0:1,0:0:0:0:
172,140,39435,1,0,0:0:0:0:
440,340,39623,6,0,L|440:204,1,104.500003189087,8|0,1:1|0:1,0:0:0:0:
284,236,39998,2,0,L|136:236,1,104.500003189087,8|0,0:1|0:1,0:0:0:0:
336,232,40373,2,0,L|336:104,1,104.500003189087,8|0,0:1|0:1,0:0:0:0:
180,128,40748,2,0,L|52:128,1,104.500003189087,8|0,0:1|0:1,0:0:0:0:
356,300,41123,6,0,L|484:300,1,104.500003189087,8|0,1:1|0:1,0:0:0:0:
304,300,41498,2,0,L|440:300,1,104.500003189087,8|0,0:1|0:1,0:0:0:0:
252,304,41873,2,0,L|252:168,1,104.500003189087,8|0,0:1|0:1,0:0:0:0:
408,196,42248,2,0,L|408:56,1,104.500003189087,8|0,0:1|0:1,0:0:0:0:
148,280,42623,6,0,L|268:280,1,104.500003189087,8|8,1:1|0:1,0:0:0:0:
96,284,42998,2,0,L|96:172,1,104.500003189087,8|8,0:1|0:1,0:0:0:0:
348,176,43373,2,0,L|216:176,1,104.500003189087,8|8,1:1|0:1,0:0:0:0:
400,176,43748,2,0,L|400:68,1,104.500003189087,8|8,0:1|0:1,0:0:0:0:
88,292,44123,6,0,L|208:292,1,104.500003189087,8|8,1:1|0:1,0:0:0:0:
36,292,44498,2,0,L|36:168,1,104.500003189087,8|8,0:1|0:1,0:0:0:0:
320,184,44873,2,0,L|200:184,1,104.500003189087,8|8,1:1|0:1,0:0:0:0:
372,184,45248,2,0,L|372:76,1,104.500003189087,8|8,0:1|0:1,0:0:0:0:
112,264,45623,6,0,L|0:264,1,104.500003189087,8|8,1:1|1:1,0:0:0:0:
180,192,45998,2,0,L|56:192,1,104.500003189087,8|8,1:1|1:1,0:0:0:0:
332,360,46373,2,0,L|332:220,1,104.500003189087,8|8,1:1|1:1,0:0:0:0:
164,264,46748,2,0,L|164:132,1,104.500003189087,8|8,1:1|1:1,0:0:0:0:
416,148,47123,5,8,1:1:0:0:
472,144,47216,1,8,1:1:0:0:
416,148,47310,1,8,1:1:0:0:
360,152,47404,1,8,1:1:0:0:
200,104,47498,2,0,L|136:104,1,52.2500015945435,8|8,1:1|0:1,0:0:0:0:
304,64,47685,2,0,L|372:64,1,52.2500015945435,0|0,0:1|0:1,0:0:0:0:
188,360,47873,6,0,B|100:360|100:232|188:232|188:232|364:232,1,365.750011161805,0|0,0:1|0:0,0:0:0:0:
184,172,48623,1,8,0:3:0:0:
132,172,48716,1,8,0:3:0:0:
80,172,48810,1,8,0:3:0:0:
132,172,48904,1,8,0:3:0:0:
340,364,48998,6,0,P|392:340|324:244,1,209.000006378174,8|0,0:1|0:0,0:0:0:0:
280,244,49466,1,0,0:0:0:0:
332,244,49560,1,0,0:0:0:0:
384,244,49654,1,0,0:0:0:0:
224,184,49748,2,0,L|224:100,1,52.2500015945435,8|0,0:1|0:0,0:0:0:0:
400,364,49935,6,0,P|456:344|380:264,1,209.000006378174,0|0,1:0|1:0,0:0:0:0:
224,260,50404,2,0,L|224:188,1,52.2500015945435,0|0,1:0|0:0,0:0:0:0:
276,208,50591,2,0,L|360:208,2,52.2500015945435,0|0|0,0:0|0:0|0:0,0:0:0:0:
88,372,50873,6,0,P|48:336|112:268,1,156.750004783631,8|0,1:0|0:0,0:0:0:0:
208,232,51248,2,0,L|48:232,1,156.750004783631,0|0,1:0|0:0,0:0:0:0:
208,232,51623,6,0,L|372:232,2,156.750004783631,0|0|0,1:0|1:0|1:0,0:0:0:0:
460,288,52373,2,0,L|460:140,1,104.500003189087,8|2,1:1|0:0,0:0:0:0:
300,188,52748,1,2,0:0:0:0:
404,188,52935,1,2,0:0:0:0:
124,352,53123,6,0,P|60:328|140:252,1,209.000006378174,0|0,1:0|1:0,0:0:0:0:
380,200,53685,1,0,1:0:0:0:
120,240,53873,2,0,P|120:168|344:112,1,313.500009567261,8|0,0:1|0:0,0:0:0:0:
60,364,54623,6,0,L|60:188,1,156.750004783631,0|0,1:0|0:0,0:0:0:0:
248,368,54998,2,0,P|320:312|228:272,1,209.000006378174,8|0,0:1|0:0,0:0:0:0:
196,264,55466,1,0,0:0:0:0:
144,264,55560,1,0,0:0:0:0:
196,264,55654,1,0,0:0:0:0:
356,264,55748,2,0,L|356:196,1,52.2500015945435,8|0,0:1|0:0,0:0:0:0:
176,208,55935,6,0,P|120:184|200:96,1,209.000006378174,0|0,1:0|1:0,0:0:0:0:
368,92,56404,1,0,1:0:0:0:
420,92,56498,2,0,L|420:280,1,156.750004783631,0|0,0:0|0:0,0:0:0:0:
224,344,56873,6,0,L|64:344,1,156.750004783631,8|0,0:1|0:0,0:0:0:0:
172,344,57248,2,0,L|364:344,1,156.750004783631,0|0,1:0|0:0,0:0:0:0:
120,296,57623,6,0,P|96:232|136:208,1,104.500003189087,0|0,1:0|1:0,0:0:0:0:
168,216,57904,1,0,1:0:0:0:
220,216,57998,1,0,1:0:0:0:
116,216,58185,1,0,1:0:0:0:
372,216,58373,2,0,L|372:88,1,104.500003189087,8|0,0:1|0:0,0:0:0:0:
212,116,58748,2,0,L|80:116,1,104.500003189087,0|0,1:0|0:0,0:0:0:0:
396,264,59123,6,0,L|208:264,2,156.750004783631,0|0|0,1:0|1:0|1:0,0:0:0:0:
144,200,59873,2,0,L|144:84,1,104.500003189087,8|0,1:0|0:0,0:0:0:0:
304,100,60248,2,0,L|416:100,1,104.500003189087,0|0,0:0|0:0,0:0:0:0:
152,364,60623,6,0,P|112:328|176:264,1,156.750004783631,0|0,1:0|0:0,0:0:0:0:
352,264,60998,2,0,P|364:200|244:132,1,209.000006378174,8|0,0:1|0:0,0:0:0:0:
308,128,61466,1,0,0:0:0:0:
360,128,61560,1,0,0:0:0:0:
308,132,61654,1,0,0:0:0:0:
152,312,61748,2,0,L|152:240,1,52.2500015945435,8|0,0:1|0:0,0:0:0:0:
320,256,61935,6,0,P|364:176|264:128,1,209.000006378174,0|0,1:0|1:0,0:0:0:0:
120,128,62498,2,0,L|120:4,1,104.500003189087,0|0,0:0|0:0,0:0:0:0:
372,312,62873,6,0,L|212:312,1,156.750004783631,8|0,0:1|0:0,0:0:0:0:
320,264,63248,2,0,L|488:264,1,156.750004783631,0|0,1:0|0:0,0:0:0:0:
296,336,63623,6,0,L|176:336,1,104.500003189087,0|0,1:0|1:0,0:0:0:0:
352,280,63998,2,0,L|352:152,1,104.500003189087,0|0,0:0|0:0,0:0:0:0:
300,176,64279,1,0,0:0:0:0:
136,176,64373,2,0,L|136:48,1,104.500003189087,8|0,0:1|1:0,0:0:0:0:
188,76,64654,2,0,L|312:76,1,104.500003189087,8|0,0:1|1:0,0:0:0:0:
344,76,64935,1,8,0:1:0:0:
92,264,65123,5,0,1:0:0:0:
248,268,65404,1,0,1:0:0:0:
92,264,65685,1,0,1:0:0:0:
360,368,65873,2,0,P|440:336|340:148,1,365.750011161805,8|0,0:1|0:0,0:0:0:0:
172,348,66623,6,0,L|172:184,1,156.750004783631,0|0,1:0|0:0,0:0:0:0:
352,192,66998,2,0,P|408:152|328:120,1,156.750004783631,8|0,0:1|0:0,0:0:0:0:
308,104,67373,2,0,L|472:104,1,156.750004783631,0|0,0:0|0:0,0:0:0:0:
296,304,67748,1,8,0:1:0:0:
192,308,67935,6,0,P|144:264|220:212,1,156.750004783631,0|0,1:0|0:0,0:0:0:0:
356,204,68310,1,0,1:0:0:0:
408,204,68404,1,0,1:0:0:0:
460,204,68498,1,0,0:0:0:0:
408,204,68591,1,0,0:0:0:0:
248,164,68685,1,0,0:0:0:0:
196,164,68779,1,0,0:0:0:0:
364,344,68873,6,0,L|364:240,1,104.500003189087,8|0,0:1|0:0,0:0:0:0:
204,328,69248,2,0,L|84:328,1,104.500003189087,0|0,1:0|0:0,0:0:0:0:
364,256,69623,6,0,L|184:256,2,156.750004783631,0|0|0,1:0|1:0|1:0,0:0:0:0:
96,256,70373,2,0,L|424:88,1,365.750011161805,8|0,0:1|0:0,0:0:0:0:
144,88,71123,1,0,1:0:0:0:
256,192,71310,12,0,72248,0:0:0:0:
256,192,72623,5,0,1:0:0:0:
256,192,80873,12,2,84248,0:0:0:0:
144,348,84623,6,0,P|84:311|168:248,1,190,8|0,0:0|0:0,0:0:0:0:
335,240,85373,2,0,L|136:238,1,190,8|0,0:0|0:0,0:0:0:0:
392,324,86123,6,0,L|392:192,1,95,8|0,0:0|0:0,0:0:0:0:
244,232,86498,2,0,L|244:108,1,95,0|0,0:0|0:0,0:0:0:0:
392,124,86873,2,0,L|172:124,1,190,8|0,0:0|0:0,0:0:0:0:
156,124,87341,1,0,0:0:0:0:
108,124,87435,1,0,0:0:0:0:
156,124,87529,1,0,0:0:0:0:
320,276,87623,6,0,L|456:276,1,95,8|0,0:0|0:0,0:0:0:0:
244,276,87998,2,0,L|376:276,1,95,0|0,0:0|0:0,0:0:0:0:
168,276,88373,2,0,L|292:276,1,95,8|0,0:0|0:0,0:0:0:0:
92,272,88748,2,0,L|92:168,1,95,0|0,0:0|0:0,0:0:0:0:
340,312,89123,6,0,L|216:312,1,95,8|0,0:0|0:0,0:0:0:0:
416,312,89498,2,0,L|416:208,1,95,0|0,0:0|0:0,0:0:0:0:
244,216,89873,2,0,L|464:216,1,191.89999619339,8|0,0:0|0:0,0:0:0:0:
340,224,90435,1,0,0:0:0:0:
88,348,90623,6,0,L|208:348,1,96.9000005914307,8|0,0:0|0:0,0:0:0:0:
28,348,90998,2,0,L|28:236,1,96.9000005914307,0|0,0:0|0:0,0:0:0:0:
184,256,91373,2,0,L|60:256,1,97.8499991788101,8|0,0:0|0:0,0:0:0:0:
244,260,91748,2,0,L|388:260,1,97.8499991788101,0|0,0:0|0:0,0:0:0:0:
84,180,92123,6,0,L|196:180,1,98.7999993969727,8|0,0:0|0:0,0:0:0:0:
24,176,92498,2,0,L|24:72,1,98.7999993969727,0|0,0:0|0:0,0:0:0:0:
196,72,92873,2,0,L|84:72,1,99.7499969558717,8|0,0:0|0:0,0:0:0:0:
256,72,93248,1,0,0:0:0:0:
305,72,93341,1,0,0:0:0:0:
355,72,93435,1,0,0:0:0:0:
308,72,93529,1,0,0:0:0:0:
144,220,93623,6,0,L|20:220,1,100.700000153656,8|0,0:0|0:0,0:0:0:0:
196,220,93998,2,0,L|84:220,1,100.700000153656,0|0,0:0|0:0,0:0:0:0:
248,220,94373,2,0,L|140:220,1,101.649996897888,8|0,0:0|0:0,0:0:0:0:
300,220,94748,2,0,L|416:220,1,101.649996897888,0|0,0:0|0:0,0:0:0:0:
128,136,95123,6,0,L|252:136,1,102.600002504883,8|0,0:0|0:0,0:0:0:0:
76,136,95498,2,0,L|76:256,1,102.600002504883,0|0,0:0|0:0,0:0:0:0:
328,252,95873,2,0,L|416:252,2,51.7750005530167,10|2|2,0:0|0:0|0:0,0:0:0:0:
172,252,96248,1,10,0:0:0:0:
328,252,96435,2,0,L|328:156,1,51.7750005530167,2|2,0:0|0:0,0:0:0:0:
152,192,96623,6,0,L|40:192,1,104.500003189087,8|2,1:0|0:0,0:0:0:0:
100,192,96904,1,2,0:0:0:0:
208,192,96998,2,0,L|208:60,1,104.500003189087,10|2,0:0|0:0,0:0:0:0:
40,80,97373,2,0,L|152:80,1,104.500003189087,10|2,0:0|0:0,0:0:0:0:
196,80,97654,1,2,0:0:0:0:
88,80,97748,2,0,L|88:216,1,104.500003189087,10|2,0:0|0:0,0:0:0:0:
352,324,98123,6,0,L|464:324,1,104.500003189087,10|2,0:0|0:0,0:0:0:0:
404,324,98404,1,2,0:0:0:0:
296,244,98498,2,0,L|176:244,1,104.500003189087,10|2,0:0|0:0,0:0:0:0:
352,184,98873,2,0,L|352:56,1,104.500003189087,10|2,0:0|0:0,0:0:0:0:
300,80,99154,1,2,0:0:0:0:
196,84,99248,1,10,0:0:0:0:
144,84,99341,1,2,0:0:0:0:
92,84,99435,1,2,0:0:0:0:
144,84,99529,1,2,0:0:0:0:
304,324,99623,6,0,L|432:324,1,104.500003189087,10|2,0:0|0:0,0:0:0:0:
244,240,99998,2,0,L|364:240,1,104.500003189087,10|2,0:0|0:0,0:0:0:0:
184,184,100373,2,0,L|304:184,1,104.500003189087,10|2,0:0|0:0,0:0:0:0:
128,148,100748,2,0,L|128:40,1,104.500003189087,10|2,0:0|0:0,0:0:0:0:
180,44,101029,1,2,0:0:0:0:
344,368,101123,6,0,L|344:240,1,104.500003189087,10|2,0:0|0:0,0:0:0:0:
184,264,101498,2,0,L|68:264,1,104.500003189087,10|2,0:0|0:0,0:0:0:0:
240,184,101873,2,0,L|368:184,1,104.500003189087,10|2,0:0|0:0,0:0:0:0:
292,184,102154,1,2,0:0:0:0:
184,192,102248,2,0,L|184:80,1,104.500003189087,10|2,0:0|0:0,0:0:0:0:
440,200,102623,6,0,L|316:200,1,104.500003189087,10|2,0:0|0:0,0:0:0:0:
284,200,102904,1,2,0:0:0:0:
392,152,102998,2,0,L|392:44,1,104.500003189087,10|2,0:0|0:0,0:0:0:0:
224,292,103373,6,0,L|336:292,1,104.500003189087,10|2,0:0|0:0,0:0:0:0:
276,292,103654,1,2,0:0:0:0:
172,288,103748,2,0,L|172:156,1,104.500003189087,10|2,0:0|0:0,0:0:0:0:
428,116,104123,6,0,L|308:116,1,104.500003189087,10|2,0:0|0:0,0:0:0:0:
376,116,104404,1,2,0:0:0:0:
484,116,104498,2,0,L|484:248,1,104.500003189087,10|2,0:0|0:0,0:0:0:0:
324,248,104873,6,0,L|448:248,1,104.500003189087,10|2,0:0|0:0,0:0:0:0:
376,248,105154,1,2,0:0:0:0:
268,180,105248,2,0,L|140:180,1,104.500003189087,10|2,0:0|0:0,0:0:0:0:
416,176,105623,6,0,L|416:64,1,104.500003189087,10|2,0:0|0:0,0:0:0:0:
260,72,105998,2,0,L|392:72,1,104.500003189087,10|2,0:0|0:0,0:0:0:0:
208,72,106373,6,0,L|208:200,1,104.500003189087,10|2,0:0|0:0,0:0:0:0:
364,176,106748,2,0,L|488:176,1,104.500003189087,10|2,0:0|0:0,0:0:0:0:
192,324,107123,6,0,L|56:324,1,104.500003189087,10|2,0:0|0:0,0:0:0:0:
244,324,107498,2,0,L|104:324,1,104.500003189087,10|2,0:0|0:0,0:0:0:0:
400,228,107873,6,0,L|460:228,2,52.2500015945435,2|2|2,0:0|0:0|0:0,0:0:0:0:
244,232,108248,2,0,L|392:228,1,104.500003189087,2|2,0:0|0:0,0:0:0:0:
72,228,108623,6,0,P|64:164|92:112,1,104.500003189087,2|2,1:0|0:0,0:0:0:0:
132,124,108904,1,2,0:0:0:0:
236,60,108998,2,0,L|120:60,1,104.500003189087,10|2,0:0|0:0,0:0:0:0:
396,364,109373,6,0,L|396:224,1,104.500003189087,2|2,0:0|0:0,0:0:0:0:
344,260,109654,1,2,0:0:0:0:
292,260,109748,1,10,0:0:0:0:
32,172,109935,6,0,L|148:172,1,104.500003189087,2|2,0:0|0:0,0:0:0:0:
188,172,110216,2,0,L|64:172,1,104.500003189087,2|0,0:0|0:0,0:0:0:0:
32,172,110498,1,10,0:0:0:0:
136,172,110685,1,2,0:0:0:0:
396,312,110873,6,0,P|412:256|376:220,1,104.500003189087,2|2,0:0|0:0,0:0:0:0:
332,224,111154,2,0,L|472:224,1,104.500003189087,2|0,0:0|0:0,0:0:0:0:
488,224,111435,1,2,0:0:0:0:
228,152,111623,6,0,L|100:152,1,104.500003189087,2|2,0:0|0:0,0:0:0:0:
176,152,111904,2,0,L|292:156,1,104.500003189087,2|2,0:0|0:0,0:0:0:0:
332,156,112185,1,2,0:0:0:0:
168,364,112373,6,0,L|16:364,1,104.500003189087,2|2,0:0|0:0,0:0:0:0:
12,364,112654,1,2,0:0:0:0:
63,364,112748,1,0,0:0:0:0:
332,280,112935,6,0,P|344:224|304:180,1,104.500003189087,2|2,0:0|0:0,0:0:0:0:
268,188,113216,2,0,L|160:188,1,104.500003189087,2|2,0:0|0:0,0:0:0:0:
112,188,113498,1,2,0:0:0:0:
368,128,113685,6,0,P|384:72|348:32,1,104.500003189087,2|2,0:0|0:0,0:0:0:0:
308,36,113966,2,0,L|452:36,1,104.500003189087,0|2,0:0|0:0,0:0:0:0:
464,36,114248,2,0,L|464:160,1,104.500003189087,0|2,0:0|0:0,0:0:0:0:
188,256,114623,6,0,L|312:256,1,104.500003189087,2|2,0:0|0:0,0:0:0:0:
344,256,114904,2,0,L|240:256,1,104.500003189087,2|2,0:0|0:0,0:0:0:0:
188,256,115185,1,2,0:0:0:0:
344,180,115373,6,0,L|488:180,1,104.500003189087,2|2,0:0|0:0,0:0:0:0:
396,180,115654,1,2,0:0:0:0:
344,180,115748,1,0,0:0:0:0:
84,360,115935,6,0,P|68:300|104:264,1,104.500003189087,2|2,0:0|0:0,0:0:0:0:
144,272,116216,2,0,L|272:272,1,104.500003189087,2|2,0:0|0:0,0:0:0:0:
196,276,116498,2,0,L|80:276,1,104.500003189087,2|2,0:0|0:0,0:0:0:0:
356,188,116873,6,0,L|224:188,1,104.500003189087,2|2,0:0|0:0,0:0:0:0:
200,188,117154,2,0,L|312:188,1,104.500003189087,2|2,0:0|0:0,0:0:0:0:
356,184,117435,1,2,0:0:0:0:
88,356,117623,6,0,P|72:296|112:252,1,104.500003189087,2|2,0:0|0:0,0:0:0:0:
160,264,117904,2,0,P|184:216|140:180,1,104.500003189087,2|2,0:0|0:0,0:0:0:0:
88,180,118185,1,2,0:0:0:0:
248,112,118373,6,0,L|376:112,1,104.500003189087,2|2,0:0|0:0,0:0:0:0:
300,112,118654,2,0,L|184:112,1,104.500003189087,2|2,0:0|0:0,0:0:0:0:
248,116,118935,1,2,0:0:0:0:
500,72,119123,5,2,0:0:0:0:
256,192,119310,12,0,119873,1:0:0:0:
108,344,120248,6,0,L|108:216,1,104.500003189087,2|2,0:0|0:0,0:0:0:0:
360,232,120623,6,0,L|492:232,1,104.500003189087,2|0,1:2|0:0,0:0:0:0:
208,232,120998,2,0,L|208:92,1,104.500003189087,2|0,1:2|0:0,0:0:0:0:
464,148,121373,2,0,L|336:148,1,104.500003189087,2|0,1:2|0:2,0:0:0:0:
308,148,121654,2,0,L|448:148,1,104.500003189087,2|0,1:2|0:2,0:0:0:0:
240,360,121935,6,0,P|232:300|252:252,1,104.500003189087,2|0,1:2|0:2,0:0:0:0:
352,260,122310,1,2,1:2:0:0:
96,264,122498,2,0,L|96:116,1,104.500003189087,2|0,1:2|0:0,0:0:0:0:
368,140,122873,2,0,L|252:140,1,104.500003189087,2|0,1:2|0:2,0:0:0:0:
212,140,123154,2,0,L|328:140,1,104.500003189087,2|2,1:2|0:2,0:0:0:0:
368,144,123435,1,2,1:2:0:0:
108,360,123623,6,0,L|108:256,1,104.500003189087,2|0,1:2|0:0,0:0:0:0:
364,252,123998,2,0,L|480:252,1,104.500003189087,2|0,1:2|0:0,0:0:0:0:
200,176,124373,2,0,L|324:176,1,104.500003189087,2|0,1:2|0:2,0:0:0:0:
252,176,124654,2,0,L|116:176,1,104.500003189087,2|0,1:2|0:2,0:0:0:0:
308,368,124935,6,0,P|320:308|292:264,1,104.500003189087,2|0,1:2|0:2,0:0:0:0:
196,272,125310,1,2,1:2:0:0:
452,216,125498,2,0,L|452:72,1,104.500003189087,2|0,1:2|0:0,0:0:0:0:
200,112,125873,2,0,L|328:112,1,104.500003189087,2|2,1:2|0:2,0:0:0:0:
252,112,126154,2,0,L|128:112,1,104.500003189087,0|0,1:2|0:2,0:0:0:0:
147,112,126435,1,2,1:2:0:0:
408,352,126623,6,0,L|296:352,1,104.500003189087,2|0,1:2|0:2,0:0:0:0:
40,276,126998,2,0,L|160:276,1,104.500003189087,2|0,1:2|0:2,0:0:0:0:
396,268,127373,2,0,P|408:216|380:156,1,104.500003189087,2|0,1:2|0:2,0:0:0:0:
340,168,127654,2,0,L|220:168,1,104.500003189087,2|0,1:2|0:2,0:0:0:0:
396,328,127935,6,0,L|500:328,2,104.500003189087,2|0|2,1:2|0:2|1:2,0:0:0:0:
140,296,128498,2,0,L|12:296,1,104.500003189087,2|0,1:2|0:0,0:0:0:0:
288,240,128873,2,0,P|296:176|272:128,1,104.500003189087,2|0,1:2|0:2,0:0:0:0:
228,140,129154,2,0,L|112:140,1,104.500003189087,2|0,1:2|0:2,0:0:0:0:
176,140,129435,1,2,1:2:0:0:
440,364,129623,6,0,L|440:232,1,104.500003189087,2|0,1:2|0:2,0:0:0:0:
188,252,129998,2,0,L|64:252,1,104.500003189087,2|0,1:2|0:2,0:0:0:0:
336,168,130373,2,0,L|448:168,1,104.500003189087,2|0,1:2|0:2,0:0:0:0:
388,168,130654,2,0,L|272:168,1,104.500003189087,2|2,1:2|0:2,0:0:0:0:
448,300,130935,6,0,P|480:244|424:108,1,209.000006378174,2|2,1:0|0:0,0:0:0:0:
276,52,131498,2,0,L|420:52,1,104.500003189087,2|0,0:0|0:0,0:0:0:0:
328,52,131779,1,2,0:0:0:0:
172,364,131873,2,0,L|172:236,1,104.500003189087,2|0,0:0|0:0,0:0:0:0:
328,256,132248,2,0,L|460:256,1,104.500003189087,2|2,0:0|0:0,0:0:0:0:
144,192,132623,6,0,P|124:132|172:92,1,104.500003189087,2|0,1:2|0:2,0:0:0:0:
196,104,132904,1,0,1:2:0:0:
360,100,132998,2,0,L|480:100,1,104.500003189087,2|0,1:2|1:2,0:0:0:0:
208,364,133373,2,0,P|188:308|232:276,1,104.500003189087,2|0,0:2|1:2,0:0:0:0:
268,280,133654,2,0,L|400:280,1,104.500003189087,2|0,0:2|0:2,0:0:0:0:
200,232,133935,6,0,L|200:120,1,104.500003189087,2|0,0:2|1:2,0:0:0:0:
356,68,134310,2,0,L|272:68,1,52.2500015945435,2|0,0:2|1:2,0:0:0:0:
144,360,134498,2,0,L|36:360,1,104.500003189087,2|0,1:2|1:2,0:0:0:0:
292,280,134873,2,0,L|292:208,1,52.2500015945435,0|2,0:2|1:2,0:0:0:0:
240,228,135060,2,0,L|164:228,2,52.2500015945435,0|0|2,1:2|0:2|1:2,0:0:0:0:
388,208,135435,1,2,1:2:0:0:
136,260,135623,6,0,L|31:260,1,104.500003189087,2|0,1:2|0:2,0:0:0:0:
84,260,135904,1,0,1:2:0:0:
244,264,135998,2,0,L|348:264,1,104.500003189087,2|0,1:2|1:2,0:0:0:0:
92,196,136373,2,0,P|75:147|96:101,1,104.500003189087,2|0,0:2|1:2,0:0:0:0:
148,100,136654,2,0,L|252:100,1,104.500003189087,2|0,0:2|0:2,0:0:0:0:
84,380,136935,6,0,L|84:275,1,104.500003189087,2|0,1:2|1:2,0:0:0:0:
240,228,137310,2,0,L|292:228,1,52.2500015945435,2|0,0:2|1:2,0:0:0:0:
132,172,137498,2,0,L|27:172,1,104.500003189087,0|0,1:2|1:2,0:0:0:0:
284,104,137873,2,0,L|284:32,1,52.2500015945435,2|0,1:2|1:2,0:0:0:0:
232,56,138060,1,0,0:2:0:0:
284,51,138154,1,2,0:2:0:0:
336,56,138248,1,0,1:2:0:0:
180,224,138435,1,2,1:2:0:0:
436,368,138623,6,0,P|464:304|420:272,1,104.500003189087,2|0,1:2|0:2,0:0:0:0:
396,284,138904,1,0,1:2:0:0:
236,292,138998,2,0,L|112:292,1,104.500003189087,2|0,1:2|1:2,0:0:0:0:
384,152,139373,2,0,L|508:152,1,104.500003189087,2|0,0:2|0:2,0:0:0:0:
436,152,139654,2,0,L|320:152,1,104.500003189087,2|0,0:2|0:2,0:0:0:0:
168,368,139935,6,0,P|148:304|184:268,1,104.500003189087,2|0,1:2|1:2,0:0:0:0:
320,272,140310,2,0,L|392:272,1,52.2500015945435,2|0,0:2|1:2,0:0:0:0:
212,220,140498,2,0,L|88:220,1,104.500003189087,2|0,1:2|1:2,0:0:0:0:
364,156,140873,2,0,L|436:156,2,52.2500015945435,2|0|0,0:2|1:2|1:2,0:0:0:0:
312,156,141154,2,0,L|312:80,1,52.2500015945435,2|0,0:2|1:2,0:0:0:0:
468,76,141435,1,2,1:2:0:0:
204,276,141623,6,0,L|92:276,1,104.500003189087,2|0,1:2|0:2,0:0:0:0:
152,276,141904,1,0,1:2:0:0:
308,276,141998,2,0,L|308:156,1,104.500003189087,2|0,1:2|1:2,0:0:0:0:
52,112,142373,2,0,L|160:112,1,104.500003189087,2|0,1:2|0:2,0:0:0:0:
208,112,142654,2,0,L|88:112,1,104.500003189087,2|0,1:2|0:2,0:0:0:0:
280,360,142935,6,0,P|344:324|264:240,1,209.000006378174,2|2,1:2|0:2,0:0:0:0:
128,232,143498,2,0,L|128:100,1,104.500003189087,2|0,0:2|0:2,0:0:0:0:
288,136,143873,2,0,L|288:12,1,104.500003189087,2|0,0:2|0:2,0:0:0:0:
132,48,144248,1,2,0:2:0:0:
80,48,144341,1,2,0:2:0:0:
28,48,144435,1,2,0:2:0:0:
80,48,144529,1,2,0:2:0:0:
264,372,144623,6,0,L|264:256,1,104.500003189087,0|0,1:0|0:0,0:0:0:0:
160,276,144998,2,0,L|160:140,1,104.500003189087,10|0,0:0|0:0,0:0:0:0:
320,88,145373,2,0,L|184:88,1,104.500003189087,2|0,0:0|0:0,0:0:0:0:
268,88,145654,2,0,L|400:88,1,104.500003189087,2|0,0:0|0:0,0:0:0:0:
220,192,145935,6,0,L|104:192,2,104.500003189087,2|0|2,0:0|0:0|0:0,0:0:0:0:
384,332,146498,2,0,L|384:188,1,104.500003189087,10|0,0:0|0:0,0:0:0:0:
224,120,146873,2,0,L|344:120,1,104.500003189087,2|0,0:0|0:0,0:0:0:0:
380,120,147154,2,0,L|256:120,1,104.500003189087,2|0,0:0|0:0,0:0:0:0:
224,120,147435,1,2,0:0:0:0:
480,272,147623,6,0,L|480:148,1,104.500003189087,2|0,0:0|0:0,0:0:0:0:
376,172,147998,2,0,L|492:172,1,104.500003189087,10|0,0:0|0:0,0:0:0:0:
320,268,148373,2,0,P|300:200|344:168,1,104.500003189087,2|0,0:0|0:0,0:0:0:0:
368,176,148654,2,0,L|496:176,1,104.500003189087,2|0,0:0|0:0,0:0:0:0:
304,372,148935,6,0,P|284:312|320:272,1,104.500003189087,2|0,0:0|0:0,0:0:0:0:
408,284,149310,1,2,0:0:0:0:
248,216,149498,2,0,L|120:216,1,104.500003189087,10|0,0:0|0:0,0:0:0:0:
304,216,149873,2,0,L|440:216,1,104.500003189087,2|0,0:0|0:0,0:0:0:0:
460,216,150154,2,0,L|332:216,1,104.500003189087,2|0,0:0|0:0,0:0:0:0:
304,216,150435,1,2,0:0:0:0:
56,360,150623,6,0,L|56:232,1,104.500003189087,2|0,0:0|0:0,0:0:0:0:
212,260,150998,2,0,L|212:136,1,104.500003189087,10|0,0:0|0:0,0:0:0:0:
56,152,151373,2,0,L|176:152,1,104.500003189087,2|0,0:0|0:0,0:0:0:0:
212,155,151654,2,0,L|100:155,1,104.500003189087,2|0,0:0|0:0,0:0:0:0:
264,336,151935,6,0,L|380:336,1,104.500003189087,2|0,0:0|0:0,0:0:0:0:
212,332,152310,1,2,0:0:0:0:
368,336,152498,2,0,L|368:212,1,104.500003189087,10|0,0:0|0:0,0:0:0:0:
212,236,152873,2,0,P|196:176|232:140,1,104.500003189087,2|0,0:0|0:0,0:0:0:0:
272,144,153154,2,0,L|392:144,1,104.500003189087,2|0,0:0|0:0,0:0:0:0:
320,148,153435,1,2,0:0:0:0:
56,368,153623,6,0,L|56:248,1,104.500003189087,2|0,0:0|0:0,0:0:0:0:
212,260,153998,2,0,L|96:260,1,104.500003189087,10|0,0:0|0:0,0:0:0:0:
264,260,154373,2,0,P|280:200|248:164,1,104.500003189087,2|0,0:0|0:0,0:0:0:0:
200,172,154654,2,0,L|92:172,1,104.500003189087,2|0,0:0|0:0,0:0:0:0:
280,364,154935,6,0,P|292:296|264:248,1,104.500003189087,2|0,0:0|0:0,0:0:0:0:
120,260,155310,1,2,0:0:0:0:
276,256,155498,2,0,L|384:256,1,104.500003189087,10|0,0:0|0:0,0:0:0:0:
224,256,155873,2,0,L|104:256,1,104.500003189087,2|0,0:0|0:0,0:0:0:0:
64,256,156154,2,0,L|192:256,1,104.500003189087,2|0,0:0|0:0,0:0:0:0:
224,256,156435,1,2,0:0:0:0:
492,276,156623,6,0,L|492:132,1,104.500003189087,0|2,1:0|0:0,0:0:0:0:
412,172,156904,1,2,0:0:0:0:
332,172,156998,2,0,L|332:44,1,104.500003189087,0|2,1:0|0:0,0:0:0:0:
252,68,157279,1,2,0:0:0:0:
172,64,157373,6,0,L|172:200,1,104.500003189087,0|2,1:0|0:0,0:0:0:0:
252,176,157654,1,2,0:0:0:0:
332,176,157748,2,0,L|332:308,1,104.500003189087,0|2,1:0|0:0,0:0:0:0:
252,280,158029,1,2,0:0:0:0:
172,284,158123,6,0,L|172:160,1,104.500003189087,0|2,1:0|0:0,0:0:0:0:
92,180,158404,1,2,0:0:0:0:
12,180,158498,2,0,L|12:56,1,104.500003189087,0|2,1:0|0:0,0:0:0:0:
92,76,158779,1,2,0:0:0:0:
172,76,158873,6,0,L|284:76,1,104.500003189087,0|2,1:0|0:0,0:0:0:0:
196,76,159154,1,2,0:0:0:0:
116,76,159248,2,0,L|116:224,1,104.500003189087,0|2,1:0|0:0,0:0:0:0:
380,212,159623,6,0,L|484:212,1,104.500003189087,0|2,1:0|0:0,0:0:0:0:
400,212,159904,1,2,0:0:0:0:
316,212,159998,2,0,L|316:80,1,104.500003189087,0|2,1:0|0:0,0:0:0:0:
232,108,160279,1,2,0:0:0:0:
148,108,160373,6,0,L|24:108,1,104.500003189087,0|2,1:0|0:0,0:0:0:0:
128,108,160654,1,2,0:0:0:0:
212,108,160748,2,0,L|340:108,1,104.500003189087,0|2,1:0|0:0,0:0:0:0:
232,108,161029,1,2,0:0:0:0:
148,108,161123,6,0,L|148:236,1,104.500003189087,0|2,1:0|0:0,0:0:0:0:
232,212,161404,1,2,0:0:0:0:
316,220,161498,2,0,L|316:88,1,104.500003189087,0|2,1:0|0:0,0:0:0:0:
232,120,161779,1,2,0:0:0:0:
148,120,161873,2,0,L|288:120,1,104.500003189087,0|2,1:0|0:0,0:0:0:0:
336,120,162154,1,2,0:0:0:0:
420,124,162248,2,0,L|420:252,1,104.500003189087,0|2,1:0|0:0,0:0:0:0:
136,360,162623,6,0,L|24:360,1,104.500003189087,0|0,1:2|1:2,0:0:0:0:
188,368,162998,2,0,L|188:248,1,104.500003189087,0|0,1:2|1:2,0:0:0:0:
32,260,163373,2,0,L|32:152,1,104.500003189087,0|0,1:2|1:2,0:0:0:0:
188,156,163748,2,0,L|76:156,1,104.500003189087,0|0,1:2|1:2,0:0:0:0:
380,164,164123,6,0,L|496:164,1,104.500003189087,0|0,1:2|1:2,0:0:0:0:
328,164,164498,2,0,L|212:164,1,104.500003189087,0|0,1:2|1:2,0:0:0:0:
380,164,164873,2,0,L|484:164,1,104.500003189087,0|0,1:2|1:2,0:0:0:0:
328,164,165248,2,0,L|440:164,1,104.500003189087,0|0,1:2|1:2,0:0:0:0:
160,368,165623,5,0,1:2:0:0:
108,368,165716,1,0,1:2:0:0:
63,343,165810,1,0,1:2:0:0:
38,298,165904,1,0,1:2:0:0:
38,246,165998,1,0,1:2:0:0:
66,203,166091,1,0,1:2:0:0:
112,179,166185,1,0,1:2:0:0:
163,182,166279,1,0,1:2:0:0:
324,184,166373,5,0,1:2:0:0:
376,184,166466,1,0,1:2:0:0:
428,184,166560,1,0,1:2:0:0:
376,184,166654,1,0,1:2:0:0:
216,108,166748,6,0,L|140:108,1,52.2500015945435,0|0,1:2|1:2,0:0:0:0:
328,48,166935,2,0,L|400:48,1,52.2500015945435,0|0,1:2|1:2,0:0:0:0:
216,48,167123,1,0,1:2:0:0:
304,284,168248,5,0,0:0:0:0:
356,284,168341,1,0,0:0:0:0:
172,256,168435,1,0,0:0:0:0:
120,256,168529,1,0,0:0:0:0:
276,208,168623,6,0,L|396:208,1,104.500003189087,0|0,1:0|0:0,0:0:0:0:
276,208,168904,2,0,L|144:208,1,104.500003189087,0|0,1:0|0:0,0:0:0:0:
119,208,169185,2,0,L|187:208,1,52.2500015945435,0|0,1:0|0:0,0:0:0:0:
356,148,169373,1,8,0:1:0:0:
408,148,169466,2,0,L|408:308,1,156.750004783631,0|0,0:0|0:0,0:0:0:0:
84,304,169935,6,0,L|328:304,1,209.000006378174,0|0,1:0|0:0,0:0:0:0:
128,252,170498,2,0,L|128:104,1,104.500003189087,0|0,1:0|0:0,0:0:0:0:
384,88,170873,2,0,L|260:88,1,104.500003189087,8|0,0:1|0:0,0:0:0:0:
228,88,171154,1,0,0:0:0:0:
280,88,171248,2,0,L|408:88,1,104.500003189087,0|0,0:0|0:0,0:0:0:0:
112,352,171623,6,0,P|96:292|152:256,1,104.500003189087,0|0,1:0|0:0,0:0:0:0:
228,264,171904,2,0,L|344:264,1,104.500003189087,0|0,1:0|0:0,0:0:0:0:
384,264,172185,2,0,L|308:264,1,52.2500015945435,0|0,1:0|0:0,0:0:0:0:
144,220,172373,2,0,L|20:220,1,104.500003189087,8|0,0:1|0:0,0:0:0:0:
92,220,172654,1,0,0:0:0:0:
144,220,172748,1,0,0:0:0:0:
400,224,172935,6,0,P|460:184|376:104,1,209.000006378174,0|0,1:0|0:0,0:0:0:0:
232,100,173498,2,0,L|120:100,1,104.500003189087,0|0,1:0|0:0,0:0:0:0:
380,356,173873,2,0,L|380:244,1,104.500003189087,8|0,0:1|0:0,0:0:0:0:
224,260,174248,2,0,L|112:260,1,104.500003189087,0|0,0:0|0:0,0:0:0:0:
372,184,174623,6,0,L|264:184,1,104.500003189087,8|0,1:2|0:0,0:0:0:0:
424,188,174998,2,0,L|424:60,1,104.500003189087,8|0,0:0|0:0,0:0:0:0:
372,88,175279,1,0,0:0:0:0:
260,88,175373,2,0,L|376:88,1,104.500003189087,8|0,0:0|0:0,0:0:0:0:
208,80,175748,2,0,L|208:188,1,104.500003189087,8|0,0:0|0:0,0:0:0:0:
460,360,176123,6,0,L|460:288,1,52.2500015945435,8|0,0:0|0:0,0:0:0:0:
408,308,176310,2,0,L|344:308,1,52.2500015945435,0|0,0:0|0:0,0:0:0:0:
240,304,176498,2,0,L|240:220,1,52.2500015945435,8|0,0:0|0:0,0:0:0:0:
292,244,176685,2,0,L|352:244,1,52.2500015945435,0|0,0:0|0:0,0:0:0:0:
180,176,176873,2,0,L|64:176,1,104.500003189087,8|0,0:0|0:0,0:0:0:0:
236,112,177248,2,0,L|356:112,1,104.500003189087,8|0,0:0|0:0,0:0:0:0:
68,268,177623,5,8,0:0:0:0:
16,268,177716,1,0,0:0:0:0:
16,268,177810,1,8,0:0:0:0:
68,268,177904,1,0,0:0:0:0:
184,272,177998,2,0,L|184:204,1,52.2500015945435,8|0,0:0|0:0,0:0:0:0:
132,216,178185,2,0,L|132:132,1,52.2500015945435,8|0,0:0|0:0,0:0:0:0:
296,160,178373,6,0,L|384:160,1,52.2500015945435,8|0,0:0|0:0,0:0:0:0:
296,160,178560,2,0,L|232:160,1,52.2500015945435,8|0,0:0|0:0,0:0:0:0:
360,96,178748,2,0,L|420:96,1,52.2500015945435,8|0,0:0|0:0,0:0:0:0:
464,96,178935,2,0,L|380:96,1,52.2500015945435,8|0,0:0|0:0,0:0:0:0:
220,248,179123,5,8,0:0:0:0:
168,248,179216,1,8,0:0:0:0:
116,248,179310,1,8,0:0:0:0:
168,248,179404,1,8,0:0:0:0:
328,180,179498,1,8,0:0:0:0:
380,180,179591,1,8,0:0:0:0:
432,180,179685,1,8,0:0:0:0:
380,180,179779,1,8,0:0:0:0:
224,344,179873,6,0,L|224:276,1,52.2500015945435,8|0,0:0|0:0,0:0:0:0:
276,292,180060,2,0,L|344:292,1,52.2500015945435,0|0,0:0|0:0,0:0:0:0:
152,220,180248,2,0,L|96:220,1,52.2500015945435,0|0,0:0|0:0,0:0:0:0:
268,168,180435,2,0,L|324:168,1,52.2500015945435,0|2,0:0|0:0,0:0:0:0:
152,108,180623,6,0,P|136:48|180:12,1,104.500003189087,0|0,1:0|0:0,0:0:0:0:
276,372,180904,2,0,L|402:373,1,104.500003189087,0|0,1:0|0:0,0:0:0:0:
330,373,181185,2,0,L|266:373,1,52.2500015945435,0|0,1:0|0:0,0:0:0:0:
118,309,181373,1,8,0:1:0:0:
66,309,181466,2,0,P|26:253|82:185,1,156.750004783631,0|0,0:0|0:0,0:0:0:0:
336,360,181935,6,0,L|100:360,1,209.000006378174,0|0,1:0|0:0,0:0:0:0:
288,260,182498,2,0,L|408:260,1,104.500003189087,0|0,1:0|0:0,0:0:0:0:
140,208,182873,2,0,L|140:96,1,104.500003189087,8|0,0:1|0:0,0:0:0:0:
192,104,183154,1,0,0:0:0:0:
244,104,183248,2,0,L|360:104,1,104.500003189087,0|0,0:0|0:0,0:0:0:0:
68,288,183623,6,0,L|176:288,1,104.500003189087,0|0,1:0|0:0,0:0:0:0:
280,192,183904,2,0,L|168:192,1,104.500003189087,0|0,1:0|0:0,0:0:0:0:
124,192,184185,1,0,1:0:0:0:
384,356,184373,2,0,L|508:356,1,104.500003189087,8|0,0:1|0:0,0:0:0:0:
436,356,184654,1,0,0:0:0:0:
384,356,184748,1,0,0:0:0:0:
132,368,184935,6,0,L|132:252,1,104.500003189087,0|0,1:0|0:0,0:0:0:0:
292,200,185310,2,0,L|64:200,1,209.000006378174,0|0,1:0|0:0,0:0:0:0:
344,312,185873,2,0,L|344:192,1,104.500003189087,8|2,0:1|0:0,0:0:0:0:
192,208,186248,2,0,L|88:208,1,104.500003189087,2|2,0:0|0:0,0:0:0:0:
340,364,186623,6,0,L|340:296,1,52.2500015945435,2|0,0:0|0:0,0:0:0:0:
288,312,186810,2,0,L|208:312,1,52.2500015945435,2|0,0:0|0:0,0:0:0:0:
344,256,186998,2,0,L|464:256,1,104.500003189087,2|0,0:0|0:0,0:0:0:0:
292,216,187373,6,0,L|292:88,1,104.500003189087,2|2,0:0|0:0,0:0:0:0:
448,124,187748,2,0,L|448:248,1,104.500003189087,2|0,0:0|0:0,0:0:0:0:
192,356,188123,6,0,L|192:292,1,52.2500015945435,2|0,0:0|0:0,0:0:0:0:
244,300,188310,2,0,L|320:300,1,52.2500015945435,2|0,0:0|0:0,0:0:0:0:
188,216,188498,2,0,L|60:216,1,104.500003189087,2|0,0:0|0:0,0:0:0:0:
240,216,188873,6,0,L|240:84,1,104.500003189087,2|2,0:0|0:0,0:0:0:0:
84,116,189248,2,0,L|84:4,1,104.500003189087,2|0,0:0|0:0,0:0:0:0:
352,332,189623,6,0,L|472:332,1,104.500003189087,2|2,0:0|0:0,0:0:0:0:
300,332,189998,2,0,L|436:332,1,104.500003189087,2|2,0:0|0:0,0:0:0:0:
248,332,190373,2,0,L|360:332,1,104.500003189087,2|2,0:0|0:0,0:0:0:0:
196,336,190748,2,0,L|196:200,1,104.500003189087,2|0,0:0|0:0,0:0:0:0:
456,232,191123,6,0,L|456:112,1,104.500003189087,2|2,0:0|0:0,0:0:0:0:
300,128,191498,2,0,L|432:128,1,104.500003189087,2|2,0:0|0:0,0:0:0:0:
148,360,191873,2,0,P|88:332|164:240,1,209.000006378174,2|0,0:0|0:0,0:0:0:0:
300,232,192435,2,0,L|300:160,1,52.2500015945435,0|0,0:0|0:0,0:0:0:0:
112,360,192623,6,0,P|64:324|136:268,1,156.750004783631,0|0,1:0|0:0,0:0:0:0:
276,284,192998,2,0,L|424:284,1,104.500003189087,0|0,0:0|0:0,0:0:0:0:
120,220,193373,2,0,L|12:220,2,104.500003189087,8|0|0,0:1|0:0|0:0,0:0:0:0:
368,172,193935,2,0,L|428:172,1,52.2500015945435,0|0,1:0|0:0,0:0:0:0:
368,172,194123,6,0,L|248:172,1,104.500003189087,0|0,0:0|0:0,0:0:0:0:
424,336,194498,2,0,L|424:212,1,104.500003189087,0|0,0:0|0:0,0:0:0:0:
372,232,194779,1,0,0:0:0:0:
212,232,194873,6,0,L|96:232,1,104.500003189087,8|2,0:1|0:0,0:0:0:0:
160,232,195154,1,0,1:0:0:0:
320,168,195248,2,0,L|436:168,1,104.500003189087,2|2,0:0|1:2,0:0:0:0:
372,168,195529,1,0,0:0:0:0:
208,364,195623,6,0,P|160:332|224:280,1,156.750004783631,0|0,1:0|0:0,0:0:0:0:
380,272,195998,2,0,L|380:160,1,104.500003189087,0|0,0:0|0:0,0:0:0:0:
112,100,196373,2,0,L|224:100,2,104.500003189087,8|0|0,0:1|0:0|0:0,0:0:0:0:
376,356,196935,2,0,L|376:284,1,52.2500015945435,0|0,1:0|0:0,0:0:0:0:
324,304,197123,6,0,L|456:304,1,104.500003189087,0|0,0:0|0:0,0:0:0:0:
272,208,197498,2,0,L|128:208,1,104.500003189087,0|0,0:0|0:0,0:0:0:0:
220,208,197779,1,0,0:0:0:0:
392,208,197873,2,0,P|408:144|376:104,1,104.500003189087,8|2,0:1|0:0,0:0:0:0:
336,112,198154,1,0,1:0:0:0:
156,372,198248,2,0,P|136:312|180:272,1,104.500003189087,2|2,0:0|1:2,0:0:0:0:
208,280,198529,1,0,0:0:0:0:
396,272,198623,6,0,P|448:224|368:184,1,156.750004783631,0|0,1:0|0:0,0:0:0:0:
240,176,198998,2,0,L|112:176,1,104.500003189087,0|0,0:0|0:0,0:0:0:0:
388,92,199373,2,0,L|504:92,2,104.500003189087,8|0|0,0:1|0:0|0:0,0:0:0:0:
128,352,199935,2,0,L|128:280,1,52.2500015945435,0|0,1:0|0:0,0:0:0:0:
180,300,200123,6,0,L|308:300,1,104.500003189087,0|0,0:0|0:0,0:0:0:0:
120,240,200498,2,0,P|92:172|128:132,1,104.500003189087,0|0,0:0|0:0,0:0:0:0:
156,148,200779,1,0,0:0:0:0:
324,152,200873,2,0,L|436:152,1,104.500003189087,8|2,0:1|0:0,0:0:0:0:
376,152,201154,1,0,1:0:0:0:
204,84,201248,2,0,L|84:84,1,104.500003189087,2|2,0:0|1:2,0:0:0:0:
152,84,201529,1,0,0:0:0:0:
320,320,201623,6,0,P|368:272|300:224,1,156.750004783631,0|0,1:0|0:0,0:0:0:0:
152,228,201998,2,0,L|32:228,1,104.500003189087,0|0,0:0|0:0,0:0:0:0:
312,144,202373,2,0,L|192:144,2,104.500003189087,8|0|0,0:1|0:0|0:0,0:0:0:0:
56,72,202935,2,0,L|108:72,1,52.2500015945435,0|0,1:0|0:0,0:0:0:0:
160,72,203123,6,0,L|284:72,1,104.500003189087,0|0,0:0|0:0,0:0:0:0:
108,208,203498,1,0,0:0:0:0:
56,208,203591,1,0,0:0:0:0:
56,208,203685,1,2,0:0:0:0:
108,208,203779,1,2,0:0:0:0:
268,204,203873,2,0,L|372:204,1,104.500003189087,2|2,0:0|0:0,0:0:0:0:
216,204,204248,2,0,L|216:88,1,104.500003189087,2|2,0:0|0:0,0:0:0:0:
476,100,204623,5,4,0:0:0:0:
