osu file format v14

[General]
AudioFilename: audio.mp3
AudioLeadIn: 0
PreviewTime: 168623
Countdown: 0
SampleSet: Soft
StackLeniency: 0.7
Mode: 2
LetterboxInBreaks: 0
WidescreenStoryboard: 1

[Editor]
Bookmarks: 72576,96576,108576,114576,132576,207951
DistanceSpacing: 1
BeatDivisor: 4
GridSize: 4
TimelineZoom: 2.4

[Metadata]
Title:CANDYYYLAND feat. LIZ (Pa's Lam System Remix)
TitleUnicode:CAND¥¥¥LAND feat. LIZ (Pa's Lam System Remix)
Artist:tofubeats
ArtistUnicode:tofubeats
Creator:Kukkai
Version:Deluge
Source:
Tags:GiGas future bass instrumental electronic english candyland candy land
BeatmapID:1590861
BeatmapSetID:697012

[Difficulty]
HPDrainRate:6
CircleSize:4
OverallDifficulty:9.5
ApproachRate:9.5
SliderMultiplier:2.05
SliderTickRate:2

[Events]
//Background and Video events
0,0,"sugarrush.png",0,0
//Break Periods
2,72823,80348
//Storyboard Layer 0 (Background)
//Storyboard Layer 1 (Fail)
//Storyboard Layer 2 (Pass)
//Storyboard Layer 3 (Foreground)
//Storyboard Layer 4 (Overlay)
//Storyboard Sound Samples

[TimingPoints]
623,375,4,2,1,40,1,0
623,-111.111111111111,4,2,1,40,0,0
716,-111.111111111111,4,2,1,5,0,0
2123,-111.111111111111,4,2,1,40,0,0
2216,-111.111111111111,4,2,1,5,0,0
3623,-111.111111111111,4,2,1,40,0,0
3716,-111.111111111111,4,2,1,5,0,0
5123,-111.111111111111,4,2,1,40,0,0
5216,-111.111111111111,4,2,1,5,0,0
5873,-111.111111111111,4,2,1,40,0,0
5966,-111.111111111111,4,2,1,5,0,0
6623,-111.111111111111,4,2,1,40,0,0
6716,-111.111111111111,4,2,1,5,0,0
8123,-111.111111111111,4,2,1,40,0,0
8216,-111.111111111111,4,2,1,5,0,0
9623,-111.111111111111,4,2,1,40,0,0
9716,-111.111111111111,4,2,1,5,0,0
11123,-100,4,2,1,42,0,0
11216,-100,4,2,1,5,0,0
11498,-90.9090909090909,4,2,1,44,0,0
11591,-90.9090909090909,4,2,1,5,0,0
11873,-83.3333333333333,4,2,1,46,0,0
11966,-83.3333333333333,4,2,1,5,0,0
12248,-76.9230769230769,4,2,1,48,0,0
12341,-76.9230769230769,4,2,1,5,0,0
12623,-83.3333333333333,4,2,1,50,0,0
23123,-76.9230769230769,4,2,1,52,0,0
23216,-76.9230769230769,4,2,1,5,0,0
23498,-71.4285714285714,4,2,1,54,0,0
23591,-71.4285714285714,4,2,1,5,0,0
23873,-66.6666666666667,4,2,1,56,0,0
23966,-66.6666666666667,4,2,1,5,0,0
24248,-62.5,4,2,1,58,0,0
24341,-62.5,4,2,1,5,0,0
24623,-76.9230769230769,4,2,2,60,0,0
36623,-76.9230769230769,4,2,2,60,0,0
47498,-76.9230769230769,4,2,2,55,0,0
47591,-76.9230769230769,4,2,2,50,0,0
47685,-76.9230769230769,4,2,2,45,0,0
47779,-76.9230769230769,4,2,2,40,0,0
47873,-76.9230769230769,4,2,2,30,0,0
48623,-76.9230769230769,4,2,1,60,0,0
48998,-76.9230769230769,4,2,1,60,0,1
50966,-76.9230769230769,4,2,1,5,0,1
51248,-76.9230769230769,4,2,1,60,0,1
51341,-76.9230769230769,4,2,1,5,0,1
51623,-33.3333333333333,4,2,1,60,0,1
51810,-33.3333333333333,4,2,1,5,0,1
51904,-33.3333333333333,4,2,1,60,0,1
52091,-33.3333333333333,4,2,1,5,0,1
52185,-33.3333333333333,4,2,1,60,0,1
52373,-76.9230769230769,4,2,1,60,0,1
54623,-76.9230769230769,4,2,1,60,0,0
54716,-76.9230769230769,4,2,1,5,0,0
54998,-66.6666666666667,4,2,1,60,0,1
55373,-76.9230769230769,4,2,1,60,0,1
56591,-76.9230769230769,4,2,1,5,0,1
56873,-76.9230769230769,4,2,1,60,0,1
60623,-76.9230769230769,4,2,1,60,0,0
60998,-76.9230769230769,4,2,1,60,0,1
66529,-76.9230769230769,4,2,1,5,0,1
66623,-76.9230769230769,4,2,1,60,0,0
66716,-76.9230769230769,4,2,1,5,0,0
66998,-66.6666666666667,4,2,1,60,0,1
67279,-66.6666666666667,4,2,1,5,0,1
67373,-76.9230769230769,4,2,1,60,0,1
67466,-76.9230769230769,4,2,1,5,0,1
67748,-76.9230769230769,4,2,1,60,0,1
69623,-76.9230769230769,4,2,1,60,0,0
69810,-76.9230769230769,4,2,1,5,0,0
69904,-76.9230769230769,4,2,1,60,0,0
70091,-76.9230769230769,4,2,1,5,0,0
70185,-76.9230769230769,4,2,1,60,0,0
70279,-76.9230769230769,4,2,1,5,0,0
70373,-76.9230769230769,4,2,1,60,0,0
70466,-76.9230769230769,4,2,1,5,0,0
71123,-76.9230769230769,4,2,1,60,0,0
84623,-99.009900990099,4,2,2,30,0,0
85373,-98.0392156862745,4,2,2,31,0,0
86123,-97.0873786407767,4,2,2,32,0,0
86873,-96.1538461538461,4,2,2,33,0,0
87623,-95.2380952380952,4,2,2,34,0,0
88373,-94.3396226415094,4,2,2,35,0,0
89123,-93.4579439252336,4,2,2,36,0,0
89873,-92.5925925925926,4,2,2,37,0,0
90623,-91.743119266055,4,2,2,38,0,0
91373,-90.9090909090909,4,2,2,39,0,0
92123,-90.0900900900901,4,2,2,40,0,0
92873,-89.2857142857143,4,2,2,41,0,0
93623,-88.4955752212389,4,2,2,42,0,0
94373,-87.719298245614,4,2,2,43,0,0
95123,-86.9565217391304,4,2,2,44,0,0
95873,-86.2068965517241,4,2,2,45,0,0
96623,-85.4700854700855,4,2,2,46,0,0
97373,-84.7457627118644,4,2,2,47,0,0
98123,-84.0336134453781,4,2,2,48,0,0
98873,-83.3333333333333,4,2,2,49,0,0
99623,-82.6446280991736,4,2,2,50,0,0
100373,-81.9672131147541,4,2,2,51,0,0
101123,-81.3008130081301,4,2,2,52,0,0
101873,-80.6451612903226,4,2,2,53,0,0
102623,-80,4,2,2,54,0,0
103373,-79.3650793650794,4,2,2,55,0,0
104123,-78.7401574803149,4,2,2,56,0,0
104873,-78.125,4,2,2,57,0,0
105623,-77.5193798449612,4,2,2,58,0,0
106373,-76.9230769230769,4,2,2,59,0,0
107123,-76.3358778625954,4,2,2,60,0,0
107873,-75.7575757575758,4,2,2,60,0,0
108623,-83.3333333333333,4,2,2,60,0,0
111623,-83.3333333333333,4,2,2,60,0,0
111810,-83.3333333333333,4,2,2,5,0,0
111904,-83.3333333333333,4,2,2,60,0,0
112091,-83.3333333333333,4,2,2,5,0,0
112185,-83.3333333333333,4,2,2,60,0,0
112279,-83.3333333333333,4,2,2,5,0,0
112373,-83.3333333333333,4,2,2,60,0,0
112560,-83.3333333333333,4,2,2,5,0,0
112654,-83.3333333333333,4,2,2,60,0,0
112841,-83.3333333333333,4,2,2,5,0,0
112935,-83.3333333333333,4,2,2,60,0,0
113123,-83.3333333333333,4,2,2,5,0,0
113216,-83.3333333333333,4,2,2,60,0,0
113404,-83.3333333333333,4,2,2,5,0,0
113498,-83.3333333333333,4,2,2,60,0,0
113591,-83.3333333333333,4,2,2,5,0,0
113685,-83.3333333333333,4,2,2,60,0,0
113779,-83.3333333333333,4,2,2,5,0,0
113873,-83.3333333333333,4,2,2,60,0,0
114060,-83.3333333333333,4,2,2,5,0,0
114154,-83.3333333333333,4,2,2,60,0,0
114341,-83.3333333333333,4,2,2,5,0,0
114435,-83.3333333333333,4,2,2,60,0,0
114529,-83.3333333333333,4,2,2,5,0,0
114623,-83.3333333333333,4,2,2,60,0,0
114810,-83.3333333333333,4,2,2,5,0,0
114904,-83.3333333333333,4,2,2,60,0,0
115091,-83.3333333333333,4,2,2,5,0,0
115185,-83.3333333333333,4,2,2,60,0,0
115279,-83.3333333333333,4,2,2,5,0,0
115373,-83.3333333333333,4,2,2,55,0,0
115560,-83.3333333333333,4,2,2,5,0,0
115654,-83.3333333333333,4,2,2,55,0,0
115841,-83.3333333333333,4,2,2,5,0,0
115935,-83.3333333333333,4,2,2,50,0,0
116123,-83.3333333333333,4,2,2,5,0,0
116216,-83.3333333333333,4,2,2,50,0,0
116404,-83.3333333333333,4,2,2,5,0,0
116498,-83.3333333333333,4,2,2,50,0,0
116591,-83.3333333333333,4,2,2,5,0,0
116685,-83.3333333333333,4,2,2,50,0,0
116779,-83.3333333333333,4,2,2,5,0,0
116873,-83.3333333333333,4,2,2,45,0,0
117060,-83.3333333333333,4,2,2,5,0,0
117154,-83.3333333333333,4,2,2,45,0,0
117341,-83.3333333333333,4,2,2,5,0,0
117435,-83.3333333333333,4,2,2,45,0,0
117529,-83.3333333333333,4,2,2,5,0,0
117623,-83.3333333333333,4,2,2,40,0,0
117810,-83.3333333333333,4,2,2,5,0,0
117904,-83.3333333333333,4,2,2,40,0,0
118091,-83.3333333333333,4,2,2,5,0,0
118185,-83.3333333333333,4,2,2,40,0,0
118279,-83.3333333333333,4,2,2,5,0,0
118373,-83.3333333333333,4,2,2,35,0,0
118560,-83.3333333333333,4,2,2,5,0,0
118654,-83.3333333333333,4,2,2,35,0,0
118841,-83.3333333333333,4,2,2,5,0,0
118935,-83.3333333333333,4,2,2,35,0,0
119029,-83.3333333333333,4,2,2,5,0,0
119123,-83.3333333333333,4,2,2,30,0,0
119873,-83.3333333333333,4,2,1,60,0,0
120623,-71.4285714285714,4,2,1,60,0,1
130935,-71.4285714285714,4,2,1,60,0,0
132623,-71.4285714285714,4,2,1,60,0,1
142935,-76.9230769230769,4,2,1,60,0,0
144623,-76.9230769230769,4,2,2,40,0,0
147623,-76.9230769230769,4,2,2,45,0,0
150623,-76.9230769230769,4,2,2,50,0,0
153623,-76.9230769230769,4,2,2,55,0,0
156623,-83.3333333333333,4,2,2,60,0,0
168248,-83.3333333333333,4,2,0,60,0,0
168623,-71.4285714285714,4,2,1,60,0,1
174623,-71.4285714285714,4,2,2,60,0,0
177623,-71.4285714285714,4,2,2,60,0,0
179873,-71.4285714285714,4,2,0,60,0,0
180623,-71.4285714285714,4,2,1,60,0,1
186060,-71.4285714285714,4,2,2,60,0,1
186623,-71.4285714285714,4,2,2,55,0,0
189623,-71.4285714285714,4,2,2,50,0,0
192248,-71.4285714285714,4,2,0,50,0,0
192623,-71.4285714285714,4,2,1,60,0,1
204623,-100,4,2,2,40,0,0

[Colours]
Combo1 : 231,204,193
Combo2 : 143,78,50
Combo3 : 193,137,113
Combo4 : 178,105,87
Combo5 : 127,123,102

[HitObjects]
352,360,623,6,0,P|448:260|104:116,1,691.874978885651,2|0,1:2|0:0,0:0:0:0:
76,124,2123,6,0,P|272:336|480:80,1,691.874978885651,2|0,0:0|0:0,0:0:0:0:
436,368,3623,6,0,P|248:340|440:44,1,691.874978885651,2|0,0:0|0:0,0:0:0:0:
464,140,5123,6,0,L|136:168,1,322.874990146637,2|0,0:0|0:0,0:0:0:0:
88,172,5873,2,0,L|436:144,1,322.874990146637,2|0,0:0|0:0,0:0:0:0:
340,380,6623,6,0,P|104:224|368:72,1,691.874978885651,2|0,0:0|0:0,0:0:0:0:
404,88,8123,6,0,P|224:320|52:52,1,691.874978885651,2|0,0:0|0:0,0:0:0:0:
88,78,9623,6,0,P|412:58|391:331,1,645.749980293274,2|0,0:0|0:0,0:0:0:0:
152,272,11123,6,0,P|100:224|164:176,1,153.75,2|0,0:0|0:0,0:0:0:0:
276,172,11498,2,0,P|336:156|380:52,1,169.125005161286,2|0,0:0|0:0,0:0:0:0:
252,344,11873,2,0,P|152:332|76:244,1,184.499994369507,2|0,0:0|0:0,0:0:0:0:
228,292,12248,2,0,P|324:284|428:208,1,199.874990850449,2|0,0:0|0:0,0:0:0:0:
204,224,12623,6,0,P|116:160|216:108,1,245.999992492676,2|0,1:2|0:0,0:0:0:0:
320,104,13185,2,0,L|320:32,1,61.499998123169
256,44,13373,1,8,0:0:0:0:
144,280,13560,2,0,L|300:280,2,122.999996246338
412,180,14123,6,0,L|188:36,1,245.999992492676,2|0,1:2|0:0,0:0:0:0:
316,40,14685,2,0,L|388:40,1,61.499998123169
436,40,14873,2,0,L|436:184,1,122.999996246338,8|0,0:0|0:0,0:0:0:0:
184,168,15248,2,0,L|32:168,1,122.999996246338,0|0,1:0|0:0,0:0:0:0:
348,368,15623,6,0,P|416:348|336:252,1,245.999992492676,2|0,1:2|0:0,0:0:0:0:
228,184,16185,1,0,0:0:0:0:
289,184,16278,1,0,0:0:0:0:
352,184,16373,2,0,L|352:32,1,122.999996246338,8|0,0:0|0:0,0:0:0:0:
224,56,16748,2,0,L|360:56,1,122.999996246338
80,344,17123,5,2,1:2:0:0:
264,348,17404,1,0,1:0:0:0:
80,344,17685,1,0,1:0:0:0:
356,352,17873,2,0,L|492:352,1,122.999996246338,8|0,0:0|0:0,0:0:0:0:
212,280,18248,2,0,L|76:280,1,122.999996246338,0|0,1:0|0:0,0:0:0:0:
360,276,18623,6,0,P|424:252|344:144,1,245.999992492676,2|0,1:2|0:0,0:0:0:0:
240,132,19185,2,0,L|240:40,1,61.499998123169
304,72,19373,2,0,L|448:144,1,122.999996246338,8|0,0:0|0:0,0:0:0:0:
304,72,19748,2,0,L|168:8,1,122.999996246338
472,356,20123,6,0,L|244:236,1,245.999992492676,2|0,1:2|0:0,0:0:0:0:
368,232,20685,2,0,L|368:144,1,61.499998123169
300,168,20873,1,8,0:0:0:0:
436,168,21060,1,0,0:0:0:0:
164,172,21248,2,0,L|164:40,1,122.999996246338,0|0,1:0|0:0,0:0:0:0:
440,360,21623,5,2,1:2:0:0:
296,364,21810,1,0,0:0:0:0:
420,360,21998,2,0,B|420:232|420:232|328:232,1,184.499994369507
240,224,22373,2,0,L|240:92,1,122.999996246338,8|0,0:0|0:0,0:0:0:0:
368,100,22748,1,0,0:0:0:0:
180,104,22935,1,0,0:0:0:0:
440,360,23123,6,0,P|440:280|324:200,1,199.874990850449,2|0,1:2|0:0,0:0:0:0:
236,200,23498,2,0,P|260:100|412:96,1,215.249993431091,2|0,0:0|0:0,0:0:0:0:
476,192,23873,2,0,P|452:104|324:68,1,230.625008797646,2|0,0:0|0:0,0:0:0:0:
216,224,24248,2,0,P|343:184|492:200,1,246,2|0,0:0|0:0,0:0:0:0:
216,360,24623,5,8,0:0:0:0:
144,332,24716,1,0,0:0:0:0:
144,268,24810,1,0,0:0:0:0:
216,244,24904,1,0,0:0:0:0:
376,240,24998,2,0,L|376:76,1,133.249993900299,8|0,0:0|0:0,0:0:0:0:
296,112,25279,1,0,0:0:0:0:
216,112,25373,1,8,0:0:0:0:
376,112,25560,1,0,0:0:0:0:
123,352,25748,2,0,L|123:192,1,133.249993900299,8|0,0:0|0:0,0:0:0:0:
203,216,26029,1,0,0:0:0:0:
371,216,26123,6,0,L|480:216,1,66.6249969501497,8|0,0:0|0:0,0:0:0:0:
504,216,26310,2,0,L|412:216,1,66.6249969501497
275,136,26498,1,8,0:0:0:0:
208,112,26591,1,0,0:0:0:0:
207,49,26685,1,0,0:0:0:0:
272,23,26779,1,0,0:0:0:0:
496,368,26873,6,0,L|497:276,1,66.6249969501497,8|0,0:0|0:0,0:0:0:0:
340,300,27060,2,0,L|340:208,1,66.6249969501497
184,224,27248,2,0,L|184:132,1,66.6249969501497,8|0,0:0|0:0,0:0:0:0:
28,136,27435,2,0,L|28:44,1,66.6249969501497
268,360,27623,5,8,0:0:0:0:
332,336,27716,1,0,0:0:0:0:
332,272,27810,1,0,0:0:0:0:
268,232,27904,1,0,0:0:0:0:
76,232,27998,2,0,L|76:76,1,133.249993900299,8|0,0:0|0:0,0:0:0:0:
156,100,28279,1,0,0:0:0:0:
236,100,28373,1,8,0:0:0:0:
76,100,28560,1,0,0:0:0:0:
324,360,28748,2,0,L|172:360,1,133.249993900299,8|0,0:0|0:0,0:0:0:0:
116,360,29029,1,0,0:0:0:0:
376,256,29123,6,0,L|376:172,1,66.6249969501497,8|0,0:0|0:0,0:0:0:0:
292,172,29310,2,0,L|292:80,1,66.6249969501497
464,32,29498,2,0,L|360:32,1,66.6249969501497,8|0,0:0|0:0,0:0:0:0:
228,32,29685,2,0,L|308:32,1,66.6249969501497
76,364,29873,6,0,L|76:264,1,66.6249969501497,8|0,0:0|0:0,0:0:0:0:
236,296,30060,2,0,L|236:204,1,66.6249969501497
400,216,30248,2,0,L|400:124,1,66.6249969501497,8|0,0:0|0:0,0:0:0:0:
228,152,30435,2,0,L|144:152,1,66.6249969501497
360,116,30623,6,0,L|360:40,1,66.6249969501497,8|0,0:0|0:0,0:0:0:0:
292,40,30810,2,0,L|212:40,1,66.6249969501497
396,40,30998,2,0,L|396:216,1,133.249993900299,8|0,0:0|0:0,0:0:0:0:
316,176,31279,1,0,0:0:0:0:
236,176,31373,1,8,0:0:0:0:
396,180,31560,1,0,0:0:0:0:
148,92,31748,2,0,L|332:92,1,133.249993900299,8|0,0:0|0:0,0:0:0:0:
356,92,32029,1,0,0:0:0:0:
156,352,32123,6,0,L|156:268,1,66.6249969501497,8|0,0:0|0:0,0:0:0:0:
240,280,32310,2,0,L|240:184,1,66.6249969501497
80,208,32498,2,0,L|80:120,1,66.6249969501497,8|0,0:0|0:0,0:0:0:0:
160,140,32685,2,0,L|84:140,1,66.6249969501497
256,204,32873,6,0,L|256:108,1,66.6249969501497,8|0,0:0|0:0,0:0:0:0:
416,136,33060,2,0,L|416:52,1,66.6249969501497
256,116,33248,2,0,L|256:16,1,66.6249969501497,8|0,0:0|0:0,0:0:0:0:
96,120,33435,2,0,L|96:16,1,66.6249969501497
296,360,33623,6,0,L|380:360,1,66.6249969501497,8|0,0:0|0:0,0:0:0:0:
284,296,33810,2,0,L|192:296,1,66.6249969501497
408,192,33998,2,0,L|232:192,1,133.249993900299,8|0,0:0|0:0,0:0:0:0:
208,192,34279,1,0,0:0:0:0:
140,192,34373,1,8,0:0:0:0:
300,192,34560,1,0,0:0:0:0:
44,284,34748,2,0,L|44:136,1,133.249993900299,8|0,0:0|0:0,0:0:0:0:
120,148,35029,1,0,0:0:0:0:
340,352,35123,6,0,L|432:352,1,66.6249969501497,8|0,0:0|0:0,0:0:0:0:
473,352,35310,2,0,L|381:352,1,66.6249969501497
236,304,35498,2,0,L|236:208,1,66.6249969501497,8|0,0:0|0:0,0:0:0:0:
320,224,35685,2,0,L|428:224,1,66.6249969501497
204,172,35873,6,0,L|204:64,1,66.6249969501497,8|0,0:0|0:0,0:0:0:0:
360,168,36060,2,0,L|360:60,1,66.6249969501497
144,175,36248,2,0,L|144:75,1,66.6249969501497,8|0,0:0|0:0,0:0:0:0:
412,168,36435,2,0,L|412:84,1,66.6249969501497
104,376,36623,6,8,P|40:340|116:200,1,266.499987800599,8|8,1:1|0:1,0:1:0:0:
356,272,37373,2,8,L|54:195,1,266.499987800599,8|8,0:1|0:1,0:1:0:0:
228,196,37935,1,0,0:0:0:0:
480,336,38123,5,8,1:1:0:0:
260,344,38498,1,8,0:1:0:0:
480,336,38873,2,8,L|480:52,1,266.499987800599,8|8,0:1|0:1,0:1:0:0:
344,72,39435,1,0,0:0:0:0:
32,348,39623,6,0,L|32:188,1,133.249993900299,8|0,1:1|0:1,0:1:0:0:
240,228,39998,2,0,L|80:228,1,133.249993900299,8|0,0:1|0:1,0:1:0:0:
308,152,40373,2,0,L|140:152,1,133.249993900299,8|0,0:1|0:1,0:1:0:0:
380,144,40748,2,0,L|380:-4,1,133.249993900299,8|0,0:1|0:1,0:1:0:0:
128,360,41123,6,0,L|128:212,1,133.249993900299,8|0,1:1|0:1,0:1:0:0:
328,232,41498,2,0,L|176:232,1,133.249993900299,8|0,0:1|0:1,0:1:0:0:
396,288,41873,2,0,L|396:136,1,133.249993900299,8|0,0:1|0:1,0:1:0:0:
252,148,42248,2,0,L|68:148,1,133.249993900299,8|0,0:1|0:1,0:1:0:0:
476,348,42623,5,8,1:1:0:0:
328,348,42810,1,8,0:1:0:0:
476,348,42998,2,8,L|476:176,1,133.249993900299,8|8,0:1|0:1,0:1:0:0:
136,184,43373,1,8,1:1:0:0:
284,188,43560,1,8,0:1:0:0:
136,184,43748,2,8,L|136:12,1,133.249993900299,8|8,0:1|0:1,0:1:0:0:
472,184,44123,5,8,1:1:0:0:
324,188,44310,1,8,0:1:0:0:
472,184,44498,2,8,L|472:12,1,133.249993900299,8|8,0:1|0:1,0:1:0:0:
40,188,44873,1,8,1:1:0:0:
188,192,45060,1,8,0:1:0:0:
40,188,45248,2,8,L|40:16,1,133.249993900299,8|8,0:1|0:1,0:1:0:0:
312,360,45623,5,8,1:1:0:0:
232,360,45716,1,8,0:1:0:0:
152,364,45810,1,8,1:1:0:0:
152,284,45904,1,8,0:1:0:0:
352,232,45998,6,8,L|352:148,1,66.6249969501497,8|8,1:1|0:1,0:1:0:0:
252,160,46185,2,8,L|252:80,1,66.6249969501497,8|8,1:1|0:1,0:1:0:0:
456,32,46373,1,8,1:1:0:0:
376,32,46466,1,8,0:1:0:0:
296,32,46560,1,8,1:1:0:0:
376,32,46654,1,8,0:1:0:0:
180,344,46748,1,8,1:1:0:0:
180,264,46841,1,8,0:1:0:0:
260,260,46935,1,8,1:1:0:0:
340,260,47029,1,8,0:1:0:0:
96,192,47123,6,8,L|180:192,1,66.6249969501497,8|8,1:1|1:1,1:1:0:0:
412,192,47310,2,8,L|288:192,1,66.6249969501497,8|8,1:1|1:1,1:1:0:0:
144,80,47498,2,8,L|52:80,1,66.6249969501497,8|8,1:1|0:1,1:1:0:0:
144,80,47685,2,0,L|244:80,1,66.6249969501497,0|0,0:1|0:1,0:1:0:0:
420,364,47873,2,0,B|456:296|412:236|412:236|280:236|280:236|420:236,1,399.749981700898,0|0,0:1|0:1,0:1:0:0:
164,152,48623,5,8,0:3:0:0:
244,152,48716,1,8,0:3:0:0:
324,152,48810,1,8,0:3:0:0:
404,152,48904,1,8,0:3:0:0:
188,360,48998,2,0,P|120:312|216:268,1,199.874990850449,8|0,0:1|0:0,0:0:0:0:
356,257,49373,5,0,0:0:0:0:
428,257,49466,1,0,0:0:0:0:
221,244,49560,1,0,0:0:0:0:
141,244,49654,1,0,0:0:0:0:
301,168,49748,1,8,0:1:0:0:
457,168,49841,1,0,0:0:0:0:
232,360,49935,6,0,P|144:308|248:240,1,266.499987800599,0|0,1:0|1:0,0:0:0:0:
476,228,50404,2,0,L|408:228,1,66.6249969501497,0|0,1:0|0:0,0:0:0:0:
240,228,50591,1,0,0:0:0:0:
72,228,50685,1,0,0:0:0:0:
240,228,50779,1,0,0:0:0:0:
409,228,50873,6,0,P|472:164|384:132,1,199.874990850449,8|0,1:0|0:0,0:0:0:0:
220,288,51248,2,0,P|144:280|96:160,1,199.874990850449,0|0,1:0|0:0,0:0:0:0:
416,352,51623,6,0,L|96:352,1,307.500011730195,0|0,1:0|0:0,0:0:0:0:
48,288,51904,2,0,L|376:288,1,307.500011730195,0|0,1:0|0:0,0:0:0:0:
409,228,52185,2,0,L|253:228,1,153.750005865097,0|0,1:0|1:0,1:0:0:0:
80,216,52373,2,0,L|68:40,1,133.249993900299,8|2,1:1|0:0,0:0:0:0:
224,72,52748,2,0,L|224:112,1,33.3124984750748,2|0,0:0|0:0,0:0:0:0:
64,84,52935,2,0,L|68:120,1,33.3124984750748,2|0,0:0|0:0,0:0:0:0:
344,360,53123,6,0,P|424:340|404:228,1,199.874990850449,0|0,1:0|0:0,0:0:0:0:
264,228,53498,1,0,1:0:0:0:
432,172,53685,1,0,1:0:0:0:
176,184,53873,2,0,B|40:184|40:184|176:180|176:180|48:180|48:180|132:180,1,466.374978651048,8|0,0:1|0:0,0:0:0:0:
384,360,54623,6,0,L|384:148,1,199.874990850449,0|0,1:0|0:0,0:0:0:0:
148,160,54998,2,0,L|404:160,1,230.625008797646,8|0,0:1|0:0,0:0:0:0:
320,160,55373,1,0,0:0:0:0:
248,160,55466,1,0,0:0:0:0:
332,156,55560,1,0,0:0:0:0:
416,160,55654,1,0,0:0:0:0:
256,356,55748,1,8,0:1:0:0:
180,356,55841,1,0,0:0:0:0:
416,372,55935,6,0,P|484:324|404:260,1,199.874990850449,0|0,1:0|0:0,0:0:0:0:
248,260,56310,1,0,1:0:0:0:
420,255,56404,1,0,1:0:0:0:
488,255,56498,2,0,P|488:139|480:44,1,199.874990850449
256,364,56873,6,0,B|120:364|120:364|200:364,1,199.874990850449,8|0,0:1|0:0,0:0:0:0:
392,360,57248,2,0,P|440:300|368:220,1,199.874990850449,0|0,1:0|0:0,0:0:0:0:
136,216,57623,5,0,1:0:0:0:
296,212,57810,1,0,1:0:0:0:
228,212,57904,1,0,1:0:0:0:
380,128,57998,1,0,1:0:0:0:
208,132,58185,1,0,1:0:0:0:
476,364,58373,2,0,L|476:220,1,133.249993900299,8|0,0:1|0:0,0:0:0:0:
180,356,58748,2,0,P|112:300|196:240,1,199.874990850449,0|0,1:0|0:0,0:0:0:0:
368,236,59123,5,0,1:0:0:0:
172,184,59404,1,0,1:0:0:0:
368,184,59685,1,0,1:0:0:0:
60,368,59873,2,0,L|224:368,1,133.249993900299,8|0,1:0|0:0,0:0:0:0:
32,332,60248,2,0,L|32:164,1,133.249993900299
348,340,60623,5,0,1:0:0:0:
416,324,60716,1,0,0:0:0:0:
416,256,60810,1,0,0:0:0:0:
344,212,60904,1,0,0:0:0:0:
164,140,60998,2,0,L|380:140,1,199.874990850449,8|0,0:1|0:0,0:0:0:0:
160,364,61373,5,0,0:0:0:0:
232,364,61466,1,0,0:0:0:0:
400,312,61560,1,0,0:0:0:0:
324,312,61654,1,0,0:0:0:0:
156,280,61748,1,8,0:1:0:0:
456,200,61935,6,0,L|204:200,1,199.874990850449,0|0,1:0|0:0,0:0:0:0:
436,200,62310,2,0,L|436:120,1,66.6249969501497,0|0,1:0|0:0,0:0:0:0:
200,352,62498,2,0,P|132:296|208:248,1,199.874990850449
420,240,62873,6,0,L|180:240,1,199.874990850449,8|0,0:1|0:0,0:0:0:0:
432,240,63248,2,0,P|488:196|404:116,1,199.874990850449,0|0,1:0|0:0,0:0:0:0:
204,108,63623,5,0,1:0:0:0:
452,352,63810,1,0,1:0:0:0:
322,349,63998,2,0,L|322:189,1,133.249993900299
402,213,64279,1,0,0:0:0:0:
189,215,64373,2,0,L|329:215,1,133.249993900299,8|0,0:1|1:0,0:0:0:0:
116,136,64654,2,0,L|268:136,1,133.249993900299,8|0,0:1|1:0,0:0:0:0:
48,60,64935,2,0,L|140:60,1,66.6249969501497,8|0,0:1|0:0,0:0:0:0:
392,344,65123,5,0,1:0:0:0:
196,344,65404,1,0,1:0:0:0:
392,344,65685,1,0,1:0:0:0:
120,352,65873,2,0,B|120:216|120:216|252:216|252:216|344:196|336:88|240:96,1,466.374978651048,8|0,0:1|0:0,0:0:0:0:
40,356,66623,6,0,L|44:144,1,199.874990850449,0|0,1:0|0:0,0:0:0:0:
316,280,66998,2,0,L|80:280,1,230.625008797646,8|0,0:1|0:0,0:0:0:0:
316,280,67373,2,0,L|316:68,1,199.874990850449
128,84,67748,1,8,0:1:0:0:
412,360,67935,6,0,P|480:296|400:252,1,199.874990850449,0|0,1:0|0:0,0:0:0:0:
232,244,68310,1,0,1:0:0:0:
48,244,68404,1,0,1:0:0:0:
128,244,68498,1,0,0:0:0:0:
304,244,68591,1,0,0:0:0:0:
480,244,68685,1,0,0:0:0:0:
304,208,68779,1,0,0:0:0:0:
128,360,68873,6,0,P|96:296|200:224,1,199.874990850449,8|0,0:1|0:0,0:0:0:0:
420,348,69248,2,0,P|484:320|396:260,1,199.874990850449,0|0,1:0|0:0,0:0:0:0:
112,244,69623,6,0,L|256:244,1,133.249993900299,0|0,1:0|0:0,0:0:0:0:
444,172,69904,2,0,L|296:172,1,133.249993900299,0|0,1:0|0:0,0:0:0:0:
104,160,70185,2,0,L|212:160,1,66.6249969501497,0|0,1:0|0:0,0:0:0:0:
448,356,70373,2,0,P|336:332|460:112,1,466.374978651048,8|0,0:1|0:0,0:0:0:0:
176,116,71123,1,0,1:0:0:0:
256,192,71310,12,0,72248,0:0:0:0:
256,192,72623,5,0,1:0:0:0:
256,192,80873,12,2,84248,0:0:0:0:
388,360,84623,6,8,P|448:316|372:232,1,207.049995892868,8|0,0:0|0:0,0:0:0:0:
172,230,85373,2,8,L|420:230,1,209.100001276245,8|0,0:0|0:0,0:0:0:0:
168,352,86123,6,0,L|168:224,1,105.574999113979,8|0,0:0|0:0,0:0:0:0:
344,232,86498,2,0,L|344:96,1,105.574999113979
172,120,86873,1,8,0:0:0:0:
336,120,87060,1,0,0:0:0:0:
172,120,87248,1,0,0:0:0:0:
108,120,87341,1,0,0:0:0:0:
108,52,87435,1,0,0:0:0:0:
168,48,87529,1,0,0:0:0:0:
336,352,87623,6,0,L|468:352,1,107.624996715546,8|0,0:0|0:0,0:0:0:0:
276,296,87998,2,0,L|392:296,1,107.624996715546
216,248,88373,2,0,L|368:248,1,108.650000165787,8|0,0:0|0:0,0:0:0:0:
160,244,88748,2,0,L|160:124,1,108.650000165787
416,128,89123,6,0,L|280:128,1,109.674996652985,8|0,0:0|0:0,0:0:0:0:
472,76,89498,2,0,L|344:76,1,109.674996652985
192,364,89873,2,0,L|192:232,1,110.700002702637,8|0,0:0|0:0,0:0:0:0:
360,232,90248,2,0,L|360:100,1,110.700002702637
108,116,90623,6,0,L|240:116,1,111.725001193352,8|0,0:0|0:0,0:0:0:0:
48,352,90998,2,0,L|48:228,1,111.725001193352
308,360,91373,2,0,L|168:360,1,112.750003440857,8|0,0:0|0:0,0:0:0:0:
368,312,91748,2,0,L|368:168,1,112.750003440857
112,120,92123,6,0,L|244:120,1,113.77500277771,8|0,0:0|0:0,0:0:0:0:
56,120,92498,2,0,L|56:0,1,113.77500277771
372,280,92873,2,0,L|248:280,1,114.800001401367,8|0,0:0|0:0,0:0:0:0:
432,216,93248,1,0,0:0:0:0:
488,212,93341,1,0,0:0:0:0:
432,212,93435,1,0,0:0:0:0:
376,212,93529,1,0,0:0:0:0:
144,216,93623,6,0,L|-4:216,1,115.82500035347,8|0,0:0|0:0,0:0:0:0:
208,136,93998,2,0,L|52:136,1,115.82500035347
272,64,94373,2,0,L|120:64,1,116.849998573608,8|0,0:0|0:0,0:0:0:0:
424,328,94748,2,0,L|424:176,1,116.849998573608
240,208,95123,6,0,L|380:208,1,117.875002248287,8|0,0:0|0:0,0:0:0:0:
176,124,95498,2,0,L|320:124,1,117.875002248287
32,48,95873,2,2,L|32:116,1,59.4500018142701,10|2,0:0|0:0,0:0:0:0:
104,112,96060,1,2,0:0:0:0:
248,112,96248,1,10,0:0:0:0:
104,112,96435,1,2,0:0:0:0:
176,112,96529,1,2,0:0:0:0:
400,368,96623,6,0,L|400:196,1,119.925000457478,8|2,1:0|0:0,0:0:0:0:
340,248,96904,1,2,0:0:0:0:
232,244,96998,2,2,L|232:84,1,119.925000457478,10|2,0:0|0:0,0:0:0:0:
480,128,97373,2,0,L|344:128,1,120.949995755234,10|2,0:0|0:0,0:0:0:0:
300,128,97654,1,2,0:0:0:0:
360,128,97748,2,2,L|516:128,1,120.949995755234,10|2,0:0|0:0,0:0:0:0:
164,364,98123,6,2,L|164:212,1,121.974997580452,10|2,0:0|0:0,0:0:0:0:
224,244,98404,1,2,0:0:0:0:
332,248,98498,2,2,L|160:248,1,121.974997580452,10|2,0:0|0:0,0:0:0:0:
464,240,98873,2,2,L|464:96,1,122.999996246338,10|2,0:0|0:0,0:0:0:0:
404,116,99154,1,2,0:0:0:0:
288,116,99248,2,2,L|288:28,1,61.499998123169,10|2,0:0|0:0,0:0:0:0:
376,56,99435,2,2,L|464:56,1,61.499998123169,2|2,0:0|0:0,0:0:0:0:
244,360,99623,6,2,L|388:360,1,124.024996498928,10|2,0:0|0:0,0:0:0:0:
192,360,99998,2,2,L|336:360,1,124.024996498928,10|2,0:0|0:0,0:0:0:0:
140,360,100373,2,2,L|312:360,1,125.049994848099,10|2,0:0|0:0,0:0:0:0:
20,288,100748,2,2,L|20:128,1,125.049994848099,10|2,0:0|0:0,0:0:0:0:
81,172,101029,1,2,0:0:0:0:
208,172,101123,6,2,L|52:172,1,126.075001923752,10|2,0:0|0:0,0:0:0:0:
272,172,101498,2,2,L|104:172,1,126.075001923752,10|2,0:0|0:0,0:0:0:0:
412,280,101873,2,2,L|412:144,1,127.099994957581,10|2,0:0|0:0,0:0:0:0:
348,156,102154,1,2,0:0:0:0:
104,152,102248,2,2,L|252:152,1,127.099994957581,10|2,0:0|0:0,0:0:0:0:
296,152,102529,1,2,0:0:0:0:
124,364,102623,6,2,L|288:364,1,128.125,10|2,0:0|0:0,0:0:0:0:
156,360,102904,1,2,0:0:0:0:
60,360,102998,2,2,L|60:216,1,128.125,10|2,0:0|0:0,0:0:0:0:
360,240,103373,2,2,L|208:240,1,129.149996058655,10|2,0:0|0:0,0:0:0:0:
328,240,103654,1,2,0:0:0:0:
424,244,103748,2,2,L|424:104,1,129.149996058655,10|2,0:0|0:0,0:0:0:0:
128,116,104123,6,2,L|280:116,1,130.174999006844,10|2,0:0|0:0,0:0:0:0:
160,116,104404,1,2,0:0:0:0:
64,116,104498,2,2,L|64:264,1,130.174999006844,10|2,0:0|0:0,0:0:0:0:
420,248,104873,2,2,L|240:248,1,131.2,10|2,0:0|0:0,0:0:0:0:
388,252,105154,1,2,0:0:0:0:
488,252,105248,2,2,L|488:104,1,131.2,10|2,0:0|0:0,0:0:0:0:
236,120,105623,6,2,L|396:120,1,132.225002017593,10|2,0:0|0:0,0:0:0:0:
168,48,105998,2,2,L|312:48,1,132.225002017593,10|2,0:0|0:0,0:0:0:0:
96,120,106373,2,2,L|256:120,1,133.249993900299,10|2,0:0|0:0,0:0:0:0:
488,352,106748,2,2,L|488:192,1,133.249993900299,10|2,0:0|0:0,0:0:0:0:
388,220,107029,1,2,0:0:0:0:
288,220,107123,6,2,L|440:220,1,134.275002458649,10|2,0:0|0:0,0:0:0:0:
220,220,107498,2,2,L|368:220,1,134.275002458649,10|2,0:0|0:0,0:0:0:0:
88,216,107873,2,2,L|8:216,2,67.6499997935486,2|2|2,0:0|0:0|0:0,0:0:0:0:
276,216,108248,1,2,0:0:0:0:
88,216,108435,1,2,0:0:0:0:
464,360,108623,6,2,L|464:208,1,122.999996246338,2|2,1:0|0:0,0:0:0:0:
376,240,108904,1,2,0:0:0:0:
288,240,108998,1,10,0:0:0:0:
460,240,109185,1,2,0:0:0:0:
196,128,109373,2,2,L|324:128,1,122.999996246338,2|2,0:0|0:0,0:0:0:0:
388,132,109654,2,2,L|388:52,1,61.499998123169,2|10,0:0|0:0,0:0:0:0:
124,344,109935,6,2,L|124:208,1,122.999996246338
212,228,110216,1,2,0:0:0:0:
300,228,110310,1,2,0:0:0:0:
128,228,110498,1,10,0:0:0:0:
300,228,110685,1,2,0:0:0:0:
40,112,110873,2,2,L|40:276,1,122.999996246338
128,236,111154,1,2,0:0:0:0:
216,236,111248,1,10,0:0:0:0:
44,236,111435,1,2,0:0:0:0:
320,356,111623,6,2,L|464:356,1,122.999996246338
348,300,111904,2,2,L|216:300,1,122.999996246338
320,224,112185,2,2,L|392:224,1,61.499998123169
172,168,112373,2,2,L|40:168,1,122.999996246338
144,92,112654,2,2,L|8:92,1,122.999996246338
232,172,112935,6,2,L|376:172,1,122.999996246338
260,104,113216,2,2,L|408:104,1,122.999996246338
288,36,113498,2,2,L|388:36,1,61.499998123169
164,36,113685,2,2,L|80:36,1,61.499998123169
328,356,113873,2,2,L|328:204,1,122.999996246338
216,224,114154,2,2,L|216:68,1,122.999996246338
100,92,114435,2,2,L|100:20,1,61.499998123169
340,352,114623,6,2,L|476:352,1,122.999996246338
312,292,114904,2,2,L|180:292,1,122.999996246338
348,220,115185,2,2,L|416:220,1,61.499998123169
196,160,115373,2,2,L|72:160,1,122.999996246338
224,92,115654,2,2,L|356:92,1,122.999996246338
48,32,115935,6,2,L|208:32,1,122.999996246338
336,32,116216,2,2,L|180:32,1,122.999996246338
48,32,116498,2,2,L|120:32,1,61.499998123169
352,264,116685,2,2,L|268:264,1,61.499998123169
120,224,116873,2,2,L|244:224,1,122.999996246338
412,176,117154,2,2,L|284:176,1,122.999996246338
76,96,117435,2,2,L|152:96,1,61.499998123169
352,360,117623,6,2,L|352:212,1,122.999996246338
168,236,117904,2,2,L|168:88,1,122.999996246338
348,120,118185,2,2,L|412:120,1,61.499998123169
168,368,118373,2,2,L|168:204,1,122.999996246338
348,243,118654,2,2,L|348:91,1,122.999996246338
168,116,118935,2,2,L|100:116,1,61.499998123169
380,120,119123,5,2,0:0:0:0:
256,192,119310,12,0,119873,1:0:0:0:
240,360,120248,6,0,L|320:360,1,61.499998123169,2|0,0:0|0:0,0:0:0:0:
56,288,120435,2,0,L|56:204,1,61.499998123169,2|0,0:0|0:0,0:0:0:0:
280,144,120623,6,0,L|36:144,1,215.249993431091,2|0,1:2|0:2,0:2:0:0:
304,76,120998,2,0,L|72:76,1,215.249993431091,2|0,1:2|0:2,0:2:0:0:
324,36,121373,2,0,L|164:36,1,143.499995620728,2|0,1:2|0:2,0:2:0:0:
404,140,121654,2,0,L|244:140,1,143.499995620728,2|0,1:2|0:2,0:2:0:0:
472,364,121935,6,0,L|472:184,1,143.499995620728,2|0,1:2|0:2,0:2:0:0:
392,208,122216,1,0,0:2:0:0:
212,204,122310,2,0,L|128:204,1,71.7499978103638,2|0,1:2|0:2,0:2:0:0:
344,336,122498,2,0,P|416:288|328:220,1,215.249993431091,2|0,1:2|0:2,0:2:0:0:
140,132,122873,2,0,L|316:132,1,143.499995620728,2|0,1:2|0:2,0:2:0:0:
100,348,123154,2,0,L|100:260,1,71.7499978103638,2|2,1:2|0:2,0:2:0:0:
184,276,123341,1,2,0:2:0:0:
24,168,123435,2,0,L|104:168,1,71.7499978103638,2|0,1:2|0:2,0:2:0:0:
328,164,123623,6,0,B|472:164|472:164|400:164,1,215.249993431091,2|0,1:2|0:2,0:2:0:0:
232,96,123998,2,0,B|376:96|376:96|300:96,1,215.249993431091,2|0,1:2|0:2,0:2:0:0:
124,40,124373,2,0,L|268:40,1,143.499995620728,2|0,1:2|0:2,0:2:0:0:
80,172,124654,2,0,L|228:172,1,143.499995620728,2|0,1:2|0:2,0:2:0:0:
32,340,124935,6,0,L|32:176,1,143.499995620728,2|0,1:2|0:2,0:2:0:0:
112,188,125216,1,0,0:2:0:0:
304,184,125310,2,0,L|304:92,1,71.7499978103638,2|0,1:2|0:2,0:2:0:0:
112,188,125498,2,0,P|36:136|140:96,1,215.249993431091,2|0,1:2|0:2,0:2:0:0:
324,368,125873,2,2,L|148:368,1,143.499995620728,2|2,1:2|0:2,0:2:0:0:
352,280,126154,2,0,L|436:280,2,71.7499978103638,0|2|0,1:2|0:2|0:2,0:2:0:0:
160,288,126435,2,0,L|160:184,1,71.7499978103638,2|0,1:2|0:2,0:2:0:0:
396,104,126623,6,0,L|232:104,1,143.499995620728,2|0,1:2|0:2,0:2:0:0:
180,108,126904,1,0,0:2:0:0:
416,56,126998,2,0,L|268:56,1,143.499995620728,2|0,1:2|0:2,0:2:0:0:
344,56,127279,1,0,0:2:0:0:
160,264,127373,1,2,1:2:0:0:
231,264,127466,1,0,0:2:0:0:
303,264,127560,1,0,0:2:0:0:
92,360,127654,2,0,L|92:276,1,71.7499978103638,2|0,1:2|0:2,0:2:0:0:
168,284,127841,1,0,0:2:0:0:
392,284,127935,6,0,P|448:224|364:204,1,143.499995620728,2|0,1:2|0:2,0:2:0:0:
336,188,128216,1,0,0:2:0:0:
148,184,128310,2,0,L|256:184,1,71.7499978103638,2|0,1:2|0:2,0:2:0:0:
384,108,128498,2,0,L|136:108,1,215.249993431091,2|0,1:2|0:2,0:2:0:0:
408,44,128873,2,0,L|236:44,1,143.499995620728,2|0,1:2|0:2,0:2:0:0:
452,264,129154,2,0,L|296:264,1,143.499995620728,2|0,1:2|0:2,0:2:0:0:
496,204,129435,2,0,L|420:204,1,71.7499978103638,2|0,1:2|0:2,0:2:0:0:
184,360,129623,6,0,L|184:180,1,143.499995620728,2|0,1:2|0:2,0:2:0:0:
256,212,129904,1,0,0:2:0:0:
472,212,129998,2,0,L|472:32,1,143.499995620728,2|0,1:2|0:2,0:2:0:0:
400,72,130279,1,0,0:2:0:0:
184,76,130373,2,0,L|336:76,1,143.499995620728,2|0,1:2|0:2,0:2:0:0:
140,368,130654,2,2,L|56:368,1,71.7499978103638,2|2,1:2|0:2,0:2:0:0:
68,368,130841,1,2,0:2:0:0:
308,304,130935,6,0,P|372:252|296:168,1,215.249993431091,2|2,1:0|0:0,0:0:0:0:
232,172,131310,1,2,0:0:0:0:
376,172,131498,2,0,L|376:24,1,143.499995620728,2|0,0:0|0:0,0:0:0:0:
304,32,131779,1,2,0:0:0:0:
232,32,131873,1,2,0:0:0:0:
384,364,132060,2,0,L|384:252,1,71.7499978103638
284,296,132248,1,2,0:0:0:0:
456,296,132435,1,2,0:0:0:0:
176,292,132623,6,0,P|144:212|208:184,1,143.499995620728,2|0,1:2|0:2,0:2:0:0:
268,184,132904,1,0,1:2:0:0:
64,188,132998,2,0,L|64:24,1,143.499995620728,2|0,1:2|1:2,0:2:0:0:
140,48,133279,1,0,0:2:0:0:
316,352,133373,2,0,L|316:256,1,71.7499978103638,2|0,0:2|1:2,0:2:0:0:
228,284,133560,1,0,1:2:0:0:
420,228,133654,2,0,L|520:228,2,71.7499978103638,2|0|0,0:2|1:2|0:2,0:2:0:0:
200,152,133935,6,0,L|368:152,1,143.499995620728,2|0,0:2|1:2,0:2:0:0:
416,152,134216,1,0,0:2:0:0:
200,152,134310,2,0,L|200:44,1,71.7499978103638,2|0,0:2|1:2,0:2:0:0:
416,152,134498,2,0,P|456:88|388:68,1,143.499995620728,2|0,1:2|1:2,0:2:0:0:
324,60,134779,1,0,0:2:0:0:
80,64,134873,1,0,0:2:0:0:
272,320,134966,2,0,L|272:240,1,71.7499978103638,2|0,1:2|1:2,1:2:0:0:
80,160,135154,1,0,0:2:0:0:
268,164,135248,2,2,L|120:164,1,143.499995620728,2|2,1:2|1:2,0:2:0:0:
404,360,135623,6,0,P|472:296|436:236,1,143.499995620728,2|0,1:2|0:2,0:2:0:0:
376,260,135904,1,0,1:2:0:0:
176,188,135998,2,0,L|376:188,1,143.499995620728,2|0,1:2|1:2,0:2:0:0:
396,184,136279,1,0,0:2:0:0:
152,112,136373,2,0,L|284:112,1,71.7499978103638,2|0,0:2|1:2,0:2:0:0:
223,112,136560,1,0,1:2:0:0:
20,40,136654,2,0,L|20:132,1,71.7499978103638,2|0,0:2|1:2,0:2:0:0:
92,112,136841,1,0,0:2:0:0:
328,112,136935,6,0,L|152:112,1,143.499995620728,2|0,1:2|1:2,0:2:0:0:
112,116,137216,1,0,0:2:0:0:
320,308,137310,2,0,L|412:308,1,71.7499978103638,2|0,0:2|1:2,0:2:0:0:
168,300,137498,2,0,L|8:300,1,143.499995620728,0|0,1:2|1:2,0:2:0:0:
100,296,137779,1,0,0:2:0:0:
296,228,137873,2,0,L|296:132,1,71.7499978103638,2|0,1:2|1:2,1:2:0:0:
216,156,138060,1,0,0:2:0:0:
412,72,138154,1,2,0:2:0:0:
340,72,138247,1,0,1:2:0:0:
268,72,138341,1,0,0:2:0:0:
480,72,138435,2,0,L|480:176,1,71.7499978103638,2|0,1:2|0:2,0:2:0:0:
292,360,138623,6,0,L|488:360,1,143.499995620728,2|0,1:2|0:2,0:2:0:0:
364,360,138904,1,0,1:2:0:0:
176,276,138998,2,0,L|344:276,1,143.499995620728,2|0,1:2|1:2,1:2:0:0:
252,276,139279,1,0,0:2:0:0:
28,196,139373,2,0,L|128:196,2,71.7499978103638,2|0|0,0:2|1:2|0:2,0:2:0:0:
248,196,139654,2,0,L|248:100,1,71.7499978103638,2|0,0:2|1:2,0:2:0:0:
176,124,139841,1,0,0:2:0:0:
376,356,139935,6,0,L|232:356,1,143.499995620728,2|0,1:2|1:2,1:2:0:0:
312,356,140216,1,0,0:2:0:0:
112,280,140310,2,0,L|112:160,1,71.7499978103638,2|0,0:2|1:2,0:2:0:0:
312,128,140498,2,0,L|104:128,1,143.499995620728,2|0,1:2|1:2,1:2:0:0:
96,128,140779,1,0,0:2:0:0:
352,324,140873,2,0,L|460:324,2,71.7499978103638,2|0|0,0:2|1:2|1:2,0:2:0:0:
168,248,141154,1,2,0:2:0:0:
239,248,141247,1,0,1:2:0:0:
311,248,141341,1,0,0:2:0:0:
96,192,141435,2,0,L|96:92,1,71.7499978103638,2|0,1:2|0:2,0:2:0:0:
304,44,141623,6,0,L|148:44,1,143.499995620728,2|0,1:2|0:2,0:2:0:0:
88,44,141904,1,0,1:2:0:0:
288,124,141998,2,0,L|132:124,1,143.499995620728,2|0,1:2|1:2,1:2:0:0:
72,124,142279,1,0,0:2:0:0:
264,212,142373,2,0,L|104:212,1,143.499995620728,2|0,1:2|0:2,0:2:0:0:
320,296,142654,2,0,L|176:296,1,143.499995620728,2|0,1:2|0:2,0:2:0:0:
408,296,142935,6,0,P|448:244|396:208,1,133.249993900299,2|0,1:2|0:2,0:2:0:0:
244,208,143310,1,2,0:2:0:0:
420,200,143498,2,0,L|420:48,1,133.249993900299,2|0,0:2|0:2,0:2:0:0:
332,72,143779,1,0,0:2:0:0:
164,364,143873,2,0,L|164:280,1,66.6249969501497,2|0,0:2|0:2,0:2:0:0:
248,304,144060,2,0,L|332:304,1,66.6249969501497,0|0,0:2|0:2,0:2:0:0:
112,200,144248,2,2,L|28:200,1,66.6249969501497,2|2,0:2|0:2,0:2:0:0:
244,192,144435,2,2,L|336:192,1,66.6249969501497,2|2,0:2|0:2,0:2:0:0:
112,360,144623,5,0,1:0:0:0:
44,336,144716,1,0,0:0:0:0:
44,273,144810,1,0,0:0:0:0:
112,252,144904,1,0,0:0:0:0:
216,256,144998,2,0,L|332:256,1,66.6249969501497,10|0,0:0|0:0,0:0:0:0:
348,256,145185,2,0,L|348:168,1,66.6249969501497
192,112,145373,2,0,L|92:112,2,66.6249969501497,2|0|0,0:0|0:0|0:0,0:0:0:0:
372,112,145654,2,0,L|452:112,2,66.6249969501497,2|8|0,0:0|0:0|0:0,0:0:0:0:
176,356,145935,6,0,L|176:268,1,66.6249969501497,2|0,0:0|0:0,0:0:0:0:
244,292,146123,2,0,L|352:292,1,66.6249969501497
124,224,146310,2,0,L|124:128,1,66.6249969501497,2|0,0:0|0:0,0:0:0:0:
320,208,146498,2,0,L|404:208,1,66.6249969501497,10|0,0:0|0:0,0:0:0:0:
320,208,146685,2,0,L|216:208,1,66.6249969501497
444,144,146873,2,0,L|444:60,1,66.6249969501497,2|0,0:0|0:0,0:0:0:0:
364,76,147060,1,0,0:0:0:0:
192,68,147154,1,2,0:0:0:0:
258,68,147247,1,8,0:0:0:0:
325,68,147341,1,0,0:0:0:0:
144,68,147435,2,0,L|40:68,1,66.6249969501497,2|0,0:0|0:0,0:0:0:0:
320,352,147623,6,0,L|424:352,1,66.6249969501497,2|0,0:0|0:0,0:0:0:0:
452,352,147810,2,0,L|372:352,1,66.6249969501497
296,364,147998,2,0,L|208:364,1,66.6249969501497,10|0,0:0|0:0,0:0:0:0:
164,364,148185,2,0,L|264:364,1,66.6249969501497
392,288,148373,2,0,L|392:188,1,66.6249969501497,2|0,0:0|0:0,0:0:0:0:
312,224,148560,1,0,0:0:0:0:
112,220,148654,2,0,L|112:124,1,66.6249969501497,2|8,0:0|0:0,0:0:0:0:
192,152,148841,1,0,0:0:0:0:
400,148,148935,5,2,0:0:0:0:
468,128,149028,1,0,0:0:0:0:
468,65,149122,1,0,0:0:0:0:
400,48,149216,1,0,0:0:0:0:
232,52,149310,2,0,L|136:52,1,66.6249969501497,2|0,0:0|0:0,0:0:0:0:
356,348,149498,1,10,0:0:0:0:
289,348,149591,1,0,0:0:0:0:
222,348,149685,1,0,0:0:0:0:
156,348,149779,1,0,0:0:0:0:
340,252,149873,1,2,0:0:0:0:
420,252,149966,2,0,L|420:168,1,66.6249969501497
236,188,150154,1,2,0:0:0:0:
156,188,150248,2,0,L|156:104,1,66.6249969501497,8|0,0:0|0:0,0:0:0:0:
360,104,150435,2,0,L|436:104,1,66.6249969501497,2|0,0:0|0:0,0:0:0:0:
184,296,150623,6,0,L|88:296,1,66.6249969501497,2|0,0:0|0:0,0:0:0:0:
184,296,150810,2,0,L|260:296,1,66.6249969501497
424,308,150998,2,0,L|424:240,1,66.6249969501497,10|0,0:0|0:0,0:0:0:0:
356,244,151185,2,0,L|264:244,1,66.6249969501497
120,296,151373,2,0,L|44:296,2,66.6249969501497,2|0|0,0:0|0:0|0:0,0:0:0:0:
304,296,151654,1,2,0:0:0:0:
384,296,151748,2,0,L|384:200,1,66.6249969501497,8|0,0:0|0:0,0:0:0:0:
180,228,151935,5,2,0:0:0:0:
108,208,152028,1,0,0:0:0:0:
106,145,152122,1,0,0:0:0:0:
177,121,152216,1,0,0:0:0:0:
380,120,152310,2,0,L|288:120,1,66.6249969501497,2|0,0:0|0:0,0:0:0:0:
112,360,152498,2,0,L|112:256,1,66.6249969501497,10|0,0:0|0:0,0:0:0:0:
180,296,152685,2,0,L|284:296,1,66.6249969501497
88,224,152873,2,0,L|8:224,2,66.6249969501497,2|0|0,0:0|0:0|0:0,0:0:0:0:
292,136,153154,1,2,0:0:0:0:
225,136,153247,1,8,0:0:0:0:
158,136,153341,1,0,0:0:0:0:
356,68,153435,2,0,L|424:68,1,66.6249969501497,2|0,0:0|0:0,0:0:0:0:
176,356,153623,5,2,0:0:0:0:
112,328,153716,1,0,0:0:0:0:
111,265,153810,1,0,0:0:0:0:
174,242,153904,1,0,0:0:0:0:
344,149,153998,1,10,0:0:0:0:
412,176,154091,1,0,0:0:0:0:
344,149,154185,1,0,0:0:0:0:
277,125,154279,1,0,0:0:0:0:
112,132,154373,1,2,0:0:0:0:
32,136,154466,2,0,L|32:56,1,66.6249969501497
232,68,154654,1,2,0:0:0:0:
312,68,154748,2,0,L|312:156,1,66.6249969501497,8|0,0:0|0:0,0:0:0:0:
112,360,154935,5,2,0:0:0:0:
178,360,155028,1,0,0:0:0:0:
245,360,155122,1,0,0:0:0:0:
311,360,155216,1,0,0:0:0:0:
144,288,155310,2,0,L|144:192,1,66.6249969501497,2|0,0:0|0:0,0:0:0:0:
340,212,155498,1,10,0:0:0:0:
408,184,155591,1,0,0:0:0:0:
405,121,155685,1,0,0:0:0:0:
335,96,155779,1,0,0:0:0:0:
140,100,155873,2,0,L|64:100,2,66.6249969501497,2|0|0,0:0|0:0|0:0,0:0:0:0:
328,32,156154,1,2,0:0:0:0:
261,32,156247,1,8,0:0:0:0:
194,32,156341,1,0,0:0:0:0:
400,32,156435,2,0,L|488:32,1,66.6249969501497,2|0,0:0|0:0,0:0:0:0:
204,364,156623,6,0,L|204:208,1,122.999996246338,0|2,1:0|0:0,0:0:0:0:
276,240,156904,1,2,0:0:0:0:
488,200,156998,2,0,L|488:48,1,122.999996246338,0|2,1:0|0:0,0:0:0:0:
416,80,157279,1,2,0:0:0:0:
260,192,157373,2,0,L|260:48,1,122.999996246338,0|2,1:0|0:0,0:0:0:0:
188,72,157654,1,2,0:0:0:0:
24,204,157748,2,0,L|24:44,1,122.999996246338,0|2,1:0|0:0,0:0:0:0:
96,80,158029,1,2,0:0:0:0:
300,360,158123,6,0,L|300:228,1,122.999996246338,0|2,1:0|0:0,0:0:0:0:
228,244,158404,1,2,0:0:0:0:
32,264,158498,2,0,L|32:132,1,122.999996246338,0|2,1:0|0:0,0:0:0:0:
104,140,158779,1,2,0:0:0:0:
256,364,158873,2,0,L|256:220,1,122.999996246338,0|2,1:0|0:0,0:0:0:0:
328,244,159154,1,2,0:0:0:0:
500,240,159248,2,0,L|500:100,1,122.999996246338,0|2,1:0|0:0,0:0:0:0:
428,120,159529,1,2,0:0:0:0:
248,224,159623,6,0,L|84:224,1,122.999996246338,0|2,1:0|0:0,0:0:0:0:
200,224,159904,1,2,0:0:0:0:
372,224,159998,2,0,L|512:224,1,122.999996246338,0|2,1:0|0:0,0:0:0:0:
420,224,160279,1,2,0:0:0:0:
200,224,160373,2,0,L|32:224,1,122.999996246338,0|2,1:0|0:0,0:0:0:0:
152,224,160654,1,2,0:0:0:0:
336,156,160748,2,0,L|500:156,1,122.999996246338,0|2,1:0|0:0,0:0:0:0:
384,156,161029,1,2,0:0:0:0:
116,360,161123,6,0,L|192:252,1,122.999996246338,0|2,1:0|0:0,0:0:0:0:
260,256,161404,1,2,0:0:0:0:
448,256,161498,2,0,L|376:108,1,122.999996246338,0|2,1:0|0:0,0:0:0:0:
320,152,161779,1,2,0:0:0:0:
32,184,161873,2,0,L|128:72,1,122.999996246338,0|2,1:0|0:0,0:0:0:0:
184,96,162154,1,2,0:0:0:0:
492,180,162248,2,0,L|400:80,1,122.999996246338,0|2,1:0|0:0,0:0:0:0:
340,88,162529,1,2,0:0:0:0:
168,348,162623,5,0,1:2:0:0:
8,348,162810,1,0,1:2:0:0:
196,280,162998,1,0,1:2:0:0:
36,280,163185,1,0,1:2:0:0:
228,216,163373,1,0,1:2:0:0:
68,216,163560,1,0,1:2:0:0:
256,160,163748,1,0,1:2:0:0:
96,160,163935,1,0,1:2:0:0:
344,348,164123,5,0,1:2:0:0:
504,348,164310,1,0,1:2:0:0:
316,280,164498,1,0,1:2:0:0:
476,280,164685,1,0,1:2:0:0:
284,216,164873,1,0,1:2:0:0:
444,216,165060,1,0,1:2:0:0:
256,160,165248,1,0,1:2:0:0:
416,160,165435,1,0,1:2:0:0:
140,360,165623,6,0,L|68:360,1,61.499998123169,0|0,1:2|1:2,1:2:0:0:
332,364,165810,2,0,L|440:364,1,61.499998123169,0|0,1:2|1:2,1:2:0:0:
112,360,165998,2,0,L|52:304,1,61.499998123169,0|0,1:2|1:2,1:2:0:0:
364,364,166185,2,0,L|444:304,1,61.499998123169,0|0,1:2|1:2,1:2:0:0:
80,360,166373,2,0,L|80:272,1,61.499998123169,0|0,1:2|1:2,1:2:0:0:
396,368,166560,2,0,L|396:276,1,61.499998123169,0|0,1:2|1:2,1:2:0:0:
48,356,166748,2,0,L|136:356,1,61.499998123169,0|0,1:2|1:2,1:2:0:0:
432,364,166935,2,0,L|348:364,1,61.499998123169,0|0,1:2|1:2,1:2:0:0:
48,356,167123,1,0,1:2:0:0:
408,348,168248,5,0,0:0:0:0:
244,348,168341,1,0,0:0:0:0:
80,344,168435,1,0,0:0:0:0:
244,272,168529,1,0,0:0:0:0:
416,264,168623,6,0,L|504:264,2,71.7499978103638,0|0|0,1:0|0:0|0:0,0:0:0:0:
244,192,168904,1,0,1:0:0:0:
316,192,168998,2,0,L|316:96,1,71.7499978103638
144,128,169185,2,0,L|36:128,1,71.7499978103638,0|0,1:0|0:0,0:0:0:0:
284,56,169373,1,8,0:1:0:0:
212,56,169466,1,0,1:0:0:0:
212,56,169560,1,0,0:0:0:0:
384,60,169748,1,0,0:0:0:0:
88,348,169935,2,0,L|88:260,1,71.7499978103638,0|0,1:0|0:0,0:0:0:0:
160,272,170123,6,0,L|276:272,1,71.7499978103638
160,272,170310,2,0,L|56:272,1,71.7499978103638
288,124,170498,2,0,L|388:124,1,71.7499978103638,0|0,1:0|0:0,0:0:0:0:
288,124,170685,2,0,L|196:124,1,71.7499978103638
456,48,170873,2,0,L|456:208,1,143.499995620728,8|0,0:1|0:0,0:0:0:0:
180,356,171248,2,0,L|24:356,1,143.499995620728
376,208,171623,5,0,1:0:0:0:
304,208,171716,1,0,0:0:0:0:
232,208,171810,1,0,0:0:0:0:
408,124,171904,1,0,1:0:0:0:
320,124,171998,2,0,L|320:20,1,71.7499978103638
496,40,172185,2,0,L|416:40,1,71.7499978103638,0|0,1:0|0:0,0:0:0:0:
224,360,172373,2,0,L|432:360,1,143.499995620728,8|0,0:1|0:0,0:0:0:0:
296,360,172654,1,0,0:0:0:0:
224,360,172748,1,0,0:0:0:0:
484,280,172935,2,0,L|484:176,1,71.7499978103638,0|0,1:0|0:0,0:0:0:0:
244,204,173123,6,0,L|244:108,1,71.7499978103638
316,132,173310,2,0,L|404:132,1,71.7499978103638
148,128,173498,2,0,L|148:28,1,71.7499978103638,0|0,1:0|0:0,0:0:0:0:
236,52,173685,2,0,L|148:52,1,71.7499978103638
384,344,173873,1,8,0:1:0:0:
112,352,174060,1,0,0:0:0:0:
268,352,174248,1,0,0:0:0:0:
268,284,174341,1,0,0:0:0:0:
196,288,174435,1,0,0:0:0:0:
196,208,174529,1,0,0:0:0:0:
372,208,174623,5,8,1:2:0:0:
440,176,174716,1,0,0:0:0:0:
435,108,174810,1,0,0:0:0:0:
364,80,174904,1,0,0:0:0:0:
196,80,174998,2,0,L|196:292,1,143.499995620728,8|0,0:0|0:0,0:0:0:0:
268,228,175279,1,0,0:0:0:0:
340,228,175373,1,8,0:0:0:0:
196,232,175560,1,0,0:0:0:0:
484,364,175748,2,0,L|484:204,1,143.499995620728,8|0,0:0|0:0,0:0:0:0:
396,224,176029,1,0,0:0:0:0:
156,352,176123,5,8,0:0:0:0:
84,336,176216,1,0,0:0:0:0:
12,273,176310,1,0,0:0:0:0:
88,248,176404,1,0,0:0:0:0:
284,240,176498,2,0,L|284:136,1,71.7499978103638,8|0,0:0|0:0,0:0:0:0:
196,172,176685,2,0,L|196:72,1,71.7499978103638
372,364,176873,2,0,L|500:280,1,143.499995620728,8|0,0:0|0:0,0:0:0:0:
200,364,177248,2,0,L|20:300,1,143.499995620728,8|0,0:0|0:0,0:0:0:0:
348,292,177623,6,0,L|348:176,1,71.7499978103638,8|0,0:0|0:0,0:0:0:0:
260,228,177810,2,0,L|260:116,1,71.7499978103638,8|0,0:0|0:0,0:0:0:0:
456,152,177998,2,0,L|456:52,1,71.7499978103638,8|0,0:0|0:0,0:0:0:0:
368,80,178185,2,0,L|460:80,1,71.7499978103638,8|0,0:0|0:0,0:0:0:0:
256,344,178373,6,0,L|164:344,1,71.7499978103638,8|0,0:0|0:0,0:0:0:0:
364,280,178560,2,0,L|464:280,1,71.7499978103638,8|0,0:0|0:0,0:0:0:0:
216,256,178748,2,0,L|216:148,1,71.7499978103638,8|0,0:0|0:0,0:0:0:0:
304,184,178935,2,0,L|396:184,1,71.7499978103638,8|0,0:0|0:0,0:0:0:0:
124,184,179123,6,8,L|24:184,1,71.7499978103638
216,116,179310,2,8,L|312:116,1,71.7499978103638
448,48,179498,2,8,L|348:48,1,71.7499978103638
200,48,179685,2,8,L|104:48,1,71.7499978103638
328,344,179873,6,0,L|416:344,1,71.7499978103638,8|0,0:0|0:0,0:0:0:0:
144,344,180060,2,0,L|52:344,1,71.7499978103638,0|0,0:0|0:0,0:0:0:0:
256,264,180248,1,0,0:0:0:0:
432,264,180341,1,0,0:0:0:0:
256,264,180435,1,0,0:0:0:0:
76,272,180529,1,2,0:0:0:0:
340,200,180623,6,0,L|448:200,2,71.7499978103638,0|0|0,1:0|0:0|0:0,0:0:0:0:
164,200,180904,1,0,1:0:0:0:
92,200,180998,2,0,L|92:88,1,71.7499978103638
268,136,181185,2,0,L|348:136,1,71.7499978103638,0|0,1:0|0:0,0:0:0:0:
152,88,181373,1,8,0:1:0:0:
339,136,181466,1,0,1:0:0:0:
339,136,181560,1,0,0:0:0:0:
76,52,181748,1,0,0:0:0:0:
416,236,181935,2,0,L|496:236,1,71.7499978103638,0|0,1:0|0:0,0:0:0:0:
296,236,182123,6,0,L|216:236,1,71.7499978103638
488,144,182310,2,0,L|396:144,1,71.7499978103638
220,144,182498,2,0,L|332:144,1,71.7499978103638,0|0,1:0|0:0,0:0:0:0:
96,144,182685,2,0,L|-12:144,1,71.7499978103638
224,76,182873,2,0,L|72:76,1,143.499995620728,8|0,0:1|0:0,0:0:0:0:
356,80,183248,2,0,L|516:80,1,143.499995620728
164,356,183623,5,0,1:0:0:0:
235,356,183716,1,0,0:0:0:0:
307,356,183810,1,0,0:0:0:0:
92,276,183904,2,0,L|-4:276,2,71.7499978103638,0|0|0,1:0|0:0|0:0,0:0:0:0:
284,192,184185,2,0,L|188:192,1,71.7499978103638,0|0,1:0|0:0,0:0:0:0:
428,132,184373,2,0,L|428:216,1,71.7499978103638,8|0,0:1|0:0,0:0:0:0:
336,208,184560,2,0,L|416:208,1,71.7499978103638
200,96,184748,2,0,L|200:184,1,71.7499978103638
392,304,184935,2,0,L|304:304,1,71.7499978103638,0|0,1:0|0:0,0:0:0:0:
248,304,185123,6,0,L|248:188,1,71.7499978103638
464,216,185310,2,0,L|392:216,1,71.7499978103638,0|0,1:0|0:0,0:0:0:0:
216,212,185498,2,0,L|324:212,1,71.7499978103638
92,208,185685,2,0,L|16:208,1,71.7499978103638
276,136,185873,2,0,L|428:136,1,143.499995620728,8|2,0:1|0:0,0:0:0:0:
348,136,186154,1,2,0:0:0:0:
276,136,186248,1,2,0:0:0:0:
416,136,186435,1,2,0:0:0:0:
160,360,186623,6,0,L|160:244,1,71.7499978103638,2|0,0:0|0:0,0:0:0:0:
352,256,186810,2,0,L|268:256,1,71.7499978103638,2|0,0:0|0:0,0:0:0:0:
76,212,186998,1,2,0:0:0:0:
43,198,187044,1,0,0:0:0:0:
20,170,187091,1,0,0:0:0:0:
12,136,187138,1,0,0:0:0:0:
21,101,187185,1,0,0:0:0:0:
44,75,187232,1,0,0:0:0:0:
77,61,187279,1,0,0:0:0:0:
244,88,187373,6,0,L|244:184,1,71.7499978103638,2|0,0:0|0:0,0:0:0:0:
72,160,187560,1,2,0:0:0:0:
36,124,187606,1,0,0:0:0:0:
76,92,187653,1,0,0:0:0:0:
260,360,187748,2,0,L|260:252,1,71.7499978103638,2|0,0:0|0:0,0:0:0:0:
172,292,187935,2,0,L|172:204,1,71.7499978103638
344,292,188123,6,0,L|428:292,1,71.7499978103638,2|0,0:0|0:0,0:0:0:0:
216,180,188310,2,0,L|216:92,1,71.7499978103638,2|0,0:0|0:0,0:0:0:0:
391,144,188498,2,0,L|483:144,3,71.7499978103638,2|0|0|0,0:0|0:0|0:0|0:0,0:0:0:0:
304,272,188873,2,0,L|304:180,1,71.7499978103638,2|0,0:0|0:0,0:0:0:0:
484,188,189060,2,0,L|400:188,1,71.7499978103638,2|0,0:0|0:0,0:0:0:0:
200,168,189248,1,2,0:0:0:0:
392,112,189435,1,0,0:0:0:0:
136,364,189623,6,0,L|136:260,1,71.7499978103638,2|0,0:0|0:0,0:0:0:0:
224,292,189810,2,0,L|224:192,1,71.7499978103638,2|0,0:0|0:0,0:0:0:0:
136,216,189998,2,0,L|136:88,1,71.7499978103638,2|0,0:0|0:0,0:0:0:0:
224,140,190185,2,0,L|224:32,1,71.7499978103638,2|0,0:0|0:0,0:0:0:0:
136,68,190373,2,0,L|136:160,1,71.7499978103638,2|0,0:0|0:0,0:0:0:0:
224,140,190560,2,0,L|308:140,1,71.7499978103638,2|0,0:0|0:0,0:0:0:0:
72,348,190748,2,0,P|44:248|92:232,1,143.499995620728,2|0,0:0|0:0,0:0:0:0:
144,236,191029,1,0,0:0:0:0:
360,232,191123,6,0,L|360:144,1,71.7499978103638,2|0,0:0|0:0,0:0:0:0:
272,160,191310,2,0,L|272:72,1,71.7499978103638,2|0,0:0|0:0,0:0:0:0:
360,84,191498,2,0,L|360:172,1,71.7499978103638,2|0,0:0|0:0,0:0:0:0:
272,160,191685,2,0,L|192:160,1,71.7499978103638,2|0,0:0|0:0,0:0:0:0:
412,356,191873,1,2,0:0:0:0:
473,327,191966,1,0,0:0:0:0:
471,259,192060,1,0,0:0:0:0:
408,234,192154,1,0,0:0:0:0:
144,236,192248,2,0,L|144:152,1,71.7499978103638
348,116,192435,2,0,L|272:116,1,71.7499978103638
456,112,192623,6,0,P|488:36|424:16,1,143.499995620728,0|0,1:0|0:0,0:0:0:0:
364,16,192904,1,0,0:0:0:0:
184,344,192998,2,0,L|184:268,1,71.7499978103638
344,256,193185,2,0,L|344:168,1,71.7499978103638
80,224,193373,2,0,L|80:136,1,71.7499978103638,8|0,0:1|0:0,0:0:0:0:
292,136,193560,2,0,L|292:44,1,71.7499978103638
68,56,193748,2,0,L|68:140,1,71.7499978103638
308,60,193935,2,0,L|204:60,1,71.7499978103638,0|0,1:0|0:0,0:0:0:0:
448,356,194123,6,0,L|448:264,1,71.7499978103638
248,280,194310,2,0,L|248:196,1,71.7499978103638
456,196,194498,2,0,L|456:112,1,71.7499978103638
248,136,194685,2,0,L|364:136,1,71.7499978103638
100,332,194873,2,0,L|100:228,1,71.7499978103638,8|0,0:1|0:0,0:0:0:0:
284,252,195060,2,0,L|284:160,1,71.7499978103638,2|0,0:0|1:0,0:0:0:0:
472,164,195248,2,0,L|472:80,1,71.7499978103638,2|0,0:0|0:0,0:0:0:0:
212,96,195435,2,0,L|212:192,1,71.7499978103638,2|0,1:2|0:0,0:0:0:0:
400,344,195623,6,0,L|224:344,1,143.499995620728,0|0,1:0|0:0,0:0:0:0:
184,344,195904,1,0,0:0:0:0:
440,248,195998,2,0,L|348:248,1,71.7499978103638
184,248,196185,2,0,L|108:248,1,71.7499978103638
480,164,196373,2,0,L|388:164,1,71.7499978103638,8|0,0:1|0:0,0:0:0:0:
228,164,196560,2,0,L|136:164,1,71.7499978103638
448,80,196748,2,0,L|356:80,1,71.7499978103638
196,80,196935,2,0,L|288:80,1,71.7499978103638,0|0,1:0|0:0,0:0:0:0:
88,80,197123,6,0,L|-8:80,1,71.7499978103638
328,256,197310,2,0,L|240:256,1,71.7499978103638
88,256,197498,2,0,L|0:256,1,71.7499978103638
256,164,197685,2,0,L|168:164,1,71.7499978103638
408,80,197873,2,0,L|332:80,1,71.7499978103638,8|0,0:1|0:0,0:0:0:0:
100,80,198060,2,0,L|176:80,1,71.7499978103638,2|0,0:0|1:0,0:0:0:0:
336,80,198248,2,0,L|252:80,1,71.7499978103638,2|0,0:0|0:0,0:0:0:0:
28,80,198435,2,0,L|108:80,1,71.7499978103638,2|0,1:2|0:0,0:0:0:0:
264,356,198623,6,0,L|96:356,1,143.499995620728,0|0,1:0|0:0,0:0:0:0:
192,360,198904,1,0,0:0:0:0:
380,352,198998,2,0,L|496:352,1,71.7499978103638
120,284,199185,2,0,L|212:284,1,71.7499978103638
360,280,199373,2,0,L|460:280,1,71.7499978103638,8|0,0:1|0:0,0:0:0:0:
168,204,199560,2,0,L|252:204,1,71.7499978103638
416,200,199748,2,0,L|496:200,1,71.7499978103638
228,128,199935,2,0,L|328:128,1,71.7499978103638,0|0,1:0|0:0,0:0:0:0:
40,128,200123,6,0,L|128:128,1,71.7499978103638
300,60,200310,2,0,L|396:60,1,71.7499978103638
60,204,200498,2,0,L|156:204,1,71.7499978103638
312,204,200685,2,0,L|224:204,1,71.7499978103638
420,204,200873,2,0,L|496:204,1,71.7499978103638,8|0,0:1|0:0,0:0:0:0:
216,140,201060,2,0,L|312:140,1,71.7499978103638,2|0,0:0|1:0,0:0:0:0:
480,76,201248,2,0,L|396:76,1,71.7499978103638,2|0,0:0|0:0,0:0:0:0:
136,80,201435,2,0,L|232:80,1,71.7499978103638,2|0,1:2|0:0,0:0:0:0:
436,360,201623,6,0,P|472:296|408:248,1,143.499995620728,0|0,1:0|0:0,0:0:0:0:
356,248,201904,1,0,0:0:0:0:
116,248,201998,2,0,L|204:248,1,71.7499978103638
364,160,202185,2,0,L|268:160,1,71.7499978103638
48,160,202373,2,0,L|128:160,1,71.7499978103638,8|0,0:1|0:0,0:0:0:0:
320,84,202560,2,0,L|216:84,1,71.7499978103638
32,84,202748,2,0,L|124:84,1,71.7499978103638
288,24,202935,2,0,L|188:24,1,71.7499978103638,0|0,1:0|0:0,0:0:0:0:
400,124,203123,6,0,L|492:124,1,71.7499978103638
264,216,203310,2,0,L|168:216,1,71.7499978103638
416,216,203498,2,0,L|512:216,1,71.7499978103638
332,160,203685,1,2,0:0:0:0:
176,160,203779,1,2,0:0:0:0:
20,100,203873,6,0,L|104:100,1,71.7499978103638,2|0,0:0|0:0,0:0:0:0:
360,88,204060,2,0,L|268:88,1,71.7499978103638,2|0,0:0|0:0,0:0:0:0:
112,352,204248,2,0,L|276:352,1,143.499995620728,2|2,0:0|0:0,0:0:0:0:
328,348,204529,1,0,0:0:0:0:
112,352,204623,5,4,0:0:0:0:
