osu file format v14

[General]
AudioFilename: audio.mp3
AudioLeadIn: 0
PreviewTime: 168623
Countdown: 0
SampleSet: Soft
StackLeniency: 0.7
Mode: 2
LetterboxInBreaks: 0
WidescreenStoryboard: 1

[Editor]
Bookmarks: 72576,96576,108576,114576,132576,207951
DistanceSpacing: 1
BeatDivisor: 4
GridSize: 4
TimelineZoom: 2.4

[Metadata]
Title:CANDYYYLAND feat. LIZ (Pa's Lam System Remix)
TitleUnicode:CAND¥¥¥LAND feat. LIZ (Pa's Lam System Remix)
Artist:tofubeats
ArtistUnicode:tofubeats
Creator:Kukkai
Version:Cup
Source:
Tags:GiGas future bass instrumental electronic english candyland candy land
BeatmapID:4556370
BeatmapSetID:697012

[Difficulty]
HPDrainRate:2
CircleSize:2.5
OverallDifficulty:6
ApproachRate:6
SliderMultiplier:1.35
SliderTickRate:1

[Events]
//Background and Video events
0,0,"sugarrush.png",0,0
//Break Periods
2,72823,79823
2,144823,152573
//Storyboard Layer 0 (Background)
//Storyboard Layer 1 (Fail)
//Storyboard Layer 2 (Pass)
//Storyboard Layer 3 (Foreground)
//Storyboard Layer 4 (Overlay)
//Storyboard Sound Samples

[TimingPoints]
623,375,4,2,1,40,1,0
623,-100,4,2,1,40,0,0
716,-100,4,2,1,5,0,0
2123,-100,4,2,1,40,0,0
2216,-100,4,2,1,5,0,0
3623,-100,4,2,1,40,0,0
3716,-100,4,2,1,5,0,0
5123,-100,4,2,1,40,0,0
5216,-100,4,2,1,5,0,0
5873,-100,4,2,1,40,0,0
5966,-100,4,2,1,5,0,0
6623,-100,4,2,1,40,0,0
6716,-100,4,2,1,5,0,0
8123,-100,4,2,1,40,0,0
8216,-100,4,2,1,5,0,0
9623,-100,4,2,1,40,0,0
9716,-100,4,2,1,5,0,0
11123,-100,4,2,1,42,0,0
11216,-100,4,2,1,5,0,0
11498,-100,4,2,1,44,0,0
11591,-100,4,2,1,5,0,0
11873,-100,4,2,1,46,0,0
11966,-100,4,2,1,5,0,0
12248,-100,4,2,1,48,0,0
12341,-100,4,2,1,5,0,0
12623,-100,4,2,1,50,0,0
23123,-100,4,2,1,52,0,0
23216,-100,4,2,1,5,0,0
23498,-100,4,2,1,54,0,0
23591,-100,4,2,1,5,0,0
23873,-100,4,2,1,56,0,0
23966,-100,4,2,1,5,0,0
24248,-100,4,2,1,58,0,0
24341,-100,4,2,1,5,0,0
24623,-100,4,2,2,60,0,0
36623,-100,4,2,2,60,0,0
47498,-100,4,2,2,55,0,0
47591,-100,4,2,2,50,0,0
47685,-100,4,2,2,45,0,0
47779,-100,4,2,2,40,0,0
47873,-100,4,2,2,30,0,0
48623,-100,4,2,1,60,0,0
48998,-100,4,2,1,60,0,1
50966,-100,4,2,1,5,0,1
51248,-100,4,2,1,60,0,1
51341,-100,4,2,1,5,0,1
51623,-100,4,2,1,60,0,1
51810,-100,4,2,1,5,0,1
51904,-100,4,2,1,60,0,1
52091,-100,4,2,1,5,0,1
52185,-100,4,2,1,60,0,1
52373,-100,4,2,1,60,0,1
54623,-100,4,2,1,60,0,0
54716,-100,4,2,1,5,0,0
54998,-100,4,2,1,60,0,1
55373,-100,4,2,1,60,0,1
56591,-100,4,2,1,5,0,1
56873,-100,4,2,1,60,0,1
60623,-100,4,2,1,60,0,0
60998,-100,4,2,1,60,0,1
66529,-100,4,2,1,5,0,1
66623,-100,4,2,1,60,0,0
66716,-100,4,2,1,5,0,0
66998,-100,4,2,1,60,0,1
67279,-100,4,2,1,5,0,1
67373,-100,4,2,1,60,0,1
67466,-100,4,2,1,5,0,1
67748,-100,4,2,1,60,0,1
69623,-100,4,2,1,60,0,0
69810,-100,4,2,1,5,0,0
69904,-100,4,2,1,60,0,0
70091,-100,4,2,1,5,0,0
70185,-100,4,2,1,60,0,0
70279,-100,4,2,1,5,0,0
70373,-100,4,2,1,60,0,0
70466,-100,4,2,1,5,0,0
71123,-100,4,2,1,60,0,0
84623,-100,4,2,2,30,0,0
85373,-100,4,2,2,31,0,0
86123,-100,4,2,2,32,0,0
86873,-100,4,2,2,33,0,0
87623,-100,4,2,2,34,0,0
88373,-100,4,2,2,35,0,0
89123,-100,4,2,2,36,0,0
89873,-100,4,2,2,37,0,0
90623,-100,4,2,2,38,0,0
91373,-100,4,2,2,39,0,0
92123,-100,4,2,2,40,0,0
92873,-100,4,2,2,41,0,0
93623,-100,4,2,2,42,0,0
94373,-100,4,2,2,43,0,0
95123,-100,4,2,2,44,0,0
95873,-100,4,2,2,45,0,0
96623,-100,4,2,2,46,0,0
97373,-100,4,2,2,47,0,0
98123,-100,4,2,2,48,0,0
98873,-100,4,2,2,49,0,0
99623,-100,4,2,2,50,0,0
100373,-100,4,2,2,51,0,0
101123,-100,4,2,2,52,0,0
101873,-100,4,2,2,53,0,0
102623,-100,4,2,2,54,0,0
103373,-100,4,2,2,55,0,0
104123,-100,4,2,2,56,0,0
104873,-100,4,2,2,57,0,0
105623,-100,4,2,2,58,0,0
106373,-100,4,2,2,59,0,0
107123,-100,4,2,2,60,0,0
107873,-100,4,2,2,60,0,0
108623,-100,4,2,2,60,0,0
111623,-100,4,2,2,60,0,0
111810,-100,4,2,2,5,0,0
111904,-100,4,2,2,60,0,0
112091,-100,4,2,2,5,0,0
112185,-100,4,2,2,60,0,0
112279,-100,4,2,2,5,0,0
112373,-100,4,2,2,60,0,0
112560,-100,4,2,2,5,0,0
112654,-100,4,2,2,60,0,0
112841,-100,4,2,2,5,0,0
112935,-100,4,2,2,60,0,0
113123,-100,4,2,2,5,0,0
113216,-100,4,2,2,60,0,0
113404,-100,4,2,2,5,0,0
113498,-100,4,2,2,60,0,0
113591,-100,4,2,2,5,0,0
113685,-100,4,2,2,60,0,0
113779,-100,4,2,2,5,0,0
113873,-100,4,2,2,60,0,0
114060,-100,4,2,2,5,0,0
114154,-100,4,2,2,60,0,0
114341,-100,4,2,2,5,0,0
114435,-100,4,2,2,60,0,0
114529,-100,4,2,2,5,0,0
114623,-100,4,2,2,60,0,0
114810,-100,4,2,2,5,0,0
114904,-100,4,2,2,60,0,0
115091,-100,4,2,2,5,0,0
115185,-100,4,2,2,60,0,0
115279,-100,4,2,2,5,0,0
115373,-100,4,2,2,55,0,0
115560,-100,4,2,2,5,0,0
115654,-100,4,2,2,55,0,0
115841,-100,4,2,2,5,0,0
115935,-100,4,2,2,50,0,0
116123,-100,4,2,2,5,0,0
116216,-100,4,2,2,50,0,0
116404,-100,4,2,2,5,0,0
116498,-100,4,2,2,50,0,0
116591,-100,4,2,2,5,0,0
116685,-100,4,2,2,50,0,0
116779,-100,4,2,2,5,0,0
116873,-100,4,2,2,45,0,0
117060,-100,4,2,2,5,0,0
117154,-100,4,2,2,45,0,0
117341,-100,4,2,2,5,0,0
117435,-100,4,2,2,45,0,0
117529,-100,4,2,2,5,0,0
117623,-100,4,2,2,40,0,0
117810,-100,4,2,2,5,0,0
117904,-100,4,2,2,40,0,0
118091,-100,4,2,2,5,0,0
118185,-100,4,2,2,40,0,0
118279,-100,4,2,2,5,0,0
118373,-100,4,2,2,35,0,0
118560,-100,4,2,2,5,0,0
118654,-100,4,2,2,35,0,0
118841,-100,4,2,2,5,0,0
118935,-100,4,2,2,35,0,0
119029,-100,4,2,2,5,0,0
119123,-100,4,2,2,30,0,0
119873,-100,4,2,1,60,0,0
120623,-100,4,2,1,60,0,1
130935,-100,4,2,1,60,0,0
132623,-100,4,2,1,60,0,1
142935,-100,4,2,1,60,0,0
144623,-100,4,2,2,40,0,0
147623,-100,4,2,2,45,0,0
150623,-100,4,2,2,50,0,0
153623,-100,4,2,2,55,0,0
156623,-100,4,2,2,60,0,0
168248,-100,4,2,0,60,0,0
168623,-100,4,2,1,60,0,1
174623,-100,4,2,2,60,0,0
177623,-100,4,2,2,60,0,0
179873,-100,4,2,0,60,0,0
180623,-100,4,2,1,60,0,1
186060,-100,4,2,2,60,0,1
186623,-100,4,2,2,55,0,0
189623,-100,4,2,2,50,0,0
192248,-100,4,2,0,50,0,0
192623,-100,4,2,1,60,0,1
204623,-100,4,2,2,40,0,0

[Colours]
Combo1 : 231,204,193
Combo2 : 143,78,50
Combo3 : 193,137,113
Combo4 : 178,105,87
Combo5 : 127,123,102

[HitObjects]
432,352,623,6,0,P|256:256|80:360,1,405,2|0,1:2|0:0,0:0:0:0:
224,348,2123,6,0,P|352:248|208:104,1,405,2|0,0:0|0:0,0:0:0:0:
84,100,3623,6,0,P|228:200|416:92,1,405,2|0,0:0|0:0,0:0:0:0:
276,88,5123,6,0,P|136:176|280:324,1,405,2|0,0:0|0:0,0:0:0:0:
388,344,6623,6,0,P|408:240|160:128,1,405,2|0,0:0|0:0,0:0:0:0:
48,128,8123,6,0,P|112:188|400:124,1,405,2|0,0:0|0:0,0:0:0:0:
256,368,9623,6,0,P|168:344|232:100,1,405,2|0,0:0|0:0,0:0:0:0:
352,96,11123,6,0,L|352:252,1,135,2|2,0:0|0:0,0:0:0:0:
216,244,11873,2,0,L|216:96,1,135,2|2,0:0|0:0,0:0:0:0:
384,92,12623,6,0,L|96:92,1,270,2|8,1:2|0:0,0:0:0:0:
376,360,14123,6,0,L|376:212,1,135,2|0,1:2|0:0,0:0:0:0:
240,228,14873,1,8,0:0:0:0:
376,228,15248,1,0,1:0:0:0:
240,228,15623,6,0,P|184:208|248:60,1,270,2|8,1:2|0:0,0:0:0:0:
492,60,17123,5,2,1:2:0:0:
392,60,17404,1,0,1:0:0:0:
292,60,17685,1,0,1:0:0:0:
224,60,17873,2,0,L|224:216,1,135,8|0,0:0|1:0,0:0:0:0:
364,368,18623,6,0,P|436:340|360:216,1,270,2|8,1:2|0:0,0:0:0:0:
100,224,20123,6,0,L|388:224,1,270,2|8,1:2|0:0,0:0:0:0:
236,220,21248,1,0,1:0:0:0:
100,224,21623,6,0,P|56:184|116:12,1,270,2|8,1:2|0:0,0:0:0:0:
392,344,23123,6,0,L|244:344,1,135,2|2,1:2|0:0,0:0:0:0:
124,344,23873,2,0,L|124:192,1,135,2|2,0:0|0:0,0:0:0:0:
284,152,24623,6,0,L|436:152,2,135,8|8|8,0:0|0:0|0:0,0:0:0:0:
148,148,25748,1,8,0:0:0:0:
284,148,26123,6,0,L|284:292,1,135,8|8,0:0|0:0,0:0:0:0:
148,288,26873,2,0,L|60:288,2,67.5,8|0|8,0:0|0:0|0:0,0:0:0:0:
316,292,27623,2,0,L|316:144,1,135,8|8,0:0|0:0,0:0:0:0:
184,176,28373,2,0,L|32:176,1,135,8|8,0:0|0:0,0:0:0:0:
184,180,29123,6,0,L|344:180,2,135,8|8|8,0:0|0:0|0:0,0:0:0:0:
116,184,30060,1,0,0:0:0:0:
184,184,30248,1,8,0:0:0:0:
348,344,30623,6,0,L|348:192,1,135,8|8,0:0|0:0,0:0:0:0:
212,208,31373,2,0,L|212:64,1,135,8|8,0:0|0:0,0:0:0:0:
348,72,32123,6,0,L|192:72,1,135,8|8,0:0|0:0,0:0:0:0:
348,72,32873,2,0,L|436:72,2,67.5,8|0|8,0:0|0:0|0:0,0:0:0:0:
188,76,33623,6,0,L|36:76,2,135,8|8|8,0:0|0:0|0:0,0:0:0:0:
324,76,34748,1,8,0:0:0:0:
188,76,35123,6,0,L|188:236,1,135,8|8,0:0|0:0,0:0:0:0:
324,212,35873,1,8,0:0:0:0:
391,212,36060,1,0,0:0:0:0:
324,212,36248,1,8,0:0:0:0:
164,360,36623,6,0,P|120:312|188:140,1,270,8|8,1:1|0:1,0:0:0:0:
452,148,38123,6,0,L|452:304,1,135,8|8,1:1|0:1,0:0:0:0:
316,288,38873,1,8,0:1:0:0:
48,300,39623,6,0,L|48:152,1,135,8|8,1:1|0:1,0:0:0:0:
184,168,40373,2,0,L|184:16,1,135,8|8,0:1|0:1,0:0:0:0:
320,32,41123,6,0,L|472:32,2,135,8|8|8,1:1|0:1|0:1,0:0:0:0:
184,36,42248,1,8,0:1:0:0:
344,364,42623,6,0,L|344:208,1,135,8|8,1:1|0:1,0:0:0:0:
208,216,43373,2,0,L|208:72,1,135,8|8,1:1|0:1,0:0:0:0:
344,80,44123,6,0,L|496:80,2,135,8|8|8,1:1|0:1|1:1,0:0:0:0:
208,92,45248,1,8,0:1:0:0:
356,200,45623,6,0,L|440:200,2,67.5,8|8|8,1:1|1:1|1:1,0:0:0:0:
220,200,46373,2,0,L|128:200,2,67.5,8|8|8,1:1|1:1|1:1,0:0:0:0:
360,364,47123,6,0,P|424:320|328:184,1,270,8|0,1:1|0:1,0:0:0:0:
76,188,48623,5,8,0:3:0:0:
232,364,48998,2,0,P|296:332|216:192,1,270,8|8,0:1|0:1,0:0:0:0:
160,188,49935,6,0,L|388:184,1,202.5,0|0,1:0|0:0,0:0:0:0:
228,188,50873,2,0,L|228:328,1,135,8|0,1:0|1:0,0:0:0:0:
364,324,51623,6,0,L|492:324,2,101.25,0|0|0,1:0|1:0|1:0,0:0:0:0:
296,324,52373,1,8,1:1:0:0:
44,332,53123,6,0,L|180:332,1,135,0|0,1:0|1:0,0:0:0:0:
248,332,53685,1,0,1:0:0:0:
316,328,53873,2,0,P|376:300|292:164,1,270,8|0,0:1|1:0,0:0:0:0:
136,100,54998,6,0,L|424:96,1,270,8|8,0:1|0:1,0:0:0:0:
340,100,55935,6,0,L|120:100,1,202.5,0|0,1:0|0:0,0:0:0:0:
272,104,56873,2,0,L|272:248,1,135,8|0,0:1|1:0,0:0:0:0:
440,252,57623,6,0,L|288:256,1,135,0|0,1:0|1:0,0:0:0:0:
236,256,58185,1,0,1:0:0:0:
168,256,58373,2,0,L|168:104,1,135,8|0,0:1|1:0,0:0:0:0:
304,120,59123,6,0,L|424:120,2,101.25,0|0|0,1:0|1:0|1:0,0:0:0:0:
236,116,59873,2,0,L|236:272,1,135,8|0,1:0|0:0,0:0:0:0:
396,256,60623,5,0,1:0:0:0:
260,260,60998,2,0,P|192:244|272:132,1,270,8|8,0:1|0:1,0:0:0:0:
336,132,61935,6,0,L|488:132,1,135,0|0,1:0|1:0,0:0:0:0:
404,132,62498,1,0,0:0:0:0:
268,132,62873,2,0,L|268:272,1,135,8|0,0:1|1:0,0:0:0:0:
104,284,63623,6,0,L|20:284,1,67.5,0|0,1:0|1:0,0:0:0:0:
240,284,64373,2,0,L|368:284,2,101.25,8|8|8,0:1|0:1|0:1,0:0:0:0:
172,284,65123,6,0,L|52:284,2,101.25,0|0|0,1:0|1:0|1:0,0:0:0:0:
240,284,65873,2,0,P|324:200|224:116,1,270,8|0,0:1|1:0,0:0:0:0:
84,72,66998,6,0,L|236:72,1,135,8|0,0:1|0:0,0:0:0:0:
352,88,67748,2,0,L|352:184,1,67.5,8|0,0:1|1:0,0:0:0:0:
216,156,68310,5,0,1:0:0:0:
148,152,68498,2,0,L|292:152,1,135,0|8,0:0|0:1,0:0:0:0:
416,156,69248,1,0,1:0:0:0:
260,232,69623,6,0,L|144:232,2,101.25,0|0|0,1:0|1:0|1:0,0:0:0:0:
328,232,70373,6,0,P|392:200|308:64,1,270,8|0,0:1|1:0,0:0:0:0:
256,192,71498,12,0,72623,1:0:0:0:
256,192,80873,12,2,84248,0:0:0:0:
340,256,84623,6,0,L|56:256,1,270,8|8,0:0|0:0,0:0:0:0:
340,252,86123,6,0,L|504:252,2,135,8|0|8,0:0|0:0|0:0,0:0:0:0:
84,332,87623,6,0,L|84:168,1,135,8|0,0:0|0:0,0:0:0:0:
220,188,88373,2,0,L|380:188,1,135,8|0,0:0|0:0,0:0:0:0:
220,192,89123,6,0,L|80:192,2,135,8|0|8,0:0|0:0|0:0,0:0:0:0:
480,352,90623,6,0,L|480:200,1,135,8|0,0:0|0:0,0:0:0:0:
344,224,91373,2,0,L|344:64,1,135,8|0,0:0|0:0,0:0:0:0:
208,84,92123,6,0,L|208:240,1,135,8|0,0:0|0:0,0:0:0:0:
344,216,92873,2,0,L|488:216,1,135,8|0,0:0|0:0,0:0:0:0:
344,216,93623,6,0,L|192:220,2,135,8|0|8,0:0|0:0|0:0,0:0:0:0:
480,232,94748,1,0,0:0:0:0:
344,248,95123,6,0,L|344:96,1,135,8|0,0:0|0:0,0:0:0:0:
208,120,95873,2,0,L|112:120,2,67.5,10|2|10,0:0|0:0|0:0,0:0:0:0:
368,364,96623,6,0,L|368:216,1,135,8|10,1:0|0:0,0:0:0:0:
300,232,97185,1,2,0:0:0:0:
232,232,97373,2,0,L|72:232,1,135,10|10,0:0|0:0,0:0:0:0:
256,144,98123,6,0,L|420:144,1,135,10|10,0:0|0:0,0:0:0:0:
324,144,98685,1,2,0:0:0:0:
256,144,98873,2,0,L|256:296,1,135,10|10,0:0|0:0,0:0:0:0:
400,300,99623,6,0,L|252:300,1,135,10|10,0:0|0:0,0:0:0:0:
196,300,100185,1,2,0:0:0:0:
128,300,100373,2,0,L|128:140,1,135,10|10,0:0|0:0,0:0:0:0:
264,172,101123,6,0,L|412:172,1,135,10|10,0:0|0:0,0:0:0:0:
468,176,101685,1,2,0:0:0:0:
400,176,101873,2,0,L|248:176,1,135,10|10,0:0|0:0,0:0:0:0:
108,360,102623,6,0,L|108:212,1,135,10|10,0:0|0:0,0:0:0:0:
176,228,103185,1,2,0:0:0:0:
244,232,103373,2,0,L|248:76,1,135,10|10,0:0|0:0,0:0:0:0:
384,96,104123,6,0,L|384:252,1,135,10|10,0:0|0:0,0:0:0:0:
316,228,104685,1,2,0:0:0:0:
248,228,104873,2,0,L|108:228,1,135,10|10,0:0|0:0,0:0:0:0:
252,292,105623,6,0,L|408:292,1,135,10|10,0:0|0:0,0:0:0:0:
456,292,106185,1,2,0:0:0:0:
388,296,106373,2,0,L|240:296,1,135,10|10,0:0|0:0,0:0:0:0:
112,304,107123,6,0,L|112:152,1,135,10|10,0:0|0:0,0:0:0:0:
180,172,107685,1,2,0:0:0:0:
248,172,107873,2,0,L|404:172,1,135,2|2,0:0|0:0,0:0:0:0:
224,344,108623,2,0,L|224:200,1,135,2|10,1:0|0:0,0:0:0:0:
360,216,109373,2,0,L|360:76,1,135,2|10,0:0|0:0,0:0:0:0:
224,92,110123,6,0,L|84:92,2,135,2|10|2,0:0|0:0|0:0,0:0:0:0:
360,88,111248,1,10,0:0:0:0:
200,356,111623,6,0,L|200:212,1,135,2|0,0:0|0:0,0:0:0:0:
336,224,112373,2,0,L|472:224,1,135,2|0,0:0|0:0,0:0:0:0:
336,224,113123,6,0,L|192:224,1,135,2|2,0:0|0:0,0:0:0:0:
336,220,113873,2,0,L|336:80,1,135,2|0,0:0|0:0,0:0:0:0:
168,80,114623,6,0,L|28:80,2,135,2|0|2,0:0|0:0|0:0,0:0:0:0:
304,80,115748,6,0,L|448:80,2,135,0|2|2,0:0|0:0|0:0,0:0:0:0:
168,92,116873,2,0,L|168:244,1,135,2|0,0:0|0:0,0:0:0:0:
304,232,117623,6,0,L|148:232,1,135,2|0,0:0|0:0,0:0:0:0:
304,228,118373,2,0,L|464:228,1,135,2|0,0:0|0:0,0:0:0:0:
272,296,119123,5,2,0:0:0:0:
256,192,119498,12,0,119873,1:0:0:0:
212,236,120623,6,0,L|48:236,2,135,2|2|2,1:2|1:2|1:2,0:0:0:0:
312,236,121654,2,0,L|312:116,1,101.25,2|2,1:2|1:2,0:0:0:0:
108,132,122498,5,2,1:2:0:0:
244,132,122873,2,0,L|368:132,2,101.25,2|2|2,1:2|1:2|1:2,0:0:0:0:
176,136,123623,6,0,L|176:284,1,135,2|2,1:2|1:2,0:0:0:0:
312,272,124373,2,0,L|432:272,2,101.25,2|2|2,1:2|1:2|1:2,0:0:0:0:
108,284,125498,6,0,L|108:136,1,135,2|2,1:2|1:2,0:0:0:0:
208,148,126154,1,0,1:2:0:0:
308,148,126435,1,2,1:2:0:0:
376,148,126623,6,0,L|376:4,1,135,2|2,1:2|1:2,0:0:0:0:
240,24,127373,2,0,L|128:24,2,101.25,2|2|2,1:2|1:2|1:2,0:0:0:0:
444,28,128498,6,0,L|288:28,1,135,2|2,1:2|1:2,0:0:0:0:
208,32,129154,2,0,L|208:160,1,101.25,2|2,1:2|1:2,0:0:0:0:
276,132,129623,6,0,L|424:132,2,135,2|2|2,1:2|1:2|1:2,0:0:0:0:
176,128,130654,2,0,L|176:240,1,101.25,2|2,1:2|1:0,0:0:0:0:
312,224,131310,6,0,L|392:224,1,67.5,2|2,0:0|0:0,0:0:0:0:
244,228,131873,2,0,L|244:72,1,135,2|2,0:0|0:0,0:0:0:0:
408,108,132623,6,0,L|260:108,1,135,2|2,1:2|1:2,0:0:0:0:
140,112,133373,2,0,L|24:112,2,101.25,2|2|2,0:2|0:2|0:2,0:0:0:0:
276,100,134310,5,2,0:2:0:0:
344,100,134498,2,0,L|344:244,1,135,2|0,1:2|0:2,0:0:0:0:
244,236,135154,1,0,0:2:0:0:
144,240,135435,1,2,1:2:0:0:
212,236,135623,6,0,L|356:236,2,135,2|2|2,1:2|1:2|0:2,0:0:0:0:
112,256,136654,2,0,L|112:144,1,101.25,2|2,0:2|1:2,0:0:0:0:
248,156,137310,1,2,0:2:0:0:
316,152,137498,6,0,L|160:152,1,135,0|2,1:2|1:2,0:0:0:0:
80,168,138154,2,0,L|80:36,1,101.25,2|2,0:2|1:2,0:0:0:0:
148,68,138623,5,2,1:2:0:0:
284,72,138998,2,0,L|284:232,1,135,2|2,1:2|0:2,0:0:0:0:
184,204,139654,2,0,L|72:204,1,101.25,2|2,0:2|1:2,0:0:0:0:
216,204,140310,1,2,0:2:0:0:
284,204,140498,6,0,L|284:56,1,135,2|2,1:2|0:2,0:0:0:0:
184,60,141154,1,2,0:2:0:0:
284,60,141435,1,2,1:2:0:0:
352,60,141623,6,0,L|504:60,2,135,2|2|2,1:2|1:2|1:2,0:0:0:0:
252,64,142654,1,2,1:2:0:0:
152,68,142935,5,2,1:2:0:0:
288,64,143310,2,0,L|288:152,1,67.5,2|2,0:2|0:2,0:0:0:0:
152,368,143873,1,2,0:2:0:0:
288,368,144248,6,0,L|364:368,2,67.5,2|2|0,0:2|0:2|1:0,0:0:0:0:
256,192,153623,12,8,156248,0:0:0:0:
116,348,156623,6,0,L|116:196,1,135,0|0,1:0|1:0,0:0:0:0:
252,216,157373,2,0,L|396:216,1,135,0|0,1:0|1:0,0:0:0:0:
252,220,158123,6,0,L|96:220,1,135,0|0,1:0|1:0,0:0:0:0:
252,224,158873,2,0,L|252:76,1,135,0|0,1:0|1:0,0:0:0:0:
88,76,159623,6,0,L|248:76,1,135,0|0,1:0|1:0,0:0:0:0:
356,80,160373,2,0,L|356:224,1,135,0|0,1:0|1:0,0:0:0:0:
224,232,161123,6,0,L|224:76,1,135,0|0,1:0|1:0,0:0:0:0:
360,80,161873,2,0,L|504:80,1,135,0|0,1:0|1:0,0:0:0:0:
332,352,162623,5,0,1:2:0:0:
264,352,162810,1,0,1:2:0:0:
196,352,162998,1,0,1:2:0:0:
332,352,163373,1,0,1:2:0:0:
400,352,163560,1,0,1:2:0:0:
400,284,163748,1,0,1:2:0:0:
264,288,164123,5,0,1:2:0:0:
196,288,164310,1,0,1:2:0:0:
196,220,164498,1,0,1:2:0:0:
332,220,164873,2,0,L|432:220,2,67.5,0|0|0,1:2|1:2|1:2,0:0:0:0:
168,360,165623,5,0,1:2:0:0:
102,348,165810,1,0,1:2:0:0:
53,302,165998,1,0,1:2:0:0:
38,238,166185,1,0,1:2:0:0:
60,175,166373,1,0,1:2:0:0:
113,135,166560,1,0,1:2:0:0:
180,131,166748,1,0,1:2:0:0:
316,128,167123,5,0,1:2:0:0:
216,256,168623,6,0,L|96:256,2,101.25,0|0|0,1:0|1:0|1:0,0:0:0:0:
284,256,169373,2,0,L|340:256,1,33.75,8|0,0:1|0:0,0:0:0:0:
148,256,169935,6,0,P|104:228|168:112,1,202.5,0|0,1:0|1:0,0:0:0:0:
288,120,170873,2,0,L|288:8,1,101.25,8|0,0:1|0:0,0:0:0:0:
88,348,171623,6,0,L|204:348,1,101.25,0|0,1:0|1:0,0:0:0:0:
292,348,172185,2,0,L|292:248,1,67.5,0|8,1:0|0:1,0:0:0:0:
156,292,172748,1,0,0:0:0:0:
88,296,172935,6,0,P|48:272|112:156,1,202.5,0|0,1:0|1:0,0:0:0:0:
232,172,173873,2,0,L|88:172,1,135,8|0,0:1|0:0,0:0:0:0:
256,360,174623,6,0,L|256:216,1,135,8|8,1:2|0:0,0:0:0:0:
120,228,175373,2,0,L|120:64,1,135,8|8,0:0|0:0,0:0:0:0:
256,80,176123,6,0,L|416:80,2,135,8|8|8,0:0|0:0|0:0,0:0:0:0:
120,84,177248,1,8,0:0:0:0:
288,348,177623,6,0,L|364:348,2,67.5,8|8|8,0:0|0:0|0:0,0:0:0:0:
152,344,178373,2,0,L|64:344,2,67.5,8|8|8,0:0|0:0|0:0,0:0:0:0:
320,344,179123,5,8,0:0:0:0:
379,316,179310,1,8,0:0:0:0:
400,253,179498,1,8,0:0:0:0:
369,196,179685,1,8,0:0:0:0:
305,179,179873,1,8,0:0:0:0:
172,184,180248,1,0,0:0:0:0:
336,224,180623,6,0,L|456:224,2,101.25,0|0|0,1:0|1:0|1:0,0:0:0:0:
268,228,181373,2,0,L|216:228,1,33.75,8|0,0:1|0:0,0:0:0:0:
404,232,181935,6,0,P|444:200|372:84,1,202.5,0|0,1:0|1:0,0:0:0:0:
256,92,182873,2,0,L|144:92,1,101.25,8|0,0:1|0:0,0:0:0:0:
348,288,183623,6,0,L|468:288,2,101.25,0|0|0,1:0|1:0|1:0,0:0:0:0:
280,288,184373,1,8,0:1:0:0:
144,288,184748,1,0,0:0:0:0:
212,288,184935,6,0,L|360:288,1,135,0|0,1:0|1:0,0:0:0:0:
144,292,185873,2,0,L|144:152,1,135,8|2,0:1|0:0,0:0:0:0:
308,168,186623,6,0,L|456:168,2,135,2|2|2,0:0|0:0|0:0,0:0:0:0:
172,164,187748,1,2,0:0:0:0:
308,172,188123,6,0,L|308:12,1,135,2|2,0:0|0:0,0:0:0:0:
172,36,188873,2,0,L|24:36,1,135,2|2,0:0|0:0,0:0:0:0:
196,360,189623,6,0,L|196:204,1,135,2|2,0:0|0:0,0:0:0:0:
60,220,190373,1,2,0:0:0:0:
127,220,190560,1,2,0:0:0:0:
195,220,190748,1,2,0:0:0:0:
328,220,191123,6,0,L|328:72,1,135,2|2,0:0|0:0,0:0:0:0:
260,88,191685,1,2,0:0:0:0:
192,88,191873,1,2,0:0:0:0:
328,88,192248,1,0,0:0:0:0:
168,372,192623,6,0,P|140:312|184:252,1,135,0|0,1:0|0:0,0:0:0:0:
308,244,193373,2,0,L|308:100,1,135,8|0,0:1|0:0,0:0:0:0:
240,108,193935,6,0,L|20:108,1,202.5,0|0,1:0|0:0,0:0:0:0:
172,108,194873,2,0,L|300:108,2,101.25,8|0|2,0:1|1:0|1:2,0:0:0:0:
100,352,195623,6,0,P|72:320|116:244,1,135,0|0,1:0|0:0,0:0:0:0:
244,236,196373,2,0,L|388:236,1,135,8|0,0:1|0:0,0:0:0:0:
312,236,196935,6,0,P|252:196|328:112,1,202.5,0|0,1:0|0:0,0:0:0:0:
448,112,197873,2,0,L|448:240,1,101.25,8|0,0:1|1:0,0:0:0:0:
348,212,198435,1,2,1:2:0:0:
280,212,198623,6,0,L|132:212,1,135,0|0,1:0|0:0,0:0:0:0:
280,212,199373,2,0,P|296:144|260:92,1,135,8|0,0:1|0:0,0:0:0:0:
196,96,199935,6,0,L|408:96,1,202.5,0|0,1:0|0:0,0:0:0:0:
264,108,200873,1,8,0:1:0:0:
164,108,201154,2,0,L|164:232,1,101.25,0|2,1:0|1:2,0:0:0:0:
232,212,201623,6,0,L|392:212,1,135,0|0,1:0|0:0,0:0:0:0:
232,220,202373,2,0,P|208:184|248:108,1,135,8|0,0:1|0:0,0:0:0:0:
312,112,202935,6,0,L|88:112,1,202.5,0|0,1:0|0:0,0:0:0:0:
244,108,203873,2,0,L|244:260,1,135,2|2,0:0|0:0,0:0:0:0:
80,252,204623,5,4,0:0:0:0:
