osu file format v14

[General]
AudioFilename: audio.mp3
AudioLeadIn: 0
PreviewTime: 324028
Countdown: 0
SampleSet: Soft
StackLeniency: 0.3
Mode: 0
LetterboxInBreaks: 0
WidescreenStoryboard: 1

[Editor]
Bookmarks: 100028,128472,156916,171139,199583,206694,235139,263590,277812,297368,300977,315167,325833,329357,414716
DistanceSpacing: 1.9
BeatDivisor: 6
GridSize: 32
TimelineZoom: 1.9

[Metadata]
Title:Goodbye
TitleUnicode:グッドバイ
Artist:toe
ArtistUnicode:toe
Creator:Some Hero
Version:alone
Source:
Tags:Guddo Bai New Sentimentality - EP Japanese English math Rock j-rock jrock post post-rock
BeatmapID:3157908
BeatmapSetID:1544953

[Difficulty]
HPDrainRate:5
CircleSize:4
OverallDifficulty:8
ApproachRate:9
SliderMultiplier:1.4
SliderTickRate:1

[Events]
//Background and Video events
0,0,"alone.jpg",0,0
//Break Periods
2,205116,206094
2,236262,238128
2,243790,245212
2,250457,252323
2,257568,259434
2,263790,276545
2,299372,300377
2,315367,324344
//Storyboard Layer 0 (Background)
//Storyboard Layer 1 (Fail)
//Storyboard Layer 2 (Pass)
//Storyboard Layer 3 (Foreground)
//Storyboard Layer 4 (Overlay)
//Storyboard Sound Samples

[TimingPoints]
100028,444.444444444444,4,2,1,25,1,0
100028,-133.333333333333,4,2,1,25,0,0
100916,-266.666666666667,4,2,1,25,0,0
101805,-133.333333333333,4,2,1,25,0,0
103805,-266.666666666667,4,2,1,25,0,0
104916,-133.333333333333,4,2,1,25,0,0
105361,-266.666666666667,4,2,1,25,0,0
107139,-133.333333333333,4,2,1,25,0,0
108028,-266.666666666667,4,2,1,25,0,0
108916,-133.333333333333,4,2,1,25,0,0
110250,-266.666666666667,4,2,1,25,0,0
114250,-133.333333333333,4,2,1,25,0,0
116472,-266.666666666667,4,2,1,25,0,0
117805,-100,4,2,1,25,0,0
118250,-133.333333333333,4,2,1,25,0,0
119139,-266.666666666667,4,2,1,25,0,0
119583,-133.333333333333,4,2,1,25,0,0
121583,-266.666666666667,4,2,1,25,0,0
123139,-100,4,2,1,25,0,0
124916,-266.666666666667,4,2,1,25,0,0
128472,-133.333333333333,4,2,1,25,0,0
132250,-266.666666666667,4,2,1,25,0,0
133805,-133.333333333333,4,2,1,25,0,0
135805,-266.666666666667,4,2,1,25,0,0
136472,-133.333333333333,4,2,1,25,0,0
138250,-266.666666666667,4,2,1,25,0,0
139139,-133.333333333333,4,2,1,25,0,0
139805,-266.666666666667,4,2,1,25,0,0
142694,-133.333333333333,4,2,1,25,0,0
146472,-266.666666666667,4,2,1,25,0,0
148472,-133.333333333333,4,2,1,25,0,0
150694,-266.666666666667,4,2,1,25,0,0
151139,-133.333333333333,4,2,1,25,0,0
152472,-266.666666666667,4,2,1,25,0,0
153361,-133.333333333333,4,2,1,25,0,0
154028,-266.666666666667,4,2,1,25,0,0
156916,-66.6666666666667,4,2,1,40,0,0
157805,-133.333333333333,4,2,1,40,0,0
160472,-50,4,2,1,40,0,0
160805,-133.333333333333,4,2,1,40,0,0
161361,-100,4,2,1,40,0,0
162472,-66.6666666666667,4,2,1,40,0,0
164916,-100,4,2,1,40,0,0
167583,-66.6666666666667,4,2,1,40,0,0
170028,-476.190476190476,4,2,1,40,0,0
171028,-555.555555555556,4,2,1,5,0,0
171139,-66.6666666666667,4,2,1,40,0,0
172472,-133.333333333333,4,2,1,40,0,0
173139,-66.6666666666667,4,2,1,40,0,0
174250,-100,4,2,1,40,0,0
174694,-66.6666666666667,4,2,1,40,0,0
188472,-133.333333333333,4,2,1,40,0,0
188916,-50,4,2,1,40,0,0
189250,-66.6666666666667,4,2,1,40,0,0
192250,-66.6666666666667,4,2,1,25,0,0
192472,-66.6666666666667,4,2,1,40,0,0
200472,-266.666666666667,4,2,1,40,0,0
202990,-266.666666666667,4,2,1,30,0,0
203139,-133.333333333333,4,2,1,40,0,0
204916,-133.333333333333,4,2,1,25,0,0
206694,-40,4,2,1,50,0,1
207028,-133.333333333333,4,2,1,50,0,0
207583,-66.6666666666667,4,2,1,50,0,0
209361,-50,4,2,1,50,0,0
209805,-200,4,2,1,50,0,0
210250,-33.3333333333333,4,2,1,50,0,1
210583,-33.3333333333333,4,2,1,50,0,0
210916,-66.6666666666667,4,2,1,50,0,0
212916,-50,4,2,1,50,0,0
213361,-133.333333333333,4,2,1,50,0,0
213805,-40,4,2,1,50,0,1
214139,-133.333333333333,4,2,1,50,0,0
215805,-66.6666666666667,4,2,1,50,0,0
217361,-40,4,2,1,50,0,0
217694,-133.333333333333,4,2,1,50,0,0
219139,-50,4,2,1,50,0,0
220028,-66.6666666666667,4,2,1,50,0,0
220916,-50,4,2,1,50,0,0
221583,-133.333333333333,4,2,1,50,0,0
222916,-66.6666666666667,4,2,1,50,0,0
224472,-40,4,2,1,50,0,1
224805,-133.333333333333,4,2,1,50,0,0
227583,-200,4,2,1,50,0,0
228028,-40,4,2,1,50,0,1
228361,-40,4,2,1,50,0,0
228694,-66.6666666666667,4,2,1,50,0,0
231583,-40,4,2,1,50,0,0
232250,-66.6666666666667,4,2,1,50,0,0
232916,-100,4,2,1,50,0,0
235139,461.538461538462,4,2,1,50,1,0
236062,444.444444444444,4,2,1,50,1,0
238728,441.176470588235,4,2,1,50,1,0
240272,-200,4,2,1,50,0,0
242257,444.444444444444,4,2,1,50,1,0
246923,-200,4,2,1,50,0,0
261812,-66.6666666666667,4,2,1,5,0,0
262257,-66.6666666666667,4,2,1,10,0,0
262701,-66.6666666666667,4,2,1,15,0,0
263145,-66.6666666666667,4,2,1,20,0,0
263590,-100,4,2,1,50,0,0
277201,-75.7575757575758,4,2,1,50,0,0
277812,-100,4,2,1,40,0,0
295812,-80,4,2,1,40,0,0
297368,451.127819548872,4,2,1,50,1,0
297368,-1000,4,2,1,50,0,0
300977,443.458980044346,4,2,1,50,1,0
300977,-40,4,2,1,50,0,1
301309,-66.6666666666667,4,2,1,50,0,0
303637,-50,4,2,1,50,0,0
304081,-153.846153846154,4,2,1,50,0,0
304524,-33.3333333333333,4,2,1,50,0,1
304857,-66.6666666666667,4,2,1,50,0,0
308072,-50,4,2,1,50,0,1
308404,-50,4,2,1,50,0,0
311176,-200,4,2,1,50,0,0
311620,-33.3333333333333,4,2,1,50,0,1
311952,-66.6666666666667,4,2,1,50,0,0
312285,-50,4,2,1,50,0,0
315167,444.444444444444,4,2,1,50,1,0
324944,-125,4,2,1,25,0,0
325611,-125,4,2,1,15,0,0
325833,440.528634361234,4,2,1,25,1,0
325833,-1000,4,2,1,15,0,0
328255,-1000,4,2,1,50,0,0
329357,447.761194029851,4,2,1,50,1,0
329357,-50,4,2,1,50,0,1
329692,-66.6666666666667,4,2,1,50,0,0
332491,-200,4,2,1,50,0,0
332939,-50,4,2,1,50,0,0
333610,-66.6666666666667,4,2,1,50,0,0
334730,441.176470588235,4,2,1,50,1,0
334730,-66.6666666666667,4,2,1,50,0,0
336494,444.444444444444,4,2,1,50,1,0
336494,-66.6666666666667,4,2,1,50,0,0
346716,-200,4,2,1,50,0,0
347160,-50,4,2,1,50,0,0
347605,-66.6666666666667,4,2,1,50,0,0
356271,-50,4,2,1,50,0,0
356938,-66.6666666666667,4,2,1,50,0,0
373382,-133.333333333333,4,2,1,50,0,0
375160,-66.6666666666667,4,2,1,50,0,0
378716,-200,4,2,1,50,0,0
379160,-50,4,2,1,50,0,0
379827,-66.6666666666667,4,2,1,50,0,0
382716,-50,4,2,1,50,0,0
383049,-66.6666666666667,4,2,1,50,0,0
389382,-200,4,2,1,50,0,0
389827,-50,4,2,1,50,0,0
390493,-66.6666666666667,4,2,1,50,0,0
397716,-133.333333333333,4,2,1,50,0,0
398049,-66.6666666666667,4,2,1,50,0,0
401827,-133.333333333333,4,2,1,50,0,0
402271,-66.6666666666667,4,2,1,50,0,0
403605,-133.333333333333,4,2,1,50,0,0
404049,-66.6666666666667,4,2,1,50,0,0
410716,-200,4,2,1,50,0,0
411160,-66.6666666666667,4,2,1,50,0,0
414716,447.761194029851,4,2,1,50,1,0
415051,-66.6666666666667,4,2,1,50,0,0
417738,-66.6666666666667,4,2,1,30,0,0
417982,304.568527918782,4,2,1,30,1,0
418134,-100,4,2,1,50,0,0
418298,454.545454545455,4,2,1,50,1,0
419227,545.454545454546,4,2,1,50,1,0
420583,674.157303370787,4,2,1,50,1,0
421257,582.52427184466,4,2,1,50,1,0
421839,458.015267175573,4,2,1,50,1,0
421839,-222.222222222222,4,2,1,40,0,0
423671,468.75,4,2,1,40,1,0
424608,483.870967741935,4,2,1,30,1,0
424608,-100,4,2,1,30,0,0
425374,560.747663551402,4,2,1,30,1,0
425560,444.444444444444,4,2,1,30,1,0

[Colours]
Combo1 : 255,161,178
Combo2 : 126,190,230
Combo3 : 237,186,135

[HitObjects]
49,350,100028,5,2,3:2:0:0:
49,350,100250,2,0,L|51:323,3,26.2500010013581,0|0|2|0,3:2|3:2|3:2|3:2,0:2:0:0:
122,272,100694,1,0,3:2:0:0:
122,272,100916,2,0,L|119:245,1,26.2500010013581,2|0,3:2|0:2,0:2:0:0:
196,238,101250,2,0,L|198:264,1,26.2500010013581,0|0,3:2|0:2,0:2:0:0:
263,309,101583,1,2,3:2:0:0:
351,244,101805,2,0,P|345:191|340:138,2,105.000004005432,2|2|2,0:2|0:2|0:2,0:2:0:0:
418,297,102916,2,0,L|416:323,3,26.2500010013581,0|0|2|0,3:2|3:2|3:2|3:2,0:2:0:0:
351,244,103361,1,0,3:2:0:0:
341,140,103583,5,2,0:2:0:0:
341,140,103805,2,0,L|366:135,1,26.2500010013581,0|2,3:2|0:2,0:2:0:0:
350,63,104139,2,0,L|324:67,1,26.2500010013581,0|0,3:2|0:2,0:2:0:0:
250,80,104472,1,2,3:2:0:0:
252,90,104583,1,0,3:2:0:0:
254,100,104694,1,0,3:2:0:0:
197,211,104916,2,0,L|196:237,3,26.2500010013581,2|0|0|0,3:2|3:2|3:2|3:2,0:2:0:0:
136,158,105361,6,0,L|137:131,1,26.2500010013581,2|0,0:2|0:2,0:2:0:0:
80,216,105805,2,0,L|53:214,1,26.2500010013581,2|0,0:2|0:2,0:2:0:0:
130,279,106250,2,0,L|128:305,1,26.2500010013581,2|0,0:2|0:2,0:2:0:0:
186,222,106694,1,2,0:2:0:0:
136,158,106916,1,0,0:2:0:0:
231,362,107139,6,0,P|281:371|324:342,1,105.000004005432,2|2,0:2|3:2,0:2:0:0:
333,346,107694,1,0,3:2:0:0:
341,350,107805,1,0,3:2:0:0:
493,280,108028,2,0,L|494:253,1,26.2500010013581,2|0,3:2|0:2,0:2:0:0:
420,251,108361,2,0,L|419:278,1,26.2500010013581,0|0,3:2|0:2,0:2:0:0:
346,246,108694,1,0,3:2:0:0:
350,141,108916,6,0,P|351:88|354:36,2,105.000004005432,2|2|2,0:2|3:2|0:2,0:2:0:0:
350,141,110250,6,0,L|377:140,2,26.2500010013581,2|0|2,0:2|0:2|0:2,0:2:0:0:
292,81,110916,2,0,L|266:82,1,26.2500010013581,2|0,3:2|0:2,0:2:0:0:
350,141,111361,2,0,L|377:140,1,26.2500010013581,2|0,0:2|0:2,0:2:0:0:
292,81,111805,1,2,0:2:0:0:
350,141,112028,2,0,L|377:140,1,26.2500010013581,2|0,0:2|0:2,0:2:0:0:
292,81,112472,1,2,0:2:0:0:
350,141,112694,2,0,L|377:140,1,26.2500010013581,2|0,0:2|0:2,0:2:0:0:
292,81,113139,1,2,0:2:0:0:
350,141,113361,2,0,L|377:140,1,26.2500010013581,2|0,0:2|0:2,0:2:0:0:
292,81,113805,1,2,0:2:0:0:
79,215,114250,6,0,L|80:242,3,26.2500010013581,2|0|0|0,3:2|3:2|3:2|3:2,0:2:0:0:
140,295,114694,1,2,3:2:0:0:
139,306,114805,1,0,3:2:0:0:
138,317,114916,1,0,3:2:0:0:
248,384,115139,6,0,P|295:366|305:317,1,105.000004005432,2|2,0:2|3:2,0:2:0:0:
359,259,115694,2,0,L|359:232,2,26.2500010013581,0|0|0,3:2|3:2|3:2,0:2:0:0:
437,236,116028,1,2,3:2:0:0:
437,236,116472,2,0,L|436:262,2,26.2500010013581,0|0|0,3:2|3:2|3:2,0:2:0:0:
305,317,117361,1,0,3:2:0:0:
294,316,117472,1,0,3:2:0:0:
283,315,117583,1,0,3:2:0:0:
172,204,117805,6,0,L|171:180,5,23.3333333333333,0|0|0|0|0|0,3:2|3:2|3:2|3:2|3:2|3:2,0:2:0:0:
217,114,118250,2,0,B|269:108|273:129|320:122,1,105.000004005432,2|2,3:2|3:2,0:2:0:0:
361,52,118805,1,0,3:2:0:0:
361,52,119028,1,0,3:2:0:0:
302,2,119139,2,0,P|288:3|275:4,1,26.2500010013581,2|0,3:2|0:2,0:2:0:0:
217,114,119583,6,0,L|219:140,3,26.2500010013581,2|0|0|0,3:2|3:2|3:2|3:2,0:2:0:0:
172,204,120028,1,2,0:2:0:0:
17,221,120472,2,0,P|12:168|5:116,1,105.000004005432,2|0,0:2|0:2,0:2:0:0:
52,52,121139,1,0,3:2:0:0:
60,49,121250,1,0,3:2:0:0:
68,46,121361,1,2,3:2:0:0:
217,114,121583,6,0,L|243:114,1,26.2500010013581,0|2,3:2|0:2,0:2:0:0:
290,183,121916,2,0,L|316:183,1,26.2500010013581,0|0,3:2|0:2,0:2:0:0:
374,243,122250,1,2,3:2:0:0:
314,298,122472,1,0,3:2:0:0:
314,307,122583,1,0,3:2:0:0:
314,316,122694,1,2,3:2:0:0:
477,369,122916,5,0,3:2:0:0:
477,360,123027,1,0,3:2:0:0:
477,351,123139,2,0,L|477:327,6,23.3333333333333,2|0|0|0|0|0|0,3:2|3:2|0:2|3:2|0:2|3:2|0:2,0:2:0:0:
374,242,124028,2,2,L|373:218,11,23.3333333333333,2|0|0|0|0|0|0|0|0|0|0|0,3:2|3:2|3:2|3:2|3:2|3:2|3:2|3:2|3:2|3:2|3:2|3:2,0:1:0:0:
436,163,124916,6,0,L|436:136,2,26.2500010013581,2|2|2,3:2|3:2|3:2,0:2:0:0:
373,217,125583,2,0,L|374:243,1,26.2500010013581,2|0,0:2|3:2,0:2:0:0:
436,163,126028,1,2,0:2:0:0:
373,217,126250,2,0,L|374:243,1,26.2500010013581,2|0,0:2|0:2,0:2:0:0:
436,163,126694,1,2,0:2:0:0:
373,217,126916,2,0,L|374:243,1,26.2500010013581,2|0,0:2|0:2,0:2:0:0:
436,163,127361,1,2,0:2:0:0:
373,217,127583,2,0,L|374:243,1,26.2500010013581,2|0,0:2|0:2,0:2:0:0:
436,163,128028,1,2,0:2:0:0:
372,83,128250,5,2,0:2:0:0:
365,78,128361,1,2,0:2:0:0:
358,74,128472,2,0,B|282:86|301:121|211:125,1,157.500006008148,2|0,0:2|0:2,0:2:0:0:
138,66,129361,1,2,0:2:0:0:
142,69,129583,2,0,P|140:42|136:16,1,52.5000020027161,2|0,0:2|0:2,0:2:0:0:
211,125,130028,2,0,P|209:151|205:177,1,52.5000020027161,2|0,0:2|0:2,0:2:0:0:
81,204,130472,6,0,P|50:244|60:294,1,105.000004005432,2|2,0:2|0:2,0:2:0:0:
135,332,131139,1,2,0:2:0:0:
210,300,131361,1,2,0:2:0:0:
284,329,131583,2,0,B|337:335|340:316|386:314,1,105.000004005432,2|2,0:2|0:2,0:2:0:0:
440,247,132250,6,0,L|438:221,2,26.2500010013581,2|0|0,0:2|0:2|0:2,0:2:0:0:
387,314,132916,2,0,L|385:340,1,26.2500010013581,2|0,0:2|0:2,0:2:0:0:
327,256,133361,2,0,L|329:230,1,26.2500010013581,2|0,0:2|0:2,0:2:0:0:
275,161,133805,2,0,B|221:162|221:151|170:152,3,105.000004005432,2|2|2|2,0:2|0:2|0:2|0:2,0:2:0:0:
100,43,135361,5,2,0:2:0:0:
101,32,135472,1,2,0:2:0:0:
102,21,135583,1,2,0:2:0:0:
170,151,135805,2,0,L|168:177,2,26.2500010013581,2|0|0,0:2|3:2|3:2,0:2:0:0:
108,230,136472,2,0,L|110:256,3,26.2500010013581,2|0|0|0,3:2|3:2|3:2|3:2,0:2:0:0:
58,315,136916,1,2,3:2:0:0:
180,364,137139,6,0,B|230:352|241:365|284:355,1,105.000004005432,2|0,0:2|0:2,0:2:0:0:
328,283,137805,1,2,0:2:0:0:
406,302,138028,1,2,0:2:0:0:
466,248,138250,2,0,L|466:221,2,26.2500010013581,2|2|2,0:2|0:2|0:2,0:2:0:0:
393,135,138916,5,0,3:2:0:0:
387,129,139028,1,0,3:2:0:0:
381,123,139139,2,0,P|334:141|319:189,1,105.000004005432,2|2,3:2|0:2,0:2:0:0:
243,207,139805,2,0,L|217:212,1,26.2500010013581,2|0,3:2|3:2,0:2:0:0:
319,189,140250,1,2,0:2:0:0:
243,207,140472,2,0,L|217:212,1,26.2500010013581,2|0,0:2|0:2,0:2:0:0:
319,189,140916,1,2,0:2:0:0:
243,207,141139,2,0,L|217:212,1,26.2500010013581,2|0,0:2|0:2,0:2:0:0:
319,189,141583,1,2,0:2:0:0:
243,207,141806,2,0,L|217:212,1,26.2500010013581,2|0,0:2|0:2,0:2:0:0:
319,189,142250,1,2,0:2:0:0:
184,287,142472,5,2,0:2:0:0:
185,294,142583,1,2,0:2:0:0:
186,301,142694,2,0,B|100:312|117:267|36:263,1,157.500006008148,2|0,0:2|0:2,0:2:0:0:
36,263,143583,1,2,0:2:0:0:
76,191,143805,2,0,P|102:184|126:174,1,52.5000020027161,2|0,0:2|0:2,0:2:0:0:
133,68,144250,6,0,P|109:23|59:16,1,105.000004005432,2|2,0:2|0:2,0:2:0:0:
5,80,144916,2,0,P|11:105|15:131,1,52.5000020027161,0|2,3:2|0:2,0:2:0:0:
76,191,145361,1,2,0:2:0:0:
139,239,145583,1,2,0:2:0:0:
208,199,145805,2,0,B|261:195|266:215|310:211,1,105.000004005432,2|2,0:2|0:2,0:2:0:0:
363,278,146472,2,0,L|360:304,2,26.2500010013581,2|0|0,0:2|3:2|3:2,0:2:0:0:
425,218,147139,2,0,L|422:191,2,26.2500010013581,2|0|2,0:2|3:2|3:2,0:2:0:0:
482,281,147805,5,0,3:2:0:0:
481,292,147916,1,0,3:2:0:0:
481,303,148028,1,0,3:2:0:0:
480,314,148139,1,0,3:2:0:0:
480,325,148251,1,0,3:2:0:0:
416,379,148472,2,0,B|366:380|358:362|312:361,1,105.000004005432,2|0,0:2|0:2,0:2:0:0:
241,322,149139,2,0,P|239:295|237:269,2,52.5000020027161,2|0|0,0:2|3:2|3:2,0:2:0:0:
313,361,149805,1,2,0:2:0:0:
118,94,150250,5,0,3:2:0:0:
108,95,150361,1,0,3:2:0:0:
98,96,150472,1,0,3:2:0:0:
46,157,150694,2,0,L|46:183,1,26.2500010013581,2|0,0:2|3:2,0:2:0:0:
0,93,151139,2,0,L|0:66,2,26.2500010013581,2|0|0,3:2|3:2|3:2,0:2:0:0:
46,157,151583,6,0,B|106:155|94:173|149:171,1,105.000004005432,0|2,3:2|0:2,0:2:0:0:
215,230,152250,1,0,0:2:0:0:
165,299,152472,2,0,L|166:325,1,26.2500010013581,2|0,0:2|0:2,0:2:0:0:
90,332,152916,2,0,L|88:305,1,26.2500010013581,2|2,0:2|0:2,0:2:0:0:
215,230,153361,6,0,P|264:244|294:286,1,105.000004005432,2|2,0:2|0:2,0:2:0:0:
356,342,154028,2,0,L|356:368,2,26.2500010013581,2|0|2,0:2|3:2|0:2,0:2:0:0:
294,286,154694,2,0,L|294:259,1,26.2500010013581,2|0,0:2|0:2,0:2:0:0:
356,342,155139,1,2,0:2:0:0:
294,286,155361,2,0,L|294:259,1,26.2500010013581,2|0,0:2|0:2,0:2:0:0:
356,342,155805,1,2,0:2:0:0:
294,286,156028,2,0,L|294:259,1,26.2500010013581,2|0,0:2|0:2,0:2:0:0:
356,342,156472,1,2,0:2:0:0:
478,180,156694,5,2,0:2:0:0:
473,176,156768,1,8,0:2:0:0:
468,172,156842,1,8,0:2:0:0:
463,168,156916,1,6,1:2:0:0:
412,18,157250,6,0,P|364:37|347:85,1,105,8|8,0:2|0:2,0:2:0:0:
285,132,157583,1,0,1:2:0:0:
285,132,157805,2,0,P|289:172|291:211,1,78.7500030040742,8|8,0:2|0:2,0:2:0:0:
180,273,158250,5,0,3:2:0:0:
165,271,158361,1,0,3:2:0:0:
152,265,158472,1,2,1:3:0:0:
207,102,158694,5,0,3:2:0:0:
212,115,158805,1,0,3:2:0:0:
215,129,158916,1,2,0:3:0:0:
70,168,159139,5,0,3:2:0:0:
79,156,159250,1,0,3:2:0:0:
90,147,159361,1,0,3:2:0:0:
158,186,159472,5,8,0:2:0:0:
156,192,159583,5,8,0:2:0:0:
48,327,160250,5,2,0:2:0:0:
46,317,160361,1,2,0:2:0:0:
44,307,160472,2,0,B|114:302|114:341|179:331,1,140,6|0,1:2|3:2,0:2:0:0:
161,244,160805,2,0,P|157:218|156:192,1,52.5000020027161,8|0,0:2|3:2,0:2:0:0:
179,331,161139,1,0,1:2:0:0:
359,383,161361,2,0,P|362:330|363:278,1,105,8|8,0:2|0:2,0:2:0:0:
302,218,161805,5,0,3:2:0:0:
300,202,161916,1,0,3:2:0:0:
299,187,162028,1,2,1:3:0:0:
371,106,162250,5,0,3:2:0:0:
370,121,162361,1,0,3:2:0:0:
369,137,162473,1,2,1:3:0:0:
428,233,162694,5,0,3:2:0:0:
427,217,162805,1,0,3:2:0:0:
426,202,162917,1,2,1:3:0:0:
491,118,163139,5,0,3:2:0:0:
490,133,163250,1,0,3:2:0:0:
489,148,163362,1,2,1:3:0:0:
249,47,163879,5,2,0:2:0:0:
245,42,163953,1,2,0:2:0:0:
241,37,164028,2,0,B|166:41|168:72|89:72,1,157.500006008148,6|8,1:2|0:2,0:2:0:0:
0,179,164583,1,0,3:2:0:0:
0,179,164694,2,0,P|3:205|4:231,1,52.5000020027161,0|0,1:2|0:2,0:2:0:0:
90,167,164916,2,0,P|109:119|89:72,1,105.000004005432,8|8,0:2|0:2,0:2:0:0:
133,237,165361,5,0,3:2:0:0:
148,240,165472,1,0,3:2:0:0:
163,243,165583,1,2,1:3:0:0:
256,296,165805,5,0,3:2:0:0:
241,299,165916,1,0,3:2:0:0:
226,302,166027,1,2,1:3:0:0:
125,348,166250,5,0,3:2:0:0:
140,351,166361,1,0,3:2:0:0:
155,354,166472,1,0,3:2:0:0:
236,384,166583,5,8,0:2:0:0:
242,382,166694,5,8,0:2:0:0:
426,202,167250,5,8,0:2:0:0:
420,200,167361,5,8,0:2:0:0:
362,121,167583,1,0,3:2:0:0:
362,121,167694,2,0,L|309:128,2,52.5000020027161,8|0|8,0:2|3:2|0:2,0:2:0:0:
406,51,168028,1,2,1:3:0:0:
406,51,168472,5,0,3:2:0:0:
241,68,168750,5,8,0:2:0:0:
243,74,168861,5,8,0:2:0:0:
315,352,169583,5,2,1:3:0:0:
327,278,169805,1,0,3:2:0:0:
327,278,169916,1,8,0:2:0:0:
327,278,170028,2,2,P|326:254|321:277,1,66.1499979812623,2|0,1:3|3:2,0:2:0:0:
315,352,171139,5,6,1:2:0:0:
478,190,171472,1,8,0:2:0:0:
478,190,171583,2,0,P|474:163|472:137,1,52.5000020027161,0|0,3:2|3:2,0:2:0:0:
394,146,171805,2,0,P|397:172|399:198,1,52.5000020027161,0|0,1:2|0:2,0:2:0:0:
334,91,172028,5,10,0:2:0:0:
334,91,172250,1,2,3:2:0:0:
222,18,172361,1,8,0:2:0:0:
147,19,172472,2,0,P|118:43|111:81,1,78.7500030040742,2|0,0:3|3:2,0:2:0:0:
46,134,172916,5,0,3:2:0:0:
46,134,173028,1,0,3:2:0:0:
46,134,173139,2,0,P|46:160|44:186,1,52.5000020027161,0|0,1:2|3:2,0:2:0:0:
98,254,173361,2,0,P|98:280|100:306,1,52.5000020027161,0|0,3:2|0:2,0:2:0:0:
33,360,173583,1,0,3:2:0:0:
35,366,173657,1,0,3:2:0:0:
37,372,173731,1,0,3:2:0:0:
39,378,173805,1,8,0:2:0:0:
222,350,174139,5,8,0:2:0:0:
272,286,174250,1,2,0:3:0:0:
272,286,174694,6,0,P|324:287|376:295,1,105.000004005432,6|0,1:2|0:2,0:2:0:0:
429,235,175028,1,8,0:2:0:0:
429,235,175250,1,0,3:2:0:0:
412,109,175361,2,0,P|365:129|354:178,1,105.000004005432,0|8,1:2|0:2,0:2:0:0:
495,163,175805,1,0,3:2:0:0:
492,154,175916,1,8,0:2:0:0:
490,145,176028,1,2,0:3:0:0:
296,87,176250,5,0,3:2:0:0:
293,94,176361,1,0,3:2:0:0:
290,101,176472,2,0,P|264:103|239:94,1,52.5000020027161,0|0,3:2|0:2,0:2:0:0:
224,11,176694,1,0,1:2:0:0:
72,29,176916,6,0,P|74:56|73:83,1,52.5000020027161,0|0,3:2|0:2,0:2:0:0:
134,135,177139,1,0,3:2:0:0:
136,141,177213,1,0,3:2:0:0:
137,147,177287,1,0,3:2:0:0:
139,153,177361,1,8,0:2:0:0:
70,310,177583,1,0,3:2:0:0:
70,310,177694,1,0,3:2:0:0:
70,310,177805,1,2,0:3:0:0:
308,338,178028,5,8,0:2:0:0:
314,332,178139,1,8,0:2:0:0:
320,326,178250,2,0,P|290:284|240:277,1,105.000004005432,4|0,1:2|0:2,0:2:0:0:
174,227,178583,1,8,0:2:0:0:
174,227,178805,1,0,3:2:0:0:
257,146,178916,6,0,P|283:145|309:142,1,52.5000020027161,0|0,1:2|0:2,0:2:0:0:
363,203,179139,2,0,P|415:199|467:201,1,105.000004005432,10|2,0:2|3:2,0:2:0:0:
473,194,179472,1,8,0:2:0:0:
479,187,179583,1,2,0:3:0:0:
379,22,179805,5,2,3:2:0:0:
379,22,179916,1,0,3:2:0:0:
379,22,180028,2,0,P|379:48|378:74,1,52.5000020027161,0|0,3:2|0:2,0:2:0:0:
428,132,180250,1,2,1:2:0:0:
257,146,180472,5,0,3:2:0:0:
214,130,180583,1,0,3:2:0:0:
196,90,180694,1,0,3:2:0:0:
196,82,180768,1,0,3:2:0:0:
198,75,180842,1,0,3:2:0:0:
201,68,180916,1,8,0:2:0:0:
0,30,181250,5,8,0:2:0:0:
66,68,181361,1,2,0:3:0:0:
66,68,181805,6,0,P|61:120|59:172,1,105.000004005432,6|0,1:2|0:2,0:2:0:0:
118,230,182139,1,8,0:2:0:0:
118,230,182361,1,0,3:2:0:0:
247,287,182472,2,0,P|245:260|246:234,1,52.5000020027161,0|0,1:2|0:2,0:2:0:0:
193,349,182694,1,10,0:2:0:0:
428,220,183028,5,8,0:2:0:0:
373,164,183139,1,2,0:3:0:0:
373,164,183361,2,0,P|371:137|369:111,2,52.5000020027161,2|0|2,3:2|3:2|0:3,0:2:0:0:
328,228,183694,1,0,3:2:0:0:
328,228,183805,2,0,P|329:254|331:280,1,52.5000020027161,0|0,1:2|3:2,0:2:0:0:
427,354,184028,5,0,3:2:0:0:
472,343,184139,1,0,3:2:0:0:
490,303,184250,1,0,3:2:0:0:
490,295,184324,1,0,3:2:0:0:
488,288,184398,1,0,3:2:0:0:
486,281,184472,1,8,0:2:0:0:
296,153,184694,5,2,0:3:0:0:
296,153,184805,1,8,0:2:0:0:
252,145,184916,1,8,0:2:0:0:
214,168,185028,1,8,0:3:0:0:
195,208,185139,1,8,0:3:0:0:
202,254,185250,1,0,3:2:0:0:
154,318,185361,6,0,P|101:311|49:311,1,105.000004005432,4|0,1:2|0:2,0:2:0:0:
10,245,185694,1,8,0:2:0:0:
10,245,185916,1,0,3:2:0:0:
30,132,186028,2,0,P|34:106|37:80,1,52.5000020027161,0|0,1:2|0:2,0:2:0:0:
112,92,186250,2,0,P|107:117|104:143,1,52.5000020027161,10|0,0:2|0:2,0:2:0:0:
181,48,186472,1,2,3:2:0:0:
181,48,186583,1,0,3:2:0:0:
181,48,186694,1,2,0:3:0:0:
298,205,186916,5,2,3:2:0:0:
298,205,187028,2,0,P|297:178|295:152,1,52.5000020027161,0|0,3:2|3:2,0:2:0:0:
378,149,187250,1,0,3:2:0:0:
378,149,187362,2,0,P|378:175|380:201,1,52.5000020027161,2|0,1:2|0:2,0:2:0:0:
443,255,187583,5,0,3:2:0:0:
460,293,187694,1,0,3:2:0:0:
451,336,187805,1,2,3:2:0:0:
447,341,187879,1,0,3:2:0:0:
442,345,187953,1,0,3:2:0:0:
437,348,188028,1,10,0:2:0:0:
154,318,188361,5,8,0:2:0:0:
154,318,188472,2,0,P|153:278|148:239,1,78.7500030040742,2|0,0:3|0:2,0:2:0:0:
191,174,188916,6,0,P|188:106|242:68,1,140,6|0,1:2|0:2,0:2:0:0:
242,68,189250,2,0,P|233:92|213:109,1,52.5000020027161,8|0,0:2|0:2,0:2:0:0:
111,71,189472,1,0,3:2:0:0:
89,3,189583,1,0,1:2:0:0:
89,3,189805,6,0,P|38:12|6:53,1,105.000004005432,8|0,0:2|0:2,0:2:0:0:
0,126,190139,1,8,0:2:0:0:
41,185,190250,1,2,0:3:0:0:
191,174,190472,1,0,3:2:0:0:
201,175,190583,1,0,3:2:0:0:
210,176,190694,2,0,P|222:200|223:226,1,52.5000020027161,0|0,3:2|0:2,0:2:0:0:
109,357,190916,2,0,P|97:333|96:307,1,52.5000020027161,0|0,1:2|0:2,0:2:0:0:
172,283,191139,5,0,3:2:0:0:
204,299,191250,1,0,3:2:0:0:
219,333,191361,1,2,3:2:0:0:
221,340,191435,1,0,3:2:0:0:
222,347,191509,1,0,3:2:0:0:
222,354,191583,1,8,0:2:0:0:
6,253,191916,1,8,0:2:0:0:
41,185,192028,2,0,P|93:178|144:166,1,105.000004005432,2|2,0:3|0:2,0:2:0:0:
242,32,192324,5,2,0:2:0:0:
240,25,192398,1,2,0:2:0:0:
238,18,192472,2,0,P|187:16|157:56,1,105.000004005432,6|0,1:2|0:2,0:2:0:0:
207,117,192805,1,8,0:2:0:0:
207,117,193028,1,0,3:2:0:0:
315,273,193139,6,0,P|340:269|367:267,1,52.5000020027161,0|0,1:2|0:2,0:2:0:0:
363,186,193361,2,0,P|337:189|310:191,1,52.5000020027161,8|0,0:2|0:2,0:2:0:0:
239,234,193583,1,0,3:2:0:0:
239,243,193694,1,0,3:2:0:0:
239,252,193805,1,2,0:3:0:0:
440,384,194028,5,0,3:2:0:0:
440,384,194139,1,0,3:2:0:0:
440,384,194250,2,0,P|439:357|437:331,1,52.5000020027161,0|0,3:2|0:2,0:2:0:0:
508,243,194472,1,2,1:3:0:0:
508,243,194694,2,0,P|508:269|510:295,1,52.5000020027161,0|0,3:2|3:2,0:2:0:0:
443,186,194916,1,0,3:2:0:0:
443,180,194990,1,0,3:2:0:0:
444,174,195065,1,0,3:2:0:0:
444,168,195139,1,8,0:2:0:0:
399,0,195472,5,8,0:2:0:0:
327,45,195583,1,2,0:3:0:0:
327,45,196028,6,0,B|279:72|241:42|253:30|221:10|180:22,1,157.500006008148,6|8,1:2|0:2,0:2:0:0:
236,120,196583,1,0,3:2:0:0:
236,120,196694,2,0,P|240:144|242:172,1,52.5000020027161,0|0,1:2|0:2,0:2:0:0:
308,219,196916,1,8,0:2:0:0:
221,334,197139,5,0,3:2:0:0:
221,334,197250,1,8,0:2:0:0:
221,334,197361,1,2,0:3:0:0:
64,220,197583,1,0,3:2:0:0:
64,220,197694,2,0,P|67:193|67:167,2,52.5000020027161,0|0|0,3:2|3:2|3:2,0:2:0:0:
0,271,198028,2,0,P|2:297|2:323,1,52.5000020027161,0|0,1:2|0:2,0:2:0:0:
71,368,198250,5,0,3:2:0:0:
113,353,198361,1,8,0:2:0:0:
134,313,198472,1,8,0:2:0:0:
132,266,198583,1,8,0:2:0:0:
171,194,198694,5,8,0:3:0:0:
211,178,198805,1,8,0:2:0:0:
255,190,198916,1,8,0:2:0:0:
284,226,199028,1,8,0:2:0:0:
361,198,199139,5,8,0:2:0:0:
390,133,199250,1,8,0:3:0:0:
356,70,199361,1,4,0:3:0:0:
286,65,199472,1,4,0:3:0:0:
281,71,199583,5,6,0:3:0:0:
37,62,200472,6,0,L|38:88,1,26.2500010013581,2|0,0:3|0:2,0:2:0:0:
113,78,200916,2,0,L|111:51,1,26.2500010013581,2|0,0:3|0:2,0:2:0:0:
172,134,201361,1,4,3:2:0:0:
172,134,201805,1,0,3:2:0:0:
38,260,202028,5,8,0:3:0:0:
38,260,202472,1,8,0:3:0:0:
93,317,202694,1,8,0:3:0:0:
258,204,202990,1,2,0:2:0:0:
257,198,203065,1,2,0:2:0:0:
256,192,203139,1,4,1:2:0:0:
256,192,204916,5,4,3:3:0:0:
108,294,206694,6,0,P|129:209|129:121,1,175,6|0,1:2|0:2,0:2:0:0:
129,122,207028,2,0,P|109:139|101:164,1,52.5000020027161,10|0,0:2|0:2,0:2:0:0:
151,228,207361,1,0,1:2:0:0:
293,266,207583,2,0,P|340:244|390:228,1,105.000004005432,10|0,0:2|0:2,0:2:0:0:
465,145,207916,1,8,0:2:0:0:
407,100,208028,2,0,P|359:122|309:138,1,105.000004005432,2|0,0:3|0:2,0:2:0:0:
244,88,208361,5,0,3:2:0:0:
237,66,208472,1,2,3:2:0:0:
247,46,208583,1,0,3:2:0:0:
313,6,208694,2,0,P|340:10|366:11,1,52.5000020027161,0|0,1:2|0:2,0:2:0:0:
129,122,208916,6,0,P|128:95|132:69,1,52.5000020027161,2|0,3:2|3:2,0:0:0:0:
71,16,209139,1,0,3:2:0:0:
67,11,209213,1,0,3:2:0:0:
63,5,209287,1,0,3:2:0:0:
59,0,209361,2,0,P|3:36|1:104,1,140,10|0,0:2|0:2,0:2:0:0:
0,201,209694,1,8,0:2:0:0:
104,292,209805,2,0,P|100:265|94:240,1,52.5,2|0,0:3|0:2,0:2:0:0:
104,292,210250,6,0,B|146:321|208:284|179:242|234:210|285:234,1,210.000008010865,6|2,1:2|0:2,0:2:0:0:
349,181,210583,1,8,0:2:0:0:
349,181,210805,1,0,3:2:0:0:
410,274,210916,2,0,P|408:301|408:327,1,52.5000020027161,0|0,1:2|0:2,0:2:0:0:
500,129,211139,5,10,0:2:0:0:
437,67,211361,1,0,3:2:0:0:
423,67,211472,1,0,3:2:0:0:
410,67,211583,1,2,0:3:0:0:
114,24,212028,5,2,3:2:0:0:
128,24,212139,1,0,3:2:0:0:
140,24,212250,2,0,P|140:50|134:75,1,52.5000020027161,0|0,1:2|0:2,0:2:0:0:
55,148,212472,5,0,3:2:0:0:
56,199,212583,1,0,3:2:0:0:
82,236,212694,1,2,3:2:0:0:
89,242,212768,1,0,3:2:0:0:
98,246,212842,1,0,3:2:0:0:
108,248,212916,2,0,P|177:236|243:258,1,140,10|2,0:2|0:2,0:2:0:0:
111,384,213250,1,8,0:2:0:0:
28,368,213361,2,0,P|24:342|17:316,1,52.5000020027161,2|2,0:3|0:2,0:2:0:0:
263,89,213805,6,0,P|234:171|243:258,1,175,6|0,1:2|0:2,0:2:0:0:
243,257,214139,2,0,P|265:245|281:224,1,52.5000020027161,8|0,0:2|0:2,0:2:0:0:
218,351,214472,1,2,1:2:0:0:
99,182,214694,1,10,0:2:0:0:
49,242,214916,1,0,3:2:0:0:
52,254,215028,1,0,3:2:0:0:
55,266,215139,1,2,0:3:0:0:
288,355,215361,5,0,3:2:0:0:
336,336,215472,1,0,3:2:0:0:
366,293,215583,1,2,3:2:0:0:
383,220,215694,1,0,3:2:0:0:
375,146,215805,2,0,P|370:120|363:94,1,52.5000020027161,0|0,1:2|0:2,0:2:0:0:
445,77,216028,2,0,P|449:102|456:128,1,52.5000020027161,2|0,3:2|3:2,0:2:0:0:
457,337,216250,5,0,3:2:0:0:
464,343,216324,1,0,3:2:0:0:
471,349,216398,1,0,3:2:0:0:
478,354,216472,2,0,P|503:284|452:230,1,157.500006008148,10|8,0:2|0:2,0:2:0:0:
378,223,216916,1,2,3:2:0:0:
306,242,217028,1,0,3:2:0:0:
236,211,217139,1,2,0:3:0:0:
236,211,217361,6,0,P|235:127|302:77,1,175,6|2,1:2|0:2,0:2:0:0:
303,76,217694,2,0,P|291:98|270:113,1,52.5000020027161,8|0,0:2|3:2,0:2:0:0:
180,60,218028,5,2,1:2:0:0:
180,60,218250,1,8,0:2:0:0:
128,6,218361,1,8,0:2:0:0:
55,15,218472,1,2,0:3:0:0:
94,120,218694,1,2,1:2:0:0:
40,172,218805,1,0,1:2:0:0:
49,245,218916,1,2,0:3:0:0:
140,316,219139,6,0,P|207:305|253:253,1,140,2|0,1:2|3:2,0:2:0:0:
201,181,219472,1,0,3:2:0:0:
310,311,219583,2,0,P|315:346|318:381,1,70,10|0,0:2|0:2,0:2:0:0:
371,250,219805,2,0,P|376:215|379:180,1,70,2|0,3:2|3:2,0:2:0:0:
463,227,220028,5,2,3:2:0:0:
463,227,220139,2,0,P|458:252|456:278,1,52.5000020027161,2|2,0:2|3:2,3:2:0:0:
392,332,220361,1,10,0:2:0:0:
392,332,220583,1,0,3:2:0:0:
253,252,220694,1,2,0:3:0:0:
253,252,220916,6,0,B|201:223|135:267|175:298|125:335|76:328,1,210,6|8,1:2|0:2,0:2:0:0:
145,65,221472,1,0,3:2:0:0:
222,84,221583,2,0,P|232:109|232:135,1,52.5000020027161,0|10,1:2|0:2,0:2:0:0:
77,328,222139,1,8,0:2:0:0:
10,291,222250,2,0,P|0:266|0:240,2,52.5000020027161,2|2|2,0:3|0:2|3:2,0:2:0:0:
77,328,222805,1,0,3:2:0:0:
186,382,222916,6,0,L|237:373,1,52.5000020027161,0|0,1:2|0:2,0:2:0:0:
284,306,223139,2,0,L|335:314,1,52.5000020027161,2|0,3:2|3:2,0:2:0:0:
387,377,223361,1,0,3:2:0:0:
397,375,223435,1,0,3:2:0:0:
407,373,223509,1,0,3:2:0:0:
417,371,223583,1,10,0:2:0:0:
472,187,223916,5,8,0:2:0:0:
411,135,224028,1,2,0:3:0:0:
411,135,224472,6,0,P|337:172|276:117,1,175,6|2,1:2|0:2,0:2:0:0:
469,29,224805,2,0,P|483:50|485:76,1,52.5000020027161,8|0,0:2|3:2,0:2:0:0:
283,305,225139,2,0,P|272:282|273:256,1,52.5000020027161,0|10,1:2|0:2,0:2:0:0:
231,369,225694,1,8,0:2:0:0:
160,348,225805,1,2,0:3:0:0:
160,348,226250,1,2,3:2:0:0:
159,329,226361,1,0,3:2:0:0:
158,312,226472,1,0,3:2:0:0:
65,200,226694,5,2,3:2:0:0:
32,227,226805,1,0,3:2:0:0:
24,267,226916,1,2,3:2:0:0:
25,275,226990,1,0,3:2:0:0:
27,283,227065,1,0,3:2:0:0:
29,290,227138,1,10,0:2:0:0:
154,228,227472,1,8,0:2:0:0:
179,148,227583,2,0,P|168:125|147:109,1,52.5,2|0,0:3|3:2,0:2:0:0:
257,318,228028,6,0,P|343:320|416:366,1,175,6|0,1:2|0:2,0:2:0:0:
482,321,228361,1,10,0:2:0:0:
482,321,228583,1,0,3:2:0:0:
512,243,228694,2,0,P|506:217|502:191,1,52.5000020027161,0|0,1:2|0:2,0:2:0:0:
400,70,228916,2,0,P|394:95|390:121,1,52.5000020027161,10|0,0:2|0:2,0:2:0:0:
335,175,229139,1,0,3:2:0:0:
335,175,229250,1,0,3:2:0:0:
335,175,229361,1,2,0:3:0:0:
178,110,229583,5,0,3:2:0:0:
158,115,229694,1,0,3:2:0:0:
141,118,229805,1,2,3:2:0:0:
79,72,229916,1,0,3:2:0:0:
102,3,230028,1,0,1:2:0:0:
227,179,230250,5,2,3:2:0:0:
227,179,230361,2,0,P|219:205|213:230,1,52.5000020027161,0|0,3:2|3:2,0:2:0:0:
258,296,230546,1,0,3:2:0:0:
262,304,230620,1,0,3:2:0:0:
266,312,230694,1,10,0:2:0:0:
88,369,230916,1,2,3:3:0:0:
129,306,231028,1,0,3:2:0:0:
97,237,231139,5,8,0:2:0:0:
50,219,231250,1,8,0:2:0:0:
8,248,231361,1,8,0:3:0:0:
8,298,231472,1,8,0:3:0:0:
266,312,231583,6,0,P|251:226|250:139,1,175,6|2,1:2|0:2,0:2:0:0:
321,98,231916,1,8,0:2:0:0:
321,98,232139,1,0,3:2:0:0:
362,32,232250,2,0,P|388:28|413:22,1,52.5000020027161,2|0,1:2|0:2,0:2:0:0:
480,307,232472,5,10,0:2:0:0:
488,232,232694,1,2,3:2:0:0:
495,158,232916,2,0,L|498:123,2,35,2|0|2,3:2|3:2|0:3,0:2:0:0:
385,350,233361,2,0,L|388:384,2,35,2|0|2,3:2|3:2|1:3,0:2:0:0:
318,298,233805,5,14,0:2:0:0:
318,298,234139,1,8,0:2:0:0:
99,233,234250,1,10,1:2:0:0:
99,233,234472,1,8,0:2:0:0:
256,75,234694,5,10,3:2:0:0:
288,109,234805,1,8,0:2:0:0:
287,154,234916,1,8,0:3:0:0:
258,191,235028,1,8,0:3:0:0:
182,195,235139,5,4,1:2:0:0:
182,195,235369,1,4,1:2:0:0:
182,195,235600,1,4,1:2:0:0:
0,0,235831,1,4,1:2:0:0:
182,195,236062,1,4,1:2:0:0:
512,0,238728,5,4,1:2:0:0:
512,0,238948,1,4,1:2:0:0:
512,0,239169,1,4,1:2:0:0:
330,195,239389,1,4,1:2:0:0:
512,0,239610,1,4,1:2:0:0:
329,115,240272,6,0,P|364:114|399:120,1,70,8|8,0:3|0:3,0:0:0:0:
330,195,240933,1,8,0:3:0:0:
512,106,241154,1,4,0:3:0:0:
511,100,241228,1,4,0:3:0:0:
510,94,241301,1,4,0:3:0:0:
509,88,241375,1,4,3:3:0:0:
250,332,242257,5,6,1:2:0:0:
138,140,242479,1,6,1:2:0:0:
330,28,242701,1,6,1:2:0:0:
442,220,242923,1,6,1:2:0:0:
260,159,243145,5,6,1:2:0:0:
329,115,243368,1,2,0:0:0:0:
330,195,243590,1,2,0:3:0:0:
250,332,245812,5,4,1:2:0:0:
362,140,246034,1,4,1:2:0:0:
170,28,246256,1,4,1:2:0:0:
58,220,246478,1,4,1:2:0:0:
315,211,246700,5,4,1:2:0:0:
279,138,246923,2,0,P|271:122|264:105,1,35,2|0,0:3|0:0,0:0:0:0:
190,140,247368,2,0,P|198:157|204:172,1,35,2|0,0:0|0:0,0:0:0:0:
315,211,248034,2,0,L|347:196,1,35,2|0,0:0|0:0,0:0:0:0:
375,272,248479,2,0,L|342:286,2,35,2|2|2,0:0|0:0|0:0,0:0:0:0:
425,208,249145,1,2,0:0:0:0:
236,0,249368,5,4,1:2:0:0:
236,0,249590,1,4,1:2:0:0:
236,0,249812,1,4,1:2:0:0:
425,208,250034,1,4,1:2:0:0:
236,0,250257,1,4,1:2:0:0:
0,384,252923,5,4,1:2:0:0:
0,384,253145,1,4,1:2:0:0:
0,384,253367,1,4,1:2:0:0:
108,142,253589,1,4,1:2:0:0:
0,384,253812,1,4,1:2:0:0:
267,348,254479,5,8,0:2:0:0:
267,348,254534,1,8,0:2:0:0:
293,200,254923,1,8,0:3:0:0:
161,249,255145,1,8,0:3:0:0:
239,257,255368,1,4,0:3:0:0:
240,263,255442,1,4,0:3:0:0:
241,269,255515,1,4,0:3:0:0:
242,275,255589,1,4,3:3:0:0:
132,4,256479,5,4,1:2:0:0:
132,4,256701,1,4,1:2:0:0:
132,4,256923,1,4,1:2:0:0:
161,249,257145,1,4,1:2:0:0:
132,4,257368,1,4,1:2:0:0:
422,375,260034,5,4,1:2:0:0:
422,375,260256,1,4,1:2:0:0:
422,375,260478,1,4,1:2:0:0:
451,130,260700,1,4,1:2:0:0:
422,375,260923,1,4,1:2:0:0:
477,328,261812,6,0,L|474:293,23,35.0000013351441,8|8|8|8|8|8|8|8|8|8|8|8|8|8|8|8|8|8|8|8|8|8|8|8,0:2|0:2|0:2|0:2|0:2|0:2|0:2|0:2|0:2|0:2|0:2|0:2|0:2|0:2|0:2|0:2|0:2|0:2|0:2|0:2|0:2|0:2|0:2|0:2,0:2:0:0:
422,375,263590,5,0,3:2:0:0:
98,366,277145,5,8,0:2:0:0:
98,366,277201,2,0,B|62:364|62:364|30:352,1,70,8|8,0:0|0:0,0:0:0:0:
143,297,277590,1,8,0:3:0:0:
287,273,277812,6,0,B|285:213|263:203|260:135,1,140,4|8,1:2|0:2,0:2:0:0:
290,43,278479,1,0,3:2:0:0:
298,50,278590,1,0,3:2:0:0:
304,60,278701,1,0,3:2:0:0:
260,136,278923,1,0,1:2:0:0:
82,32,279145,1,8,0:2:0:0:
46,108,279368,5,2,1:3:0:0:
50,111,279812,2,0,B|47:149|47:149|52:180,1,70,0|8,1:2|0:2,0:2:0:0:
207,226,280256,1,0,1:2:0:0:
210,230,280479,1,0,1:2:0:0:
265,291,280701,2,0,P|257:325|260:360,2,70,2|8|0,0:2|0:2|3:2,0:2:0:0:
326,233,281368,6,0,P|361:229|396:223,1,70,0|0,3:2|1:2,0:2:0:0:
312,153,281812,1,8,0:2:0:0:
445,87,282034,1,0,3:2:0:0:
437,94,282145,1,0,3:2:0:0:
431,104,282256,1,0,3:2:0:0:
414,21,282479,1,0,1:2:0:0:
242,6,282701,1,8,0:2:0:0:
174,56,282923,5,2,1:3:0:0:
177,60,283368,1,0,1:2:0:0:
250,89,283590,1,8,0:2:0:0:
187,140,283812,1,0,1:2:0:0:
25,195,284034,1,0,1:2:0:0:
71,129,284256,2,0,P|65:94|63:59,1,70,2|8,0:2|0:2,0:2:0:0:
97,292,284701,5,2,3:2:0:0:
101,286,284812,1,2,0:2:0:0:
105,280,284923,2,0,B|141:283|141:283|174:291,1,70,2|0,3:2|1:2,0:2:0:0:
293,344,285368,2,0,B|243:356|241:374|196:384,1,105,8|0,0:2|3:2,0:2:0:0:
196,383,285812,1,0,3:2:0:0:
173,291,286034,1,0,1:2:0:0:
269,241,286256,1,8,0:2:0:0:
337,195,286479,6,0,P|368:213|401:224,1,70,2|0,1:3|3:2,0:2:0:0:
378,46,286923,1,0,1:2:0:0:
241,86,287145,1,8,0:2:0:0:
324,113,287368,1,0,1:2:0:0:
327,117,287590,1,0,1:2:0:0:
227,4,287812,2,0,B|192:12|192:12|161:26,2,70,2|8|0,0:2|0:2|3:2,0:2:0:0:
105,113,288479,6,0,B|102:147|102:147|97:182,1,70,0|0,3:2|1:2,0:2:0:0:
15,186,288923,2,0,P|-12:229|0:278,1,105,8|0,0:2|3:2,0:2:0:0:
0,278,289368,1,0,3:2:0:0:
153,252,289590,1,0,1:2:0:0:
212,310,289812,1,8,0:2:0:0:
368,260,290034,5,2,1:3:0:0:
311,207,290256,1,0,3:2:0:0:
349,337,290479,1,0,1:2:0:0:
441,245,290701,1,8,0:2:0:0:
389,179,290923,1,0,1:2:0:0:
290,283,291145,1,0,1:2:0:0:
428,324,291368,2,0,B|465:324|465:324|495:312,1,70,2|8,0:2|0:2,0:2:0:0:
474,163,291812,5,0,3:2:0:0:
470,150,291923,1,0,3:2:0:0:
467,136,292034,1,0,3:2:0:0:
393,83,292256,2,0,P|358:87|325:99,2,70,0|8|0,1:2|0:2|1:2,0:2:0:0:
207,192,292923,5,0,1:2:0:0:
210,195,293368,1,8,0:2:0:0:
286,213,293590,2,0,B|292:251|292:251|289:282,1,70,2|0,1:3|3:2,0:2:0:0:
173,344,294034,5,0,1:2:0:0:
116,293,294256,1,8,0:2:0:0:
187,269,294479,1,0,1:2:0:0:
97,369,294701,1,0,1:2:0:0:
64,236,294923,1,2,0:2:0:0:
116,169,295145,2,0,P|151:175|186:175,2,70,8|0|0,0:2|3:2|3:2,0:2:0:0:
0,77,295812,6,0,B|21:56|21:56|76:38,1,87.5,2|8,1:3|0:2,0:2:0:0:
195,73,296256,2,0,B|216:93|216:93|271:111,1,87.5,2|8,1:3|0:2,0:2:0:0:
315,51,296590,1,8,0:2:0:0:
505,237,296812,5,8,0:2:0:0:
505,237,296923,1,8,0:2:0:0:
493,191,297034,1,8,0:3:0:0:
460,170,297145,1,8,0:3:0:0:
425,180,297256,1,8,0:3:0:0:
374,240,297368,6,0,P|371:267|368:295,1,56,6|4,1:2|0:2,1:2:0:0:
59,353,300977,6,0,P|62:265|81:180,1,175,6|0,1:2|3:2,0:2:0:0:
81,180,301309,2,0,P|96:202|97:228,1,52.5000020027161,8|0,0:2|0:2,0:2:0:0:
0,139,301531,1,0,3:2:0:0:
49,78,301642,2,0,P|102:77|154:71,1,105.000004005432,0|10,1:2|0:2,0:2:0:0:
284,157,302085,1,0,3:2:0:0:
272,201,302196,1,8,0:2:0:0:
232,223,302307,1,2,0:3:0:0:
464,49,302750,5,2,3:2:0:0:
456,42,302861,1,0,3:2:0:0:
448,35,302972,2,0,P|430:55|423:80,1,52.5000020027161,0|0,1:2|0:2,0:2:0:0:
468,159,303194,5,2,3:2:0:0:
483,197,303305,1,0,3:2:0:0:
472,235,303416,1,0,3:2:0:0:
467,240,303489,1,0,3:2:0:0:
461,245,303563,1,0,3:2:0:0:
454,247,303637,2,0,B|411:264|346:221|382:200|343:139|284:158,1,210,10|8,0:2|0:2,0:2:0:0:
210,152,304081,2,0,P|186:147|210:147,1,68.2499968757631,2|0,0:3|3:2,0:2:0:0:
284,157,304524,6,0,B|326:174|391:131|355:110|394:49|453:68,1,210,6|2,1:2|0:2,0:2:0:0:
453,68,304857,2,0,P|407:85|369:52,1,105.000004005432,8|0,0:2|3:2,0:2:0:0:
299,13,305189,5,0,1:2:0:0:
299,13,305411,1,10,0:2:0:0:
113,84,305633,1,0,3:2:0:0:
113,92,305744,1,8,0:2:0:0:
113,101,305855,1,2,0:2:0:0:
19,260,306076,5,0,3:2:0:0:
19,252,306187,1,0,3:2:0:0:
19,243,306298,2,0,P|44:246|69:256,1,52.5000020027161,2|0,3:2|3:2,0:2:0:0:
89,337,306520,1,0,1:2:0:0:
233,316,306741,6,0,P|257:307|280:295,1,52.5000020027161,2|0,3:2|3:2,0:2:0:0:
250,217,306963,1,2,3:2:0:0:
251,211,307037,1,0,3:2:0:0:
252,205,307111,1,0,3:2:0:0:
253,199,307185,1,10,0:2:0:0:
395,20,307481,5,8,0:2:0:0:
410,104,307628,1,2,0:3:0:0:
410,104,308072,6,0,P|312:119|256:37,2,210,6|8|0,1:2|0:2|1:2,0:2:0:0:
410,104,308959,2,0,P|343:98|303:152,1,140,8|0,0:2|0:2,0:2:0:0:
303,152,309291,1,8,0:0:0:0:
476,51,309402,1,2,0:3:0:0:
387,269,309624,5,0,3:2:0:0:
387,269,309735,1,0,3:2:0:0:
387,269,309846,2,0,P|353:279|320:291,1,70,2|0,3:2|3:2,0:2:0:0:
253,244,310067,1,0,1:2:0:0:
50,328,310289,5,2,3:2:0:0:
43,283,310400,1,0,3:2:0:0:
63,250,310511,1,0,3:2:0:0:
71,243,310585,1,0,3:2:0:0:
81,239,310659,1,0,3:2:0:0:
90,236,310733,2,0,P|130:290|114:357,1,140,10|0,0:2|3:2,0:2:0:0:
3,135,311065,5,8,0:2:0:0:
73,96,311176,2,0,P|79:71|74:46,1,52.5,2|0,0:3|3:2,0:2:0:0:
73,96,311620,6,0,P|170:95|193:0,1,210.000008010865,6|2,1:2|0:2,0:2:0:0:
193,0,311952,2,0,P|178:21|174:47,1,52.5000020027161,8|0,0:2|0:2,0:2:0:0:
258,148,312174,1,0,3:2:0:0:
329,105,312285,2,0,P|323:70|320:35,1,70,2|0,1:3|0:2,0:2:0:0:
315,244,312506,5,12,0:2:0:0:
380,199,312802,1,8,0:2:0:0:
477,191,312950,5,2,1:3:0:0:
458,262,313098,1,0,3:2:0:0:
388,281,313246,1,8,0:2:0:0:
388,281,313393,1,10,0:2:0:0:
222,361,313689,5,10,0:2:0:0:
222,361,313837,2,0,B|227:298|206:287|211:222,1,140,6|0,1:2|0:2,0:2:0:0:
157,169,314132,1,8,0:3:0:0:
211,222,314280,1,8,0:3:0:0:
73,350,314576,1,8,0:3:0:0:
8,305,314724,1,4,0:3:0:0:
78,271,315167,5,6,1:2:0:0:
173,279,324944,6,0,B|260:289|235:324|333:321,1,168,2|0,3:2|3:2,0:2:0:0:
385,264,325833,2,0,L|385:243,2,21,2|2|2,0:2|0:2|0:2,0:2:0:0:
512,379,328255,5,4,0:3:0:0:
510,372,328329,1,4,0:3:0:0:
508,365,328402,1,8,0:3:0:0:
506,358,328476,1,8,0:2:0:0:
412,133,329357,5,6,1:2:0:0:
329,101,329580,1,0,3:2:0:0:
329,101,329692,1,8,0:2:0:0:
296,348,330028,5,0,1:2:0:0:
299,352,330252,2,0,P|250:336|198:327,1,105.000004005432,8|0,0:2|3:2,0:2:0:0:
155,254,330588,1,8,0:2:0:0:
77,240,330700,2,0,P|41:275|44:326,1,105.000004005432,2|0,0:3|3:2,0:2:0:0:
41,338,331036,5,0,3:2:0:0:
39,350,331148,1,0,3:2:0:0:
155,254,331371,2,0,P|151:202|126:156,1,105.000004005432,0|0,1:2|3:2,0:2:0:0:
20,51,331707,2,0,P|7:74|3:99,1,52.5000020027161,0|0,3:2|0:2,0:2:0:0:
113,74,331931,1,8,3:2:0:0:
167,23,332043,1,10,0:2:0:0:
167,23,332379,1,8,0:2:0:0:
223,159,332491,2,0,P|249:159|272:146,1,52.5,2|0,0:3|0:2,0:2:0:0:
223,159,332939,6,0,P|172:204|182:270,1,140,6|2,1:2|0:2,0:2:0:0:
261,271,333274,1,8,0:2:0:0:
261,271,333498,1,0,3:2:0:0:
353,174,333610,2,0,P|351:148|352:122,1,52.5000020027161,0|0,1:2|0:2,0:2:0:0:
303,66,333834,1,8,0:2:0:0:
303,66,334170,1,8,0:2:0:0:
475,32,334282,1,2,0:3:0:0:
475,32,334506,5,0,3:2:0:0:
478,38,334618,1,0,3:2:0:0:
482,44,334730,2,0,P|480:71|478:97,1,52.5000020027161,0|0,3:2|3:2,0:2:0:0:
427,164,334950,1,0,1:2:0:0:
356,260,335171,6,0,P|357:286|359:312,1,52.5000020027161,0|0,3:2|3:2,0:2:0:0:
433,348,335391,1,0,3:2:0:0:
458,315,335502,1,0,3:2:0:0:
457,272,335612,1,8,0:2:0:0:
288,370,335832,5,0,3:2:0:0:
288,370,335943,1,8,0:2:0:0:
220,325,336053,2,0,P|195:333|169:340,1,52.5000020027161,2|8,0:3|0:3,0:2:0:0:
51,278,336274,1,8,0:3:0:0:
66,203,336384,1,8,0:3:0:0:
78,128,336494,6,0,P|130:124|177:102,1,105.000004005432,6|2,1:2|0:2,0:2:0:0:
172,27,336827,1,8,0:2:0:0:
172,27,337049,1,0,3:2:0:0:
67,1,337160,2,0,P|51:21|43:46,1,52.5000020027161,0|0,1:2|0:2,0:2:0:0:
168,198,337382,2,0,P|189:151|177:101,1,105.000004005432,8|0,0:2|3:2,0:2:0:0:
254,252,337716,5,8,0:2:0:0:
313,303,337827,2,0,P|365:301|417:306,1,105.000004005432,2|0,0:3|3:2,0:2:0:0:
465,241,338160,2,0,P|443:225|420:213,2,52.5000020027161,0|2|0,3:2|0:2|3:2,0:2:0:0:
362,95,338494,2,0,P|340:110|317:122,1,52.5000020027161,0|0,1:2|0:2,0:2:0:0:
428,9,338716,1,0,3:2:0:0:
436,7,338827,1,0,3:2:0:0:
444,6,338938,2,0,P|453:30|458:56,1,52.5000020027161,0|0,1:2|0:2,0:2:0:0:
428,132,339160,1,2,3:2:0:0:
268,59,339382,5,0,3:2:0:0:
224,67,339494,1,0,3:2:0:0:
197,103,339605,1,8,0:2:0:0:
54,276,339827,1,2,0:3:0:0:
54,276,340049,6,0,P|46:198|9:128,1,157.500006008148,6|8,1:2|0:2,0:2:0:0:
148,251,340605,1,0,3:2:0:0:
177,323,340716,2,0,P|164:345|147:366,1,52.5000020027161,0|0,1:2|0:2,0:2:0:0:
326,350,340938,2,0,P|312:272|309:193,1,157.500006008148,8|8,0:2|0:2,0:2:0:0:
249,149,341382,1,2,0:3:0:0:
249,149,341605,5,0,3:2:0:0:
245,143,341679,1,0,3:2:0:0:
241,137,341753,1,0,3:2:0:0:
237,131,341827,2,0,P|235:105|236:79,1,52.5000020027161,0|0,3:2|0:2,0:2:0:0:
176,27,342049,1,2,1:3:0:0:
493,57,342271,5,0,3:2:0:0:
455,83,342382,1,0,3:2:0:0:
450,127,342494,1,0,3:2:0:0:
452,134,342568,1,0,3:2:0:0:
454,141,342642,1,0,3:2:0:0:
458,147,342716,1,8,0:2:0:0:
419,261,343049,5,8,0:2:0:0:
419,261,343160,1,8,0:2:0:0:
373,265,343271,1,8,0:2:0:0:
345,305,343382,1,8,0:3:0:0:
351,351,343494,1,8,0:3:0:0:
391,369,343605,6,0,P|414:358|439:351,1,52.5000020027161,2|0,1:2|0:2,0:2:0:0:
385,184,343827,2,0,P|361:195|336:202,1,52.5000020027161,2|8,0:2|0:2,0:2:0:0:
297,277,344049,2,0,P|308:300|315:325,1,52.5000020027161,2|0,0:2|3:2,0:2:0:0:
474,278,344271,2,0,P|462:254|455:229,1,52.5000020027161,2|0,1:2|0:2,0:2:0:0:
227,188,344494,6,0,P|215:211|208:236,1,52.5000020027161,10|0,0:2|0:2,0:2:0:0:
230,42,344716,2,0,P|215:20|196:1,1,52.5000020027161,2|8,3:2|0:2,0:2:0:0:
347,93,344938,2,0,P|373:91|398:84,1,52.5000020027161,2|0,0:3|0:2,0:2:0:0:
272,108,345160,1,2,3:2:0:0:
271,113,345234,1,0,3:2:0:0:
270,118,345308,1,0,3:2:0:0:
269,123,345382,1,2,3:2:0:0:
31,179,345605,6,0,P|20:154|17:129,1,52.5000020027161,2|0,1:3|0:2,0:2:0:0:
107,212,345827,2,0,P|117:236|120:261,1,52.5000020027161,2|0,3:2|3:2,0:2:0:0:
190,309,346049,1,2,3:2:0:0:
191,314,346123,1,0,3:2:0:0:
192,319,346197,1,0,3:2:0:0:
193,324,346271,1,10,0:2:0:0:
407,379,346494,5,2,3:2:0:0:
407,379,346605,1,8,0:2:0:0:
512,278,346716,2,0,P|508:251|505:225,1,52.5,2|0,0:3|3:2,0:2:0:0:
512,278,347160,6,0,P|448:295|404:245,1,140,6|2,1:2|0:2,0:2:0:0:
337,193,347494,1,8,0:2:0:0:
337,193,347605,2,0,P|339:166|340:140,1,52.5000020027161,2|0,0:2|3:2,0:2:0:0:
259,40,347827,2,0,P|261:66|262:92,1,52.5000020027161,2|0,1:2|0:2,0:2:0:0:
109,216,348049,6,0,P|87:201|72:179,1,52.5000020027161,10|0,0:2|0:2,0:2:0:0:
164,294,348271,2,0,P|162:320|150:343,1,52.5000020027161,2|8,3:2|0:2,0:2:0:0:
25,268,348494,1,2,0:3:0:0:
135,96,348716,5,2,3:2:0:0:
141,91,348827,1,0,3:2:0:0:
147,87,348938,2,0,P|169:103|183:125,1,52.5000020027161,2|0,3:2|0:2,0:2:0:0:
279,211,349160,2,0,P|281:185|293:161,1,52.5000020027161,2|0,1:2|0:2,0:2:0:0:
308,28,349383,2,0,P|284:38|258:39,1,52.5000020027161,2|0,3:2|3:2,0:2:0:0:
374,77,349605,1,2,3:2:0:0:
379,76,349679,1,0,3:2:0:0:
384,75,349753,1,0,3:2:0:0:
389,74,349827,1,10,0:2:0:0:
487,218,350049,5,2,0:3:0:0:
441,282,350160,1,8,0:2:0:0:
368,284,350271,1,10,0:2:0:0:
339,249,350382,1,8,0:2:0:0:
338,203,350494,1,8,0:3:0:0:
375,173,350605,1,4,0:3:0:0:
420,181,350716,1,6,1:2:0:0:
282,339,350938,5,2,3:2:0:0:
282,339,351049,2,0,P|256:335|231:326,1,52.5000020027161,8|0,0:2|0:2,0:2:0:0:
171,263,351271,1,0,3:2:0:0:
171,263,351382,2,0,P|145:266|120:275,1,52.5000020027161,2|0,1:2|0:2,0:2:0:0:
69,343,351605,5,10,0:2:0:0:
69,343,351827,1,2,0:2:0:0:
6,308,351938,1,8,0:2:0:0:
0,235,352049,1,2,0:3:0:0:
77,119,352271,5,0,3:2:0:0:
81,123,352345,1,0,3:2:0:0:
85,127,352419,1,0,3:2:0:0:
89,131,352494,2,0,P|114:136|138:147,1,52.5000020027161,2|0,3:2|0:2,0:2:0:0:
78,45,352716,1,2,1:3:0:0:
249,12,352938,5,0,3:2:0:0:
229,51,353049,1,0,3:2:0:0:
232,94,353160,1,0,3:2:0:0:
235,99,353234,1,0,3:2:0:0:
239,104,353308,1,0,3:2:0:0:
243,109,353382,2,0,P|268:116|294:119,1,52.5000020027161,8|8,0:2|0:2,0:2:0:0:
353,182,353605,5,0,3:2:0:0:
424,166,353716,1,8,0:2:0:0:
479,221,353827,1,8,0:2:0:0:
489,265,353938,1,8,0:2:0:0:
473,304,354049,1,8,0:3:0:0:
435,325,354160,1,8,0:3:0:0:
374,372,354271,6,0,P|326:350|275:338,1,105.000004005432,6|2,1:2|3:2,0:2:0:0:
275,338,354605,2,0,P|297:324|310:302,1,52.5000020027161,8|0,0:2|0:2,0:2:0:0:
194,300,354827,1,0,3:2:0:0:
175,257,354938,1,2,1:2:0:0:
196,214,355049,1,2,0:2:0:0:
158,152,355160,5,8,0:2:0:0:
120,161,355271,1,8,0:2:0:0:
96,194,355382,1,8,0:3:0:0:
97,234,355494,1,8,0:3:0:0:
118,306,355605,5,10,0:2:0:0:
102,345,355716,1,8,0:2:0:0:
62,365,355827,1,8,0:3:0:0:
20,356,355938,1,8,0:3:0:0:
0,320,356049,1,8,0:2:0:0:
0,320,356160,1,8,0:2:0:0:
0,221,356271,6,0,B|4:137|24:161|27:84,1,140,6|0,1:2|0:2,0:2:0:0:
94,44,356605,1,8,0:2:0:0:
27,85,356716,2,0,P|16:117|23:151,1,70,8|0,0:2|0:2,0:2:0:0:
111,179,356938,5,2,1:3:0:0:
111,179,357271,1,8,0:2:0:0:
162,118,357382,2,0,P|187:122|214:124,1,52.5000020027161,8|0,0:2|0:2,0:2:0:0:
276,227,357605,1,8,0:3:0:0:
344,209,357716,1,8,0:2:0:0:
414,189,357827,6,0,P|414:162|417:136,1,52.5000020027161,6|0,1:2|0:2,0:2:0:0:
476,242,358049,2,0,P|476:268|479:294,1,52.5000020027161,2|8,0:2|0:2,0:2:0:0:
426,363,358271,1,2,3:2:0:0:
426,363,358382,1,0,3:2:0:0:
426,363,358494,2,0,P|375:358|346:316,1,105.000004005432,2|8,1:2|0:2,0:2:0:0:
293,199,358938,5,2,3:2:0:0:
229,157,359049,1,0,3:2:0:0:
156,182,359160,2,0,P|161:234|163:286,1,105.000004005432,2|2,0:3|0:2,0:2:0:0:
105,350,359494,1,0,3:2:0:0:
105,350,359605,2,0,P|78:347|52:346,1,52.5000020027161,0|0,3:2|3:2,0:2:0:0:
163,286,359827,1,2,1:2:0:0:
0,176,360049,5,2,3:2:0:0:
37,154,360160,1,0,3:2:0:0:
57,113,360271,1,2,3:2:0:0:
59,107,360345,1,0,3:2:0:0:
60,101,360419,1,0,3:2:0:0:
61,95,360494,2,0,P|61:69|58:43,1,52.5000020027161,8|8,0:2|0:2,0:2:0:0:
161,129,360716,1,2,3:2:0:0:
161,129,360827,2,0,P|160:155|157:181,1,52.5000020027161,8|2,0:2|3:2,0:2:0:0:
305,272,361049,5,10,0:2:0:0:
351,268,361160,1,8,0:3:0:0:
381,233,361271,1,8,0:3:0:0:
391,185,361382,6,0,P|377:135|369:83,1,105.000004005432,4|2,1:2|0:2,0:2:0:0:
404,12,361716,1,8,0:2:0:0:
404,12,361938,1,0,3:2:0:0:
492,81,362049,2,0,P|488:107|485:133,1,52.5000020027161,2|0,1:2|0:2,0:2:0:0:
457,208,362271,5,8,0:2:0:0:
457,208,362494,1,0,3:2:0:0:
480,281,362605,1,8,0:2:0:0:
446,350,362716,1,2,0:3:0:0:
263,384,362938,5,2,3:2:0:0:
263,384,363049,2,0,P|237:376|211:373,1,52.5000020027161,0|0,3:2|3:2,0:2:0:0:
106,303,363271,1,8,0:2:0:0:
106,303,363382,2,0,P|132:305|158:304,1,52.5000020027161,2|0,1:2|0:2,0:2:0:0:
35,359,363605,1,2,0:2:0:0:
35,359,363716,1,0,3:2:0:0:
49,229,363827,5,2,3:2:0:0:
107,184,363975,1,0,3:2:0:0:
104,109,364197,1,2,3:3:0:0:
40,72,364382,1,8,0:2:0:0:
0,136,364494,5,8,0:2:0:0:
35,158,364605,1,8,0:3:0:0:
80,149,364716,1,4,0:3:0:0:
104,109,364827,1,4,0:3:0:0:
148,43,364938,6,0,P|199:36|251:41,1,105.000004005432,6|2,1:2|0:2,0:2:0:0:
252,41,365271,2,0,P|254:65|247:91,1,52.5000020027161,8|2,0:2|0:2,0:2:0:0:
308,256,365494,1,0,3:2:0:0:
358,188,365605,2,0,P|355:162|348:137,1,52.5000020027161,2|0,1:2|0:2,0:2:0:0:
503,130,365827,2,0,L|503:77,2,52.5000020027161,8|0|0,0:2|3:2|3:2,0:2:0:0:
453,199,366160,1,8,0:2:0:0:
453,199,366271,1,2,0:3:0:0:
331,334,366494,5,2,0:2:0:0:
295,352,366605,1,0,3:2:0:0:
253,352,366716,1,2,3:3:0:0:
190,316,366827,1,0,3:2:0:0:
173,243,366938,2,0,P|171:216|170:190,1,52.5000020027161,2|0,1:3|0:2,0:2:0:0:
112,298,367160,2,0,P|114:324|115:350,1,52.5000020027161,0|0,3:2|3:2,0:2:0:0:
42,384,367382,1,2,0:3:0:0:
0,228,367605,5,8,0:2:0:0:
0,184,367716,1,8,0:2:0:0:
25,146,367827,1,8,0:2:0:0:
65,127,367938,1,8,0:2:0:0:
111,141,368049,5,8,0:2:0:0:
117,142,368123,1,8,0:2:0:0:
123,143,368197,1,8,0:2:0:0:
129,143,368271,1,8,0:2:0:0:
135,142,368345,1,8,0:2:0:0:
141,141,368419,1,8,0:2:0:0:
147,140,368493,1,6,1:2:0:0:
401,106,368827,6,0,P|380:120|365:141,1,52.5000020027161,8|0,0:2|0:2,0:2:0:0:
395,28,369049,1,0,3:2:0:0:
320,18,369160,1,2,1:3:0:0:
505,99,369382,5,12,0:2:0:0:
512,105,369716,1,8,0:2:0:0:
512,105,369827,1,8,0:2:0:0:
458,168,370049,2,0,P|442:245|431:323,1,157.500006008148,6|8,1:2|0:2,0:2:0:0:
431,323,370493,2,0,P|429:296|416:274,1,52.5000020027161,8|0,0:2|3:2,0:2:0:0:
239,362,370716,5,6,1:2:0:0:
239,362,371049,1,8,0:2:0:0:
167,320,371160,2,0,P|145:334|131:356,1,52.5000020027161,8|0,0:2|3:2,0:2:0:0:
6,301,371382,1,6,1:2:0:0:
6,301,371716,1,8,0:2:0:0:
71,248,371827,1,8,0:2:0:0:
71,248,371938,1,8,0:2:0:0:
131,196,372049,6,0,P|205:211|243:277,2,157.500006008148,6|8|2,1:2|0:2|1:2,0:2:0:0:
203,123,372827,1,0,3:2:0:0:
203,123,372938,2,0,P|249:102|261:53,1,105.000004005432,8|2,0:2|3:2,0:2:0:0:
182,17,373271,1,8,0:2:0:0:
83,68,373382,2,0,P|83:94|82:120,1,52.5000020027161,2|2,0:3|3:2,0:2:0:0:
261,53,373827,6,0,P|260:26|261:0,1,52.5000020027161,2|0,3:2|1:2,0:2:0:0:
330,104,374271,2,0,P|329:130|330:156,1,52.5000020027161,2|2,3:2|3:2,0:2:0:0:
397,207,374568,5,0,3:2:0:0:
397,213,374642,1,0,3:2:0:0:
397,219,374716,1,10,0:2:0:0:
338,347,374938,1,2,3:2:0:0:
338,347,375049,1,8,0:2:0:0:
277,278,375160,2,0,P|201:271|149:327,1,157.500006008148,2|0,0:3|3:2,0:2:0:0:
114,225,375605,6,0,P|112:172|106:120,1,105.000004005432,6|2,1:2|0:2,0:2:0:0:
164,52,375938,1,8,0:2:0:0:
164,52,376160,1,0,3:2:0:0:
239,40,376271,2,0,P|255:60|264:84,1,52.5000020027161,2|0,1:2|0:2,0:2:0:0:
105,120,376493,2,0,P|55:108|15:74,1,105.000004005432,8|0,0:2|3:2,0:2:0:0:
37,0,376827,1,8,0:2:0:0:
37,0,376938,1,2,0:3:0:0:
206,191,377160,5,2,3:2:0:0:
206,191,377271,1,0,3:2:0:0:
206,191,377382,2,0,P|232:188|258:186,1,52.5000020027161,2|0,3:2|0:2,0:2:0:0:
316,126,377605,1,2,1:3:0:0:
437,63,377827,5,2,3:2:0:0:
478,77,377938,1,0,3:2:0:0:
498,118,378049,1,2,3:2:0:0:
500,124,378123,1,0,3:2:0:0:
501,130,378197,1,0,3:2:0:0:
502,136,378272,2,0,P|499:162|498:188,1,52.5000020027161,8|0,0:2|0:2,0:2:0:0:
499,360,378493,1,0,3:2:0:0:
499,360,378605,1,8,0:2:0:0:
429,301,378716,2,0,P|426:274|425:248,1,52.5000020027161,2|0,0:3|0:2,0:2:0:0:
429,301,379160,6,0,P|341:341|286:261,1,210,6|8,1:2|0:2,0:2:0:0:
137,115,379716,1,0,3:2:0:0:
211,83,379827,2,0,P|221:107|224:133,1,52.5000020027161,2|0,1:2|0:2,0:2:0:0:
286,261,380049,1,8,0:2:0:0:
286,261,380382,1,8,0:2:0:0:
225,317,380493,2,0,P|172:311|120:309,1,105.000004005432,2|0,0:3|3:2,0:2:0:0:
63,251,380827,5,0,3:2:0:0:
63,251,380938,2,0,P|62:224|60:198,1,52.5000020027161,2|0,3:2|0:2,0:2:0:0:
120,309,381160,1,2,1:3:0:0:
224,133,381382,2,0,P|224:159|226:185,1,52.5000020027161,0|0,3:2|3:2,0:2:0:0:
157,83,381605,1,0,3:2:0:0:
158,78,381679,1,0,3:2:0:0:
159,73,381753,1,0,3:2:0:0:
160,68,381827,1,10,0:2:0:0:
333,17,382160,5,8,0:2:0:0:
406,0,382271,1,2,0:3:0:0:
406,0,382716,6,0,P|444:57|437:125,1,140,6|2,1:2|0:2,0:2:0:0:
437,125,383049,2,0,P|425:101|425:75,1,52.5000020027161,8|2,0:2|0:2,0:2:0:0:
406,200,383271,1,8,0:2:0:0:
329,204,383382,1,2,1:2:0:0:
224,133,383605,5,4,1:2:0:0:
103,337,383938,5,8,0:2:0:0:
123,261,384049,1,8,0:2:0:0:
123,261,384271,2,0,P|73:248|22:257,1,105.000004005432,4|0,1:2|3:2,0:2:0:0:
48,120,384605,5,8,0:2:0:0:
26,48,384716,1,8,0:2:0:0:
26,48,384938,2,0,P|76:34|127:43,1,105.000004005432,6|0,1:2|0:2,0:2:0:0:
302,106,385271,5,8,0:2:0:0:
302,106,385382,2,0,P|328:105|354:103,1,52.5000020027161,2|0,1:3|0:2,0:2:0:0:
415,41,385605,2,0,P|441:41|467:43,1,52.5000020027161,2|0,1:3|0:2,0:2:0:0:
510,115,385827,1,8,0:2:0:0:
510,121,385901,1,8,0:2:0:0:
510,127,385975,1,8,0:2:0:0:
511,133,386049,1,8,0:2:0:0:
511,139,386123,1,8,0:2:0:0:
512,145,386197,1,8,0:2:0:0:
512,151,386271,1,6,1:2:0:0:
368,372,386605,5,8,0:2:0:0:
294,340,386827,1,0,3:2:0:0:
294,340,386938,2,0,P|288:287|280:235,2,105.000004005432,0|14|0,1:2|0:2|3:2,0:2:0:0:
202,382,387493,2,0,P|180:367|163:346,1,52.5000020027161,8|0,0:2|3:2,0:2:0:0:
50,305,387716,1,0,3:2:0:0:
90,237,387827,5,2,0:3:0:0:
90,237,387938,1,0,3:2:0:0:
90,237,388049,2,0,P|115:233|141:226,1,52.5000020027161,4|0,1:2|0:2,0:2:0:0:
61,158,388271,1,2,3:2:0:0:
61,158,388382,2,0,P|35:161|9:168,2,52.5000020027161,8|2|0,0:2|0:2|3:2,0:2:0:0:
150,32,388716,5,2,1:2:0:0:
150,32,388938,2,0,P|200:33|230:75,1,105.000004005432,10|2,0:2|0:2,0:2:0:0:
304,117,389271,1,8,0:2:0:0:
304,117,389382,2,0,P|330:114|355:108,1,52.5,2|0,0:3|3:2,0:2:0:0:
304,117,389827,6,0,P|282:183|281:253,1,140,6|0,1:2|3:2,0:2:0:0:
352,296,390160,1,8,0:2:0:0:
352,296,390382,1,0,3:2:0:0:
429,384,390493,2,0,P|455:382|481:382,1,52.5000020027161,2|0,1:2|0:2,0:2:0:0:
486,296,390716,2,0,P|459:297|433:297,1,52.5000020027161,8|0,0:2|0:2,0:2:0:0:
235,381,391049,5,8,0:2:0:0:
191,358,391160,1,0,3:2:0:0:
171,318,391271,1,0,3:2:0:0:
172,245,391382,1,2,3:3:0:0:
63,144,391605,5,0,3:2:0:0:
63,144,391716,1,0,3:2:0:0:
63,144,391827,2,0,P|67:169|69:195,1,52.5000020027161,2|0,1:3|0:2,0:2:0:0:
157,123,392049,1,0,3:2:0:0:
157,123,392160,1,0,3:2:0:0:
157,123,392271,2,0,P|152:97|150:71,1,52.5000020027161,2|0,1:3|0:2,0:2:0:0:
211,12,392493,5,8,0:2:0:0:
211,12,392827,1,8,0:2:0:0:
392,64,392938,1,8,0:2:0:0:
251,207,393160,1,8,0:2:0:0:
251,207,393271,1,8,0:2:0:0:
317,147,393382,6,0,P|367:156|397:198,1,105.000004005432,6|2,1:2|3:2,0:2:0:0:
451,269,393716,1,8,0:2:0:0:
451,269,393938,1,0,3:2:0:0:
386,319,394049,2,0,P|382:345|381:371,1,52.5000020027161,2|0,1:2|0:2,0:2:0:0:
299,330,394271,2,0,P|302:303|303:277,1,52.5000020027161,8|0,0:2|0:2,0:2:0:0:
240,121,394493,5,2,3:2:0:0:
240,121,394605,1,8,0:2:0:0:
240,121,394716,1,2,0:3:0:0:
105,34,394938,1,2,3:2:0:0:
99,35,395012,1,0,3:2:0:0:
93,36,395086,1,0,3:2:0:0:
87,38,395160,2,0,P|68:55|55:77,1,52.5000020027161,2|0,3:2|3:2,0:2:0:0:
0,132,395382,5,6,1:2:0:0:
0,132,395605,1,2,0:2:0:0:
28,261,395827,1,2,0:3:0:0:
28,261,396049,2,0,P|99:289|135:357,1,157.500006008148,14|8,0:2|0:2,0:2:0:0:
135,358,396493,2,0,P|111:344|97:322,1,52.5000020027161,2|0,0:3|0:2,0:2:0:0:
212,354,396716,1,0,1:2:0:0:
376,270,396938,5,0,3:2:0:0:
393,235,397049,1,8,0:2:0:0:
391,193,397160,1,0,3:2:0:0:
344,136,397271,1,8,0:2:0:0:
268,123,397382,2,0,P|227:155|181:179,1,105.000004005432,8|0,0:2|0:2,0:2:0:0:
110,130,397716,2,0,P|111:103|122:80,1,52.5000020027161,8|0,0:2|0:2,0:2:0:0:
180,179,398049,2,0,P|178:205|167:228,1,52.5000020027161,0|0,1:2|0:2,0:2:0:0:
101,284,398271,2,0,P|83:283|66:282,5,35.0000013351441,8|8|8|8|8|8,0:2|0:2|0:2|0:2|0:2|0:2,0:2:0:0:
22,212,398716,5,2,1:3:0:0:
22,206,398790,1,8,0:2:0:0:
22,200,398864,1,8,0:2:0:0:
22,194,398938,1,8,0:2:0:0:
22,188,399012,1,8,0:2:0:0:
22,182,399086,1,8,0:2:0:0:
61,147,399160,5,2,1:3:0:0:
61,141,399234,1,8,0:2:0:0:
61,135,399308,1,8,0:2:0:0:
62,129,399382,1,8,0:2:0:0:
62,123,399456,1,8,0:2:0:0:
63,117,399530,1,8,0:2:0:0:
29,79,399605,5,2,1:3:0:0:
30,73,399679,1,8,0:2:0:0:
30,67,399753,1,8,0:2:0:0:
30,61,399827,1,8,0:2:0:0:
140,10,400049,6,0,P|192:13|243:3,1,105.000004005432,8|8,0:2|0:2,0:2:0:0:
392,67,400382,1,8,0:2:0:0:
338,132,400493,6,0,P|261:129|210:186,2,157.500006008148,6|8|0,1:2|0:2|1:2,0:2:0:0:
450,188,401382,1,8,0:2:0:0:
457,195,401716,1,8,0:2:0:0:
457,194,401827,2,0,P|456:234|457:273,1,78.7500030040742,2|0,0:3|3:2,0:2:0:0:
390,318,402271,6,0,P|381:342|382:369,1,52.5000020027161,2|0,3:2|3:2,0:2:0:0:
457,273,402493,1,2,1:3:0:0:
233,264,402716,1,2,3:2:0:0:
233,264,402827,2,0,P|242:288|241:314,1,52.5000020027161,0|2,3:2|0:2,0:2:0:0:
162,334,403049,1,0,3:2:0:0:
108,262,403160,2,0,P|106:209|99:157,1,105.000004005432,10|2,0:2|0:2,0:2:0:0:
138,40,403493,1,8,0:2:0:0:
138,40,403605,2,0,P|167:64|172:102,1,78.7500030040742,2|0,0:3|3:2,0:2:0:0:
100,158,404049,6,0,P|36:204|2:274,1,157.500006008148,6|8,1:2|0:2,0:2:0:0:
48,352,404493,1,2,3:2:0:0:
48,352,404605,1,0,3:2:0:0:
48,352,404716,2,0,P|74:350|98:341,1,52.5000020027161,2|0,1:2|0:2,0:2:0:0:
178,374,404938,2,0,P|204:375|228:384,1,52.5000020027161,10|0,0:2|0:2,0:2:0:0:
304,346,405160,1,2,3:2:0:0:
310,346,405234,1,0,3:2:0:0:
316,346,405308,1,0,3:2:0:0:
322,346,405382,1,2,1:2:0:0:
460,255,405605,5,2,3:2:0:0:
399,199,405716,2,0,P|400:172|401:146,1,52.5000020027161,8|0,0:2|3:2,0:2:0:0:
312,50,405938,1,0,3:2:0:0:
251,106,406049,2,0,P|252:132|253:158,1,52.5000020027161,2|0,1:2|3:2,0:2:0:0:
506,80,406271,1,8,0:2:0:0:
443,32,406382,1,8,0:2:0:0:
231,30,406605,5,0,3:2:0:0:
225,31,406660,1,0,3:2:0:0:
219,32,406716,2,0,P|167:29|116:19,1,105.000004005432,0|2,3:2|0:3,0:2:0:0:
54,76,407049,1,8,0:2:0:0:
34,151,407160,1,10,0:2:0:0:
190,246,407382,1,10,0:2:0:0:
190,246,407493,1,8,0:2:0:0:
253,187,407605,6,0,P|304:193|343:227,1,105.000004005432,6|2,1:2|0:2,0:2:0:0:
401,168,407938,2,0,P|396:142|393:116,1,52.5000020027161,8|0,0:2|0:2,0:2:0:0:
347,231,408160,1,0,3:2:0:0:
347,231,408271,2,0,P|351:256|354:282,1,52.5000020027161,2|0,1:2|0:2,0:2:0:0:
429,329,408493,5,10,0:2:0:0:
512,201,408716,1,2,3:2:0:0:
512,201,408827,1,8,0:2:0:0:
512,201,408938,1,2,0:3:0:0:
304,35,409160,1,2,3:2:0:0:
296,32,409271,1,0,3:2:0:0:
288,29,409382,2,0,P|264:39|244:55,1,52.5000020027161,2|0,3:2|0:2,0:2:0:0:
227,136,409605,1,2,1:3:0:0:
103,236,409827,5,2,3:2:0:0:
54,238,409938,1,0,3:2:0:0:
29,201,410049,1,2,3:2:0:0:
27,195,410123,1,0,3:2:0:0:
26,189,410197,1,0,3:2:0:0:
25,183,410272,2,0,P|28:157|29:131,1,52.5000020027161,10|8,0:2|0:2,0:2:0:0:
168,192,410605,1,8,0:2:0:0:
177,273,410716,2,0,P|174:299|173:325,1,52.5000020027161,2|0,0:3|3:2,0:2:0:0:
177,273,411160,6,0,P|252:278|275:349,1,157.500006008148,6|8,1:2|0:2,0:2:0:0:
401,262,411716,1,0,3:2:0:0:
331,222,411827,2,0,P|327:195|322:170,1,52.5000020027161,2|0,1:2|0:2,0:2:0:0:
373,52,412049,1,8,0:2:0:0:
373,52,412382,1,8,0:2:0:0:
436,99,412493,2,0,P|439:125|444:150,1,52.5000020027161,2|0,0:3|0:2,0:2:0:0:
265,101,412716,5,2,3:2:0:0:
259,101,412790,1,0,3:2:0:0:
253,101,412864,1,0,3:2:0:0:
247,101,412938,1,0,3:2:0:0:
138,50,413160,6,0,P|87:56|59:99,1,105.000004005432,2|0,1:3|3:2,0:2:0:0:
0,159,413493,1,0,3:2:0:0:
0,159,413605,2,0,L|1:193,2,35.0000013351441,0|0|0,3:2|3:2|3:2,0:2:0:0:
57,254,413827,1,8,0:2:0:0:
183,205,414049,5,2,0:3:0:0:
239,260,414160,1,8,0:2:0:0:
231,335,414271,1,8,0:2:0:0:
199,362,414382,1,8,0:3:0:0:
157,363,414493,1,8,0:3:0:0:
124,332,414605,1,8,0:2:0:0:
126,284,414716,1,6,1:2:0:0:
256,179,415051,6,0,P|308:181|359:194,1,105,8|0,0:2|3:2,0:2:0:0:
416,138,415387,2,0,P|410:112|405:86,1,52.5000020027161,0|0,1:2|0:2,0:2:0:0:
321,16,415611,1,10,0:2:0:0:
279,0,415723,1,8,0:2:0:0:
234,6,415835,1,2,0:2:0:0:
201,36,415947,1,8,0:2:0:0:
149,96,416059,2,0,P|100:82|78:35,1,105.000004005432,2|2,0:3|0:2,0:2:0:0:
114,177,416357,5,0,3:2:0:0:
118,181,416432,1,0,3:2:0:0:
122,185,416507,2,0,P|124:212|125:238,1,52.5000020027161,2|0,3:2|0:2,0:2:0:0:
188,290,416730,1,2,1:3:0:0:
309,353,416954,5,2,3:2:0:0:
309,353,417066,2,0,P|311:326|312:300,1,52.5000020027161,0|2,3:2|0:2,0:2:0:0:
377,251,417290,1,0,3:2:0:0:
377,251,417402,1,10,0:2:0:0:
449,97,417626,5,2,0:3:0:0:
392,51,417738,1,8,3:2:0:0:
392,51,417982,1,8,3:2:0:0:
258,86,418134,5,4,3:2:0:0:
204,33,418525,1,8,0:2:0:0:
88,78,418752,5,0,3:2:0:0:
73,118,418866,1,0,3:2:0:0:
84,160,418979,1,0,3:2:0:0:
122,184,419093,1,0,3:2:0:0:
194,177,419364,5,4,3:2:0:0:
194,177,419499,1,4,0:3:0:0:
291,283,419772,1,4,0:3:0:0:
190,384,420045,1,4,0:3:0:0:
97,273,420317,1,4,0:3:0:0:
196,248,420583,5,4,0:3:0:0:
218,285,420920,1,4,0:3:0:0:
187,311,421257,1,4,0:3:0:0:
170,274,421548,1,4,0:3:0:0:
194,177,421839,6,0,B|290:174|271:236|373:222,1,188.999994232178,6|2,1:2|0:3,0:2:0:0:
372,222,423671,1,4,3:2:0:0:
411,157,424608,6,2,P|406:74|327:48,1,175,2|0,0:2|0:2,0:2:0:0:
256,23,425374,6,0,L|256:0,2,23.3333333333333,2|2|2,0:2|0:2|1:3,0:2:0:0:
