osu file format v14

[General]
AudioFilename: audio.mp3
AudioLeadIn: 0
PreviewTime: 19100
Countdown: 0
SampleSet: Soft
StackLeniency: 0.3
Mode: 0
LetterboxInBreaks: 0
WidescreenStoryboard: 1

[Editor]
Bookmarks: 0,6400,12800,19200,32000,44800,57600,70400,75200,80000,84800,89600,99200,108800,118400,128000,137780,147380,156980,166580
DistanceSpacing: 1
BeatDivisor: 4
GridSize: 4
TimelineZoom: 2.3

[Metadata]
Title:Battle Against a True Hero
TitleUnicode:Battle Against a True Hero
Artist:toby fox vs. Ferdk
ArtistUnicode:toby fox vs. Ferdk
Creator:Hobbes2
Version:Insane
Source:UNDERTALE
Tags:Veus metal undyne undying genocide boss vgm soundtrack theme Realazy Mentai CraEZy Gabe
BeatmapID:1463190
BeatmapSetID:576030

[Difficulty]
HPDrainRate:6
CircleSize:4
OverallDifficulty:8
ApproachRate:9
SliderMultiplier:1.2
SliderTickRate:1

[Events]
//Background and Video events
0,0,"DecentBackground.png",0,0
//Break Periods
//Storyboard Layer 0 (Background)
//Storyboard Layer 1 (Fail)
//Storyboard Layer 2 (Pass)
//Storyboard Layer 3 (Foreground)
//Storyboard Sound Samples

[TimingPoints]
0,400,4,2,10,30,1,0
0,-200,4,2,10,30,0,0
300,-200,4,2,11,30,0,0
600,-200,4,2,12,30,0,0
900,-200,4,2,13,30,0,0
1200,-200,4,2,14,30,0,0
1400,-200,4,2,15,30,0,0
1600,-200,4,2,16,30,0,0
1900,-200,4,2,17,30,0,0
2200,-200,4,2,10,30,0,0
2500,-200,4,2,17,30,0,0
2800,-200,4,2,18,30,0,0
3000,-200,4,2,19,30,0,0
3200,-200,4,2,10,30,0,0
3500,-200,4,2,11,30,0,0
3800,-200,4,2,12,30,0,0
4100,-200,4,2,13,30,0,0
4400,-200,4,2,14,30,0,0
4600,-200,4,2,15,30,0,0
4800,-200,4,2,16,30,0,0
5100,-200,4,2,17,30,0,0
5400,-200,4,2,10,30,0,0
5700,-200,4,2,20,30,0,0
6000,-200,4,2,21,30,0,0
6400,-200,4,2,10,30,0,0
6700,-200,4,2,11,30,0,0
7000,-200,4,2,12,30,0,0
7300,-200,4,2,13,30,0,0
7600,-200,4,2,14,30,0,0
7800,-200,4,2,15,30,0,0
8000,-200,4,2,16,30,0,0
8300,-200,4,2,17,30,0,0
8600,-200,4,2,10,30,0,0
8900,-200,4,2,17,30,0,0
9200,-200,4,2,18,30,0,0
9400,-200,4,2,19,30,0,0
9600,-200,4,2,10,30,0,0
9900,-200,4,2,11,30,0,0
10200,-200,4,2,12,30,0,0
10500,-200,4,2,13,30,0,0
10800,-200,4,2,14,30,0,0
11000,-200,4,2,15,30,0,0
11200,-200,4,2,16,30,0,0
11500,-200,4,2,17,30,0,0
11800,-200,4,2,10,30,0,0
12100,-200,4,2,20,30,0,0
12400,-200,4,2,21,30,0,0
12800,-200,4,2,10,30,0,0
13100,-200,4,2,11,30,0,0
13400,-200,4,2,12,30,0,0
13700,-200,4,2,13,30,0,0
14000,-200,4,2,14,30,0,0
14200,-200,4,2,15,30,0,0
14400,-200,4,2,16,30,0,0
14700,-200,4,2,17,30,0,0
15000,-200,4,2,10,30,0,0
15300,-200,4,2,17,30,0,0
15600,-200,4,2,18,30,0,0
15800,-200,4,2,19,30,0,0
16000,-200,4,2,10,30,0,0
16300,-200,4,2,11,30,0,0
16600,-200,4,2,12,30,0,0
16900,-200,4,2,13,30,0,0
17200,-200,4,2,14,30,0,0
17400,-200,4,2,15,30,0,0
17600,-200,4,2,16,30,0,0
17900,-200,4,2,17,30,0,0
18200,-200,4,2,10,30,0,0
18500,-200,4,2,20,30,0,0
18800,-200,4,2,21,30,0,0
19200,200,4,2,1,70,1,1
44800,-125,4,2,1,55,0,0
70400,400,3,2,22,30,1,0
70400,-200,3,2,22,30,0,0
70600,-200,3,2,13,30,0,0
70800,-200,3,2,12,30,0,0
71000,-200,3,2,13,30,0,0
71200,-200,3,2,17,30,0,0
71400,-200,3,2,13,30,0,0
71600,-200,3,2,18,30,0,0
72000,-200,3,2,18,30,0,0
72200,-200,3,2,17,30,0,0
72400,-200,3,2,18,30,0,0
72600,-200,3,2,17,30,0,0
72800,-200,3,2,18,30,0,0
73400,-200,3,2,12,30,0,0
74000,-200,3,2,15,30,0,0
74600,-200,3,2,19,30,0,0
75200,-200,3,2,22,30,0,0
75400,-200,3,2,13,30,0,0
75600,-200,3,2,12,30,0,0
75800,-200,3,2,13,30,0,0
76000,-200,3,2,17,30,0,0
76200,-200,3,2,13,30,0,0
76400,-200,3,2,18,30,0,0
76800,-200,3,2,18,30,0,0
77000,-200,3,2,17,30,0,0
77200,-200,3,2,18,30,0,0
77400,-200,3,2,17,30,0,0
77600,-200,3,2,18,30,0,0
78000,-200,3,2,12,30,0,0
78400,-200,3,2,10,30,0,0
78600,-200,3,2,23,30,0,0
78700,-200,3,2,16,30,0,0
78800,-200,3,2,13,30,0,0
80000,-200,3,2,22,30,0,0
80200,-200,3,2,13,30,0,0
80400,-200,3,2,12,30,0,0
80600,-200,3,2,13,30,0,0
80800,-200,3,2,17,30,0,0
81000,-200,3,2,13,30,0,0
81200,-200,3,2,18,30,0,0
81600,-200,3,2,18,30,0,0
81800,-200,3,2,17,30,0,0
82000,-200,3,2,18,30,0,0
82200,-200,3,2,17,30,0,0
82400,-200,3,2,18,30,0,0
83000,-200,3,2,12,30,0,0
83600,-200,3,2,15,30,0,0
84200,-200,3,2,19,30,0,0
84800,-200,3,2,22,30,0,0
85000,-200,3,2,13,30,0,0
85200,-200,3,2,12,30,0,0
85400,-200,3,2,13,30,0,0
85600,-200,3,2,17,30,0,0
85800,-200,3,2,13,30,0,0
86000,-200,3,2,18,30,0,0
86400,-200,3,2,18,30,0,0
86600,-200,3,2,17,30,0,0
86800,-200,3,2,18,30,0,0
87000,-200,3,2,17,30,0,0
87200,-200,3,2,18,30,0,0
87600,-200,3,2,12,30,0,0
88000,-200,3,2,10,30,0,0
88200,-200,3,2,23,30,0,0
88300,-200,3,2,16,30,0,0
88400,-200,3,2,13,30,0,0
89500,-200,3,2,1,5,0,0
89600,200,6,2,1,70,1,1
127800,-100,6,2,1,70,0,0

[Colours]
Combo1 : 255,43,43
Combo2 : 255,98,30
Combo3 : 255,21,162
Combo4 : 0,210,53
Combo5 : 128,128,255

[HitObjects]
128,55,0,6,0,L|135:101,1,45,2|2,0:0|0:0,0:0:0:0:
216,156,600,2,0,L|223:112,1,45,2|2,0:0|0:0,0:0:0:0:
101,180,1200,2,0,P|116:185|131:185,1,30,2|2,0:0|0:0,0:0:0:0:
267,105,1600,6,0,L|221:112,1,45,2|2,0:0|0:0,0:0:0:0:
165,193,2200,2,0,L|209:199,1,45,2|2,0:0|0:0,0:0:0:0:
141,78,2800,2,0,P|136:92|136:107,1,30,2|2,0:0|0:0,0:0:0:0:
307,223,3200,6,0,P|288:197|268:188,1,45,2|2,0:0|0:0,0:0:0:0:
156,246,3800,2,0,P|178:246|199:237,1,45,2|2,0:0|0:0,0:0:0:0:
202,115,4400,2,0,P|197:129|197:144,1,30,2|2,0:0|0:0,0:0:0:0:
331,136,4800,6,0,L|287:141,1,45,2|2,0:0|0:0,0:0:0:0:
191,24,5400,2,0,L|235:28,2,45,2|2|2,0:0|0:0|0:0,0:0:0:0:
181,305,6400,6,0,L|176:248,1,45,2|2,0:0|0:0,0:0:0:0:
276,221,7000,1,2,0:0:0:0:
269,237,7300,1,2,0:0:0:0:
194,164,7600,1,2,0:0:0:0:
194,164,7800,1,2,0:0:0:0:
269,237,8000,6,0,L|326:242,1,45,2|2,0:0|0:0,0:0:0:0:
353,142,8600,1,2,0:0:0:0:
337,149,8900,1,2,0:0:0:0:
410,224,9200,2,0,P|424:223|439:220,1,30,2|2,0:0|0:0,0:0:0:0:
337,149,9600,6,0,L|292:147,1,45,2|2,0:0|0:0,0:0:0:0:
200,105,10200,1,2,0:0:0:0:
216,97,10500,1,2,0:0:0:0:
215,203,10800,1,2,0:0:0:0:
215,203,11000,1,2,0:0:0:0:
216,97,11200,6,0,P|221:75|231:55,1,45,2|2,0:0|0:0,0:0:0:0:
310,121,11800,1,2,0:0:0:0:
306,104,12100,1,2,0:0:0:0:
402,142,12400,1,2,0:0:0:0:
316,264,12800,6,0,P|294:264|272:263,1,45,2|2,0:0|0:0,0:0:0:0:
199,185,13400,1,2,0:0:0:0:
206,201,13700,1,2,0:0:0:0:
281,128,14000,1,2,0:0:0:0:
281,128,14200,1,2,0:0:0:0:
206,201,14400,6,0,L|162:205,1,45,2|2,0:0|0:0,0:0:0:0:
113,295,15000,1,2,0:0:0:0:
130,289,15300,1,2,0:0:0:0:
32,242,15600,2,0,P|23:229|17:215,1,30,2|2,0:0|0:0,0:0:0:0:
256,192,16000,12,0,18200,0:0:0:0:
40,288,19200,6,0,P|37:258|41:228,1,60,6|0,0:0|0:0,0:0:0:0:
78,159,19400,1,8,0:0:0:0:
78,159,19500,2,0,P|160:136|205:154,1,120,2|0,0:0|0:0,0:0:0:0:
244,89,19800,2,0,P|326:112|371:94,1,120,10|0,0:0|0:0,0:0:0:0:
424,64,20100,2,0,P|436:24|437:6,2,60,2|8|0,0:0|0:0|0:0,0:0:0:0:
356,102,20400,2,0,L|351:185,1,60,2|0,0:0|0:0,0:0:0:0:
414,210,20600,2,0,L|419:293,1,60,10|0,0:0|0:0,0:0:0:0:
295,338,20800,6,0,P|237:325|200:279,1,120,2|8,0:0|0:0,0:0:0:0:
243,215,21100,2,0,P|301:228|338:274,1,120,2|0,0:0|0:0,0:0:0:0:
418,269,21400,2,0,L|410:149,1,120,10|0,0:0|0:0,0:0:0:0:
426,72,21700,2,0,P|454:83|474:105,2,60,2|8|0,0:0|0:0|0:0,0:0:0:0:
352,99,22000,2,0,L|270:103,1,60,2|0,0:0|0:0,0:0:0:0:
228,54,22200,2,0,L|169:52,1,60,10|0,0:0|0:0,0:0:0:0:
107,157,22400,6,0,B|177:162|177:162|216:131,1,120,2|8,0:0|0:0,0:0:0:0:
292,101,22700,2,0,P|334:113|369:190,1,120,2|0,0:0|0:0,0:0:0:0:
344,250,23000,2,0,P|351:289|352:336,1,60,10|0,0:0|0:0,0:0:0:0:
295,363,23200,1,0,0:0:0:0:
295,363,23300,2,0,L|151:354,1,120,2|0,0:0|0:0,0:0:0:0:
100,333,23600,2,0,P|77:292|75:264,1,60,2|0,0:0|0:0,0:0:0:0:
57,203,23800,2,0,P|54:173|61:144,1,60,10|0,0:0|0:0,0:0:0:0:
134,1,24000,6,0,L|136:121,1,120,6|8,0:0|0:0,0:0:0:0:
186,180,24300,1,2,0:0:0:0:
224,177,24400,1,0,0:0:0:0:
259,160,24500,1,0,0:0:0:0:
285,131,24600,2,0,L|283:11,1,120,14|0,0:0|0:0,0:0:0:0:
359,4,24900,2,0,B|395:13|395:13|423:35,2,60,2|8|0,0:0|0:0|0:0,0:0:0:0:
283,11,25200,2,0,P|253:10|223:7,1,60,2|0,0:0|0:0,0:0:0:0:
147,86,25400,2,0,P|177:83|207:83,1,60,8|0,0:0|0:0,0:0:0:0:
352,209,25600,6,0,P|307:188|291:108,1,120,6|8,0:0|0:0,0:0:0:0:
363,135,25900,2,0,P|413:162|429:228,1,120,2|0,0:0|0:0,0:0:0:0:
422,297,26200,2,0,P|402:336|379:356,1,60,10|0,0:0|0:0,0:0:0:0:
314,356,26400,1,0,0:0:0:0:
314,356,26500,2,0,L|169:358,1,120,2|0,0:0|0:0,0:0:0:0:
131,311,26800,2,0,P|135:257|149:231,1,60,2|0,0:0|0:0,0:0:0:0:
189,193,27000,2,0,P|185:139|171:113,1,60,10|0,0:0|0:0,0:0:0:0:
79,55,27200,6,0,L|114:170,1,120,2|8,0:0|0:0,0:0:0:0:
189,193,27500,2,0,P|273:199|312:169,1,120,2|0,0:0|0:0,0:0:0:0:
357,128,27800,2,0,P|362:98|362:61,2,60,10|0|0,0:0|0:0|0:0,0:0:0:0:
378,203,28100,2,0,P|378:232|383:262,1,60,2|8,0:0|0:0,0:0:0:0:
310,290,28300,1,0,0:0:0:0:
310,290,28400,2,0,L|250:283,1,60,2|0,0:0|0:0,0:0:0:0:
153,358,28600,2,0,L|212:351,1,60,10|0,0:0|0:0,0:0:0:0:
345,362,28800,6,0,P|386:320|383:262,1,120,2|8,0:0|0:0,0:0:0:0:
323,212,29100,2,0,P|319:153|360:111,1,120,2|0,0:0|0:0,0:0:0:0:
436,129,29400,2,0,P|483:129|504:118,2,60,10|0|0,0:0|0:0|0:0,0:0:0:0:
360,111,29700,2,0,L|240:107,1,120,2|0,0:0|0:0,0:0:0:0:
181,56,30000,2,0,B|152:56|121:62,1,60,2|0,0:0|0:0,0:0:0:0:
118,146,30200,2,0,P|147:152|177:155,1,60,10|0,0:0|0:0,0:0:0:0:
329,225,30400,6,0,L|209:227,1,120,6|8,0:0|0:0,0:0:0:0:
150,277,30700,1,2,0:0:0:0:
153,315,30800,1,0,0:0:0:0:
170,350,30900,1,0,0:0:0:0:
199,376,31000,2,0,L|319:374,1,120,14|0,0:0|0:0,0:0:0:0:
367,312,31300,2,0,P|387:333|398:362,2,60,2|8|0,0:0|0:0|0:0,0:0:0:0:
317,255,31600,1,2,0:0:0:0:
305,217,31700,1,0,0:0:0:0:
301,179,31800,1,8,0:0:0:0:
304,140,31900,1,0,0:0:0:0:
315,102,32000,6,0,P|253:162|181:171,1,120,6|8,0:0|0:0,0:0:0:0:
143,181,32300,2,0,P|88:203|49:249,1,120,2|0,0:0|0:0,0:0:0:0:
68,324,32600,2,0,P|38:326|10:317,2,60,10|0|0,0:0|0:0|0:0,0:0:0:0:
139,358,32900,2,0,L|288:359,1,120,2|0,0:0|0:0,0:0:0:0:
322,313,33200,2,0,P|319:283|322:253,1,60,2|0,0:0|0:0,0:0:0:0:
254,152,33400,2,0,P|257:182|255:212,1,60,10|0,0:0|0:0,0:0:0:0:
82,229,33600,6,0,B|111:258|111:258|190:256,1,120,2|8,0:0|0:0,0:0:0:0:
255,212,33900,2,0,B|333:209|333:209|362:238,1,120,2|0,0:0|0:0,0:0:0:0:
408,173,34200,2,0,P|403:123|412:87,1,60,10|0,0:0|0:0,0:0:0:0:
471,73,34400,1,0,0:0:0:0:
471,73,34500,2,0,P|503:132|505:201,1,120,2|0,0:0|0:0,0:0:0:0:
486,258,34800,2,0,P|433:290|409:295,1,60,2|0,0:0|0:0,0:0:0:0:
360,313,35000,2,0,P|330:317|300:314,1,60,10|0,0:0|0:0,0:0:0:0:
241,148,35200,6,0,P|289:179|287:237,1,120,2|8,0:0|0:0,0:0:0:0:
227,287,35500,2,0,L|77:278,1,120,2|0,0:0|0:0,0:0:0:0:
44,231,35800,2,0,P|31:257|36:306,2,60,10|0|0,0:0|0:0|0:0,0:0:0:0:
105,180,36100,2,0,L|95:101,1,60,2|8,0:0|0:0,0:0:0:0:
144,58,36300,1,0,0:0:0:0:
144,58,36400,2,0,B|173:47|173:47|224:52,1,60,2|0,0:0|0:0,0:0:0:0:
255,105,36600,2,0,B|284:116|284:116|335:111,1,60,10|0,0:0|0:0,0:0:0:0:
427,26,36800,6,0,L|308:35,1,120,6|8,0:0|0:0,0:0:0:0:
312,113,37100,1,2,0:0:0:0:
326,149,37200,1,0,0:0:0:0:
328,187,37300,1,0,0:0:0:0:
316,224,37400,2,0,P|245:248|171:199,1,120,14|0,0:0|0:0,0:0:0:0:
162,300,37700,2,0,P|91:276|54:290,2,60,2|8|0,0:0|0:0|0:0,0:0:0:0:
214,357,38000,1,2,0:0:0:0:
252,354,38100,1,0,0:0:0:0:
291,352,38200,1,8,0:0:0:0:
330,350,38300,1,0,0:0:0:0:
369,348,38400,6,0,P|392:272|368:200,1,120,6|8,0:0|0:0,0:0:0:0:
316,200,38700,2,0,P|293:124|317:52,1,120,2|0,0:0|0:0,0:0:0:0:
364,40,39000,2,0,P|416:40|452:48,2,60,10|0|0,0:0|0:0|0:0,0:0:0:0:
299,85,39300,2,0,L|179:81,1,120,2|0,0:0|0:0,0:0:0:0:
46,106,39600,2,0,P|76:109|106:111,1,60,2|0,0:0|0:0,0:0:0:0:
191,180,39800,2,0,P|161:181|132:185,1,60,10|0,0:0|0:0,0:0:0:0:
3,281,40000,6,0,P|54:250|112:261,1,120,2|8,0:0|0:0,0:0:0:0:
177,304,40300,2,0,P|186:347|186:374,1,60,2|0,0:0|0:0,0:0:0:0:
264,374,40500,1,0,0:0:0:0:
264,374,40600,2,0,P|269:281|295:230,1,120,10|0,0:0|0:0,0:0:0:0:
353,231,40900,2,0,L|427:228,1,60,2|8,0:0|0:0,0:0:0:0:
464,169,41100,1,0,0:0:0:0:
464,169,41200,2,0,P|464:116|455:93,1,60,2|0,0:0|0:0,0:0:0:0:
403,0,41400,2,0,P|398:28|402:58,1,60,10|0,0:0|0:0,0:0:0:0:
247,146,41600,6,0,P|296:114|355:121,1,120,2|8,0:0|0:0,0:0:0:0:
384,193,41900,2,0,L|380:312,1,120,2|0,0:0|0:0,0:0:0:0:
312,350,42200,2,0,P|261:354|234:349,1,60,10|0,0:0|0:0,0:0:0:0:
195,298,42400,1,0,0:0:0:0:
195,298,42500,2,0,P|165:296|135:300,1,60,2|8,0:0|0:0,0:0:0:0:
60,325,42700,1,0,0:0:0:0:
60,325,42800,2,0,L|53:250,1,60,2|0,0:0|0:0,0:0:0:0:
0,209,43000,2,0,L|7:134,1,60,10|0,0:0|0:0,0:0:0:0:
100,32,43200,6,0,P|82:89|84:149,1,120,6|8,0:0|0:0,0:0:0:0:
153,183,43500,1,2,0:0:0:0:
191,191,43600,1,0,0:0:0:0:
229,199,43700,1,0,0:0:0:0:
267,207,43800,2,0,P|284:149|283:90,1,120,14|0,0:0|0:0,0:0:0:0:
375,37,44100,5,2,0:0:0:0:
371,77,44200,1,8,0:0:0:0:
377,116,44300,1,0,0:0:0:0:
391,153,44400,5,2,0:0:0:0:
342,176,44500,1,0,0:0:0:0:
293,199,44600,1,8,0:0:0:0:
244,222,44700,1,0,0:0:0:0:
195,245,44800,6,0,P|148:251|101:244,1,96,6|8,0:0|0:0,0:0:0:0:
33,208,45100,1,2,0:0:0:0:
89,65,45300,1,0,0:0:0:0:
89,65,45400,2,0,P|124:57|155:56,1,48,10|0,0:0|0:0,0:0:0:0:
202,94,45600,2,0,L|301:85,1,96,2|8,0:0|0:0,0:0:0:0:
297,85,45900,1,0,0:0:0:0:
297,85,46000,1,0,0:0:0:0:
444,130,46200,1,8,0:0:0:0:
303,191,46400,6,0,P|286:235|286:283,1,96,0|8,0:0|0:0,0:0:0:0:
349,327,46700,2,0,L|449:325,1,96,0|0,0:0|0:0,0:0:0:0:
508,281,47000,1,8,0:0:0:0:
510,127,47200,1,0,0:0:0:0:
510,127,47300,2,0,L|509:63,2,48,0|8|0,0:0|0:0|0:0,0:0:0:0:
438,154,47600,2,0,P|392:158|375:158,1,48,2|0,0:0|0:0,0:0:0:0:
333,105,47800,2,0,P|287:101|270:101,1,48,10|0,0:0|0:0,0:0:0:0:
223,52,48000,6,0,P|207:96|218:142,1,96,2|8,0:0|0:0,0:0:0:0:
287,177,48300,1,0,0:0:0:0:
206,307,48500,1,0,0:0:0:0:
205,307,48600,2,0,L|110:305,1,96,8|0,0:0|0:0,0:0:0:0:
37,279,48900,2,0,P|16:236|19:188,1,96,0|0,0:0|0:0,0:0:0:0:
73,134,49200,1,0,0:0:0:0:
192,37,49400,1,8,0:0:0:0:
256,176,49600,6,0,L|257:271,1,96,0|8,0:0|0:0,0:0:0:0:
284,344,49900,2,0,P|326:365|374:362,1,96,0|0,0:0|0:0,0:0:0:0:
436,317,50200,1,8,0:0:0:0:
474,168,50400,2,0,P|469:130|459:106,1,48,2|0,0:0|0:0,0:0:0:0:
488,131,50600,2,0,P|486:107|481:84,1,48,10|0,0:0|0:0,0:0:0:0:
368,112,50800,2,0,P|368:88|375:66,1,48,2|0,0:0|0:0,0:0:0:0:
381,147,51000,2,0,P|382:124|389:101,1,48,10|0,0:0|0:0,0:0:0:0:
412,236,51200,6,0,P|366:225|318:222,1,96,6|8,0:0|0:0,0:0:0:0:
269,162,51500,2,0,P|223:173|175:176,1,96,0|0,0:0|0:0,0:0:0:0:
125,114,51800,1,8,0:0:0:0:
34,238,52000,1,0,0:0:0:0:
34,238,52100,2,0,L|36:333,1,96,0|0,0:0|0:0,0:0:0:0:
107,364,52400,1,0,0:0:0:0:
249,307,52600,1,8,0:0:0:0:
175,180,52800,6,0,P|166:134|175:87,1,96,0|8,0:0|0:0,0:0:0:0:
241,48,53100,2,0,P|227:29|207:16,2,48,0|0|0,0:0|0:0|0:0,0:0:0:0:
279,115,53400,1,8,0:0:0:0:
401,207,53600,1,0,0:0:0:0:
401,207,53700,2,0,P|410:253|400:300,1,96,0|0,0:0|0:0,0:0:0:0:
331,337,54000,1,0,0:0:0:0:
482,310,54200,1,8,0:0:0:0:
331,337,54400,6,0,L|220:334,1,96,2|8,0:0|0:0,0:0:0:0:
174,286,54700,2,0,L|78:288,1,96,0|0,0:0|0:0,0:0:0:0:
22,342,55000,1,8,0:0:0:0:
94,206,55200,1,0,0:0:0:0:
94,206,55299,2,0,P|99:158|93:110,1,96,0|0,0:0|0:0,0:0:0:0:
154,62,55600,2,0,P|201:67|249:61,1,96,2|8,0:0|0:0,0:0:0:0:
298,122,55900,1,0,0:0:0:0:
298,122,56000,6,0,P|292:169|298:217,1,96,2|8,0:0|0:0,0:0:0:0:
375,210,56300,2,0,P|380:162|374:114,1,96,0|0,0:0|0:0,0:0:0:0:
329,50,56600,1,8,0:0:0:0:
214,151,56800,1,0,0:0:0:0:
214,151,56901,2,0,L|118:149,1,96,0|0,0:0|0:0,0:0:0:0:
42,147,57200,1,0,0:0:0:0:
118,367,57400,1,8,0:0:0:0:
118,367,57500,1,0,0:0:0:0:
118,367,57599,6,0,L|213:365,1,96,6|8,0:0|0:0,0:0:0:0:
275,317,57900,2,0,P|287:271|279:224,1,96,2|0,0:0|0:0,0:0:0:0:
229,164,58200,2,0,P|227:141|225:117,1,48,10|0,0:0|0:0,0:0:0:0:
277,59,58400,2,0,L|372:61,1,96,2|8,0:0|0:0,0:0:0:0:
372,61,58700,1,0,0:0:0:0:
372,61,58800,1,0,0:0:0:0:
465,183,59000,1,8,0:0:0:0:
323,242,59200,6,0,P|277:253|229:256,1,96,0|8,0:0|0:0,0:0:0:0:
180,316,59500,2,0,P|134:305|86:302,1,96,0|0,0:0|0:0,0:0:0:0:
36,364,59800,1,8,0:0:0:0:
98,223,60000,1,0,0:0:0:0:
98,223,60100,2,0,L|100:128,1,96,0|0,0:0|0:0,0:0:0:0:
171,97,60400,2,0,P|213:95|227:94,1,48,2|0,0:0|0:0,0:0:0:0:
267,154,60600,2,0,P|309:156|323:157,1,48,10|0,0:0|0:0,0:0:0:0:
373,106,60800,6,0,P|389:150|378:196,1,96,2|8,0:0|0:0,0:0:0:0:
310,231,61100,1,0,0:0:0:0:
462,216,61300,1,0,0:0:0:0:
462,216,61400,2,0,L|460:311,1,96,8|0,0:0|0:0,0:0:0:0:
398,357,61700,2,0,P|353:373|307:362,1,96,0|0,0:0|0:0,0:0:0:0:
349,298,62000,1,0,0:0:0:0:
407,155,62200,1,8,0:0:0:0:
263,100,62400,6,0,B|219:90|219:90|157:99,1,96,0|8,0:0|0:0,0:0:0:0:
103,139,62700,2,0,B|93:183|93:183|102:245,1,96,0|0,0:0|0:0,0:0:0:0:
142,299,63000,1,8,0:0:0:0:
288,254,63200,6,0,L|354:261,1,48,2|0,0:0|0:0,0:0:0:0:
321,234,63400,2,0,L|369:240,1,48,10|0,0:0|0:0,0:0:0:0:
323,338,63600,2,0,L|389:331,1,48,2|0,0:0|0:0,0:0:0:0:
356,357,63800,2,0,L|403:351,1,48,10|0,0:0|0:0,0:0:0:0:
491,264,64000,6,0,B|490:168,1,96,6|8,0:0|0:0,0:0:0:0:
471,93,64300,2,0,P|474:55|474:33,2,48,0|0|0,0:0|0:0|0:0,0:0:0:0:
417,147,64600,1,8,0:0:0:0:
280,75,64800,1,0,0:0:0:0:
280,75,64900,2,0,P|223:68|177:74,1,96,0|0,0:0|0:0,0:0:0:0:
116,108,65200,1,0,0:0:0:0:
28,234,65400,1,8,0:0:0:0:
139,340,65600,6,0,L|234:338,1,96,0|8,0:0|0:0,0:0:0:0:
306,367,65900,2,0,L|401:368,1,96,0|0,0:0|0:0,0:0:0:0:
471,336,66200,1,8,0:0:0:0:
393,203,66400,1,0,0:0:0:0:
393,203,66500,2,0,P|380:129|397:95,1,96,0|0,0:0|0:0,0:0:0:0:
445,60,66800,2,0,P|460:104|451:151,1,96,2|8,0:0|0:0,0:0:0:0:
393,203,67100,1,0,0:0:0:0:
393,203,67200,6,0,L|289:202,1,96,2|8,0:0|0:0,0:0:0:0:
220,200,67500,1,0,0:0:0:0:
91,116,67700,1,0,0:0:0:0:
91,116,67800,2,0,P|97:69|107:50,2,48,8|0|0,0:0|0:0|0:0,0:0:0:0:
132,181,68100,2,0,P|141:227|131:274,1,96,0|0,0:0|0:0,0:0:0:0:
74,327,68400,1,0,0:0:0:0:
221,370,68600,1,8,0:0:0:0:
345,278,68800,6,0,P|348:231|348:183,1,96,4|8,0:0|0:0,0:0:0:0:
293,79,69100,1,0,0:0:0:0:
293,79,69199,2,0,P|290:103|294:127,1,48
465,112,69400,2,0,P|417:109|370:110,1,96,12|0,0:0|0:0,0:0:0:0:
224,198,69700,2,0,P|247:204|271:202,2,48,0|8|0,0:0|0:0|0:0,0:0:0:0:
348,182,70000,1,0,0:0:0:0:
348,182,70400,6,0,L|340:215,1,30,2|2,0:0|0:0,0:0:0:0:
261,228,70800,2,0,L|269:256,1,30,2|2,0:0|0:0,0:0:0:0:
208,311,71200,2,0,L|229:331,1,30,2|2,0:0|0:0,0:0:0:0:
269,256,71600,5,2,0:0:0:0:
269,256,72000,2,0,L|261:228,3,30,2|2|2|2,0:0|0:0|0:0|0:0,0:0:0:0:
307,161,72800,6,0,P|311:112|301:65,1,90,2|2,0:0|0:0,0:0:0:0:
314,59,74000,6,0,P|321:103|317:147,1,90,2|2,0:0|0:0,0:0:0:0:
307,161,75200,6,0,P|293:167|278:167,1,30,2|2,0:0|0:0,0:0:0:0:
229,232,75600,2,0,P|214:231|201:223,1,30,2|2,0:0|0:0,0:0:0:0:
125,254,76000,2,0,P|112:246|105:233,1,30,2|2,0:0|0:0,0:0:0:0:
201,223,76400,5,2,0:0:0:0:
201,223,76800,2,0,P|214:231|229:232,3,30,2|2|2|2,0:0|0:0|0:0|0:0,0:0:0:0:
297,276,77600,6,0,P|336:276|362:286,2,60,2|2|2,0:0|0:0|0:0,0:0:0:0:
238,332,78600,2,0,L|228:355,2,15,2|2|2,0:0|0:0|0:0,0:0:0:0:
465,231,80000,6,0,L|457:198,1,30,2|2,0:0|0:0,0:0:0:0:
378,185,80400,2,0,L|386:156,1,30,2|2,0:0|0:0,0:0:0:0:
325,102,80800,2,0,L|346:81,1,30,2|2,0:0|0:0,0:0:0:0:
386,157,81200,5,2,0:0:0:0:
386,156,81600,2,0,L|377:184,3,30,2|2|2|2,0:0|0:0|0:0|0:0,0:0:0:0:
424,252,82400,6,0,B|431:283|431:283|418:348,1,90,2|2,0:0|0:0,0:0:0:0:
405,345,83600,6,0,B|417:288|417:288|410:257,1,90,2|2,0:0|0:0,0:0:0:0:
304,38,84800,6,0,B|296:42|296:42|272:43,1,30,2|2,0:0|0:0,0:0:0:0:
250,116,85200,2,0,B|241:115|241:115|219:104,1,30,2|2,0:0|0:0,0:0:0:0:
164,156,85600,2,0,B|156:151|156:151|143:130,1,30,2|2,0:0|0:0,0:0:0:0:
222,105,86000,5,2,0:0:0:0:
222,105,86400,2,0,B|241:115|241:115|250:116,3,30,2|2|2|2,0:0|0:0|0:0|0:0,0:0:0:0:
318,153,87200,6,0,L|313:213,2,60,2|2|2,0:0|0:0|0:0,0:0:0:0:
374,98,88200,2,0,L|396:88,1,15,2|2,0:0|0:0,0:0:0:0:
426,83,88400,6,0,B|405:180|468:150|438:251,1,165,2|0,0:0|0:0,0:0:0:0:
434,265,89600,6,0,P|429:292|427:330,1,60,6|0,0:0|0:0,0:0:0:0:
394,306,89800,2,0,P|400:336|402:366,1,60,10|0,0:0|0:0,0:0:0:0:
365,214,90000,2,0,P|346:236|330:262,1,60,2|0,0:0|0:0,0:0:0:0:
309,230,90200,2,0,P|299:259|285:286,1,60,10|0,0:0|0:0,0:0:0:0:
331,135,90400,2,0,P|302:145|275:158,1,60,2|0,0:0|0:0,0:0:0:0:
274,121,90600,2,0,P|250:141|225:157,1,60,10|0,0:0|0:0,0:0:0:0:
87,195,90800,6,0,P|145:198|191:236,1,120,2|8,0:0|0:0,0:0:0:0:
232,302,91100,1,0,0:0:0:0:
232,302,91200,2,0,P|230:331|225:361,1,60,2|0,0:0|0:0,0:0:0:0:
308,285,91400,2,0,P|303:255|301:225,1,60,10|0,0:0|0:0,0:0:0:0:
242,309,91600,2,0,P|240:339|235:369,1,60,2|0,0:0|0:0,0:0:0:0:
318,292,91800,2,0,P|313:263|311:233,1,60,10|0,0:0|0:0,0:0:0:0:
395,112,92000,6,0,L|390:232,1,120,2|8,0:0|0:0,0:0:0:0:
445,286,92300,1,0,0:0:0:0:
445,286,92400,2,0,P|454:319|451:345,1,60,0|0,0:0|0:0,0:0:0:0:
378,371,92600,2,0,L|258:376,1,120,10|0,0:0|0:0,0:0:0:0:
190,341,92900,1,0,0:0:0:0:
190,341,93000,2,0,P|181:308|184:282,1,60,8|0,0:0|0:0,0:0:0:0:
234,223,93200,6,0,B|240:180|240:180|220:99,1,120,2|8,0:0|0:0,0:0:0:0:
194,32,93500,1,0,0:0:0:0:
194,32,93600,1,0,0:0:0:0:
312,133,93800,2,0,B|355:139|355:139|436:119,1,120,10|0,0:0|0:0,0:0:0:0:
503,93,94100,1,0,0:0:0:0:
503,93,94200,1,8,0:0:0:0:
475,246,94400,6,0,L|400:264,1,60,6|0,0:0|0:0,0:0:0:0:
442,280,94600,2,0,L|384:295,1,60,10|0,0:0|0:0,0:0:0:0:
322,344,94800,2,0,L|264:326,1,60,2|0,0:0|0:0,0:0:0:0:
276,357,95000,2,0,L|218:339,1,60,10|0,0:0|0:0,0:0:0:0:
140,352,95200,2,0,L|98:308,1,60,2|0,0:0|0:0,0:0:0:0:
94,340,95400,2,0,L|52:296,1,60,10|0,0:0|0:0,0:0:0:0:
164,221,95600,6,0,P|106:228|59:192,1,120,2|8,0:0|0:0,0:0:0:0:
48,114,95900,1,0,0:0:0:0:
48,114,96000,2,0,P|53:58|55:45,1,60,2|0,0:0|0:0,0:0:0:0:
123,19,96200,2,0,P|152:22|182:24,1,60,10|0,0:0|0:0,0:0:0:0:
38,103,96400,2,0,P|43:47|45:34,1,60,2|0,0:0|0:0,0:0:0:0:
113,8,96600,2,0,P|142:11|172:13,1,60,10|0,0:0|0:0,0:0:0:0:
231,64,96800,6,0,P|239:123|223:180,1,120,2|8,0:0|0:0,0:0:0:0:
176,243,97100,1,0,0:0:0:0:
176,243,97200,2,0,P|222:206|280:191,1,120,2|8,0:0|0:0,0:0:0:0:
359,202,97500,1,0,0:0:0:0:
359,202,97601,2,0,P|303:179|261:137,1,120,2|10,0:0|0:0,0:0:0:0:
231,64,97900,1,2,0:0:0:0:
231,64,98000,5,2,0:0:0:0:
91,132,98200,1,8,0:0:0:0:
78,168,98300,1,0,0:0:0:0:
79,207,98400,1,0,0:0:0:0:
232,232,98600,1,8,0:0:0:0:
207,203,98700,1,0,0:0:0:0:
173,184,98800,1,0,0:0:0:0:
74,304,99000,1,8,0:0:0:0:
112,296,99100,1,0,0:0:0:0:
145,277,99200,6,0,P|157:219|156:201,1,60,6|0,0:0|0:0,0:0:0:0:
193,249,99400,2,0,P|187:219|175:192,1,60,10|0,0:0|0:0,0:0:0:0:
17,130,99600,2,0,P|46:139|76:143,1,60,2|0,0:0|0:0,0:0:0:0:
46,180,99800,2,0,P|75:174|103:162,1,60,10|0,0:0|0:0,0:0:0:0:
163,3,100000,2,0,P|154:31|150:61,1,60,2|0,0:0|0:0,0:0:0:0:
113,31,100200,2,0,P|119:60|131:87,1,60,10|0,0:0|0:0,0:0:0:0:
308,133,100400,6,0,P|248:132|189:141,1,120,2|8,0:0|0:0,0:0:0:0:
169,217,100700,1,0,0:0:0:0:
169,217,100800,2,0,L|166:280,1,60,2|0,0:0|0:0,0:0:0:0:
239,369,101000,2,0,L|237:310,1,60,10|0,0:0|0:0,0:0:0:0:
160,229,101200,2,0,L|157:292,1,60,2|0,0:0|0:0,0:0:0:0:
230,381,101400,2,0,L|227:321,1,60,10|0,0:0|0:0,0:0:0:0:
263,209,101600,6,0,P|283:264|336:290,1,120,2|8,0:0|0:0,0:0:0:0:
414,287,101900,1,0,0:0:0:0:
414,286,102000,2,0,P|424:258|424:228,1,60
417,149,102200,2,0,P|396:94|343:68,1,120,10|0,0:0|0:0,0:0:0:0:
266,72,102500,1,0,0:0:0:0:
266,72,102599,2,0,P|255:100|255:130,1,60,8|0,0:0|0:0,0:0:0:0:
197,188,102800,6,0,L|205:312,1,120,2|8,0:0|0:0,0:0:0:0:
145,358,103100,1,0,0:0:0:0:
145,358,103200,1,0,0:0:0:0:
31,250,103400,2,0,L|23:126,1,120,10|0,0:0|0:0,0:0:0:0:
83,80,103700,1,0,0:0:0:0:
83,80,103800,1,8,0:0:0:0:
197,188,104000,6,0,B|237:199|237:199|359:171,1,120,6|8,0:0|0:0,0:0:0:0:
389,162,104300,1,0,0:0:0:0:
389,162,104400,1,0,0:1:0:0:
452,304,104600,2,0,P|444:333|430:359,1,60,10|0,0:0|0:0,0:0:0:0:
353,375,104800,2,0,P|331:354|316:328,1,60,2|0,0:0|0:0,0:0:0:0:
341,254,105000,2,0,P|369:245|399:245,1,60,2|0,0:0|0:0,0:0:0:0:
242,350,105200,6,0,L|122:345,1,120,2|8,0:0|0:0,0:0:0:0:
87,275,105500,1,0,0:0:0:0:
87,275,105600,2,0,L|150:173,1,120,2|8,0:0|0:0,0:0:0:0:
229,178,105900,1,0,0:0:0:0:
229,178,106000,2,0,L|285:283,1,120,2|8,0:0|0:0,0:0:0:0:
370,347,106300,1,0,0:0:0:0:
370,347,106400,6,0,P|364:274|388:198,1,120,2|8,0:0|0:0,0:0:0:0:
439,185,106700,1,0,0:0:0:0:
439,185,106800,1,0,0:0:0:0:
317,86,107000,1,8,0:0:0:0:
278,80,107100,1,0,0:0:0:0:
239,80,107200,2,0,P|183:91|158:100,1,60,0|0,0:0|0:0,0:0:0:0:
194,168,107400,2,0,P|250:157|275:148,1,60,8|0,0:0|0:0,0:0:0:0:
361,180,107600,6,0,P|427:148|481:89,1,120,2|8,0:0|0:0,0:0:0:0:
466,39,107900,1,0,0:0:0:0:
466,39,108000,1,0,0:0:0:0:
317,86,108200,1,8,0:0:0:0:
285,108,108300,1,0,0:0:0:0:
264,141,108400,1,0,0:0:0:0:
257,179,108500,1,0,0:0:0:0:
264,217,108600,1,8,0:0:0:0:
284,250,108700,1,0,0:0:0:0:
315,273,108800,6,0,P|332:293|353:325,1,60,6|0,0:0|0:0,0:0:0:0:
370,287,109000,2,0,P|379:315|393:342,1,60,10|0,0:0|0:0,0:0:0:0:
349,193,109200,2,0,P|376:202|403:217,1,60,2|0,0:0|0:0,0:0:0:0:
405,179,109400,2,0,P|428:199|453:215,1,60,10|0,0:0|0:0,0:0:0:0:
338,107,109600,2,0,P|368:101|397:98,1,60,2|0,0:0|0:0,0:0:0:0:
381,67,109800,2,0,P|411:72|441:73,1,60,10|0,0:0|0:0,0:0:0:0:
304,16,110000,6,0,L|166:12,1,120,2|8,0:0|0:0,0:0:0:0:
113,47,110300,1,0,0:0:0:0:
113,47,110400,2,0,B|103:78|103:78|112:136,1,60,2|0,0:0|0:0,0:0:0:0:
167,203,110600,2,0,B|177:172|177:172|173:145,1,60,10|0,0:0|0:0,0:0:0:0:
106,53,110800,2,0,B|96:84|96:84|105:142,1,60,2|0,0:0|0:0,0:0:0:0:
160,209,111000,2,0,B|170:178|170:178|165:150,1,60,10|0,0:0|0:0,0:0:0:0:
277,105,111200,6,0,P|251:158|253:217,1,120,2|8,0:0|0:0,0:0:0:0:
305,276,111500,1,0,0:0:0:0:
305,276,111600,2,0,L|364:272,1,60,0|0,0:0|0:0,0:0:0:0:
425,223,111800,2,0,P|451:169|449:110,1,120,10|0,0:0|0:0,0:0:0:0:
398,52,112100,1,0,0:0:0:0:
398,52,112200,2,0,L|338:55,1,60,8|0,0:0|0:0,0:0:0:0:
275,101,112400,6,0,P|208:108|138:88,1,120,2|8,0:0|0:0,0:0:0:0:
91,53,112700,1,0,0:0:0:0:
91,53,112800,1,0,0:0:0:0:
28,195,113000,2,0,P|95:188|165:208,1,120,10|0,0:0|0:0,0:0:0:0:
212,243,113300,1,0,0:0:0:0:
212,243,113400,1,8,0:0:0:0:
302,115,113600,6,0,P|329:102|358:96,1,60,6|0,0:0|0:0,0:0:0:0:
324,134,113801,2,0,P|353:137|382:147,1,60,10|0,0:0|0:0,0:0:0:0:
228,87,114000,2,0,P|216:59|210:30,1,60,2|0,0:0|0:0,0:0:0:0:
247,59,114201,2,0,P|251:29|259:0,1,60,10|0,0:0|0:0,0:0:0:0:
198,159,114401,2,0,P|170:171|141:176,1,60,2|0,0:0|0:0,0:0:0:0:
171,141,114601,2,0,P|141:137|112:128,1,60,10|0,0:0|0:0,0:0:0:0:
270,189,114800,6,0,B|282:230|282:230|269:306,1,120,2|8,0:0|0:0,0:0:0:0:
199,342,115100,1,0,0:0:0:0:
199,342,115200,2,0,L|122:347,1,60,2|0,0:0|0:0,0:0:0:0:
15,296,115400,2,0,L|75:300,1,60,10|0,0:0|0:0,0:0:0:0:
190,348,115600,2,0,L|113:353,1,60,2|0,0:0|0:0,0:0:0:0:
6,302,115800,2,0,L|65:305,1,60,10|0,0:0|0:0,0:0:0:0:
127,147,116000,6,0,L|146:265,1,120,2|8,0:0|0:0,0:0:0:0:
220,237,116300,1,0,0:0:0:0:
220,237,116400,2,0,L|295:330,1,120,2|8,0:0|0:0,0:0:0:0:
345,268,116700,1,0,0:0:0:0:
345,268,116800,2,0,L|457:310,1,120,2|10,0:0|0:0,0:0:0:0:
468,232,117100,1,2,0:0:0:0:
468,232,117200,5,2,0:0:0:0:
393,94,117400,1,8,0:0:0:0:
357,81,117500,1,0,0:0:0:0:
318,82,117600,1,0,0:0:0:0:
224,206,117800,1,8,0:0:0:0:
260,219,117900,1,0,0:0:0:0:
299,218,118000,1,0,0:0:0:0:
393,94,118200,1,8,0:0:0:0:
357,81,118300,1,0,0:0:0:0:
318,82,118400,6,0,P|282:125|274:145,1,60,6|0,0:0|0:0,0:0:0:0:
264,82,118600,2,0,P|255:110|254:140,1,60,10|0,0:0|0:0,0:0:0:0:
175,142,118800,2,0,P|182:171|196:197,1,60,2|0,0:0|0:0,0:0:0:0:
147,188,119001,2,0,P|167:209|193:225,1,60,10|0,0:0|0:0,0:0:0:0:
155,295,119200,2,0,P|183:303|213:304,1,60,2|0,0:0|0:0,0:0:0:0:
181,343,119400,2,0,P|210:335|236:321,1,60,10|0,0:0|0:0,0:0:0:0:
397,268,119600,6,0,L|279:251,1,120,2|8,0:0|0:0,0:0:0:0:
239,182,119900,1,0,0:0:0:0:
239,182,120000,2,0,P|236:130|247:106,1,60,2|0,0:0|0:0,0:0:0:0:
309,36,120200,2,0,P|315:65|310:95,1,60,10|0,0:0|0:0,0:0:0:0:
233,176,120400,2,0,P|230:124|241:100,1,60,2|0,0:0|0:0,0:0:0:0:
303,30,120600,2,0,P|308:59|303:88,1,60,10|0,0:0|0:0,0:0:0:0:
151,150,120800,6,0,P|91:150|32:139,1,120,2|8,0:0|0:0,0:0:0:0:
0,67,121100,1,0,0:0:0:0:
0,67,121200,2,0,P|8:22|17:5,1,60,0|0,0:0|0:0,0:0:0:0:
92,11,121400,2,0,P|151:10|210:21,1,120,10|0,0:0|0:0,0:0:0:0:
243,94,121700,1,0,0:0:0:0:
243,94,121800,2,0,P|235:139|226:156,1,60,8|0,0:0|0:0,0:0:0:0:
157,183,122000,6,0,L|159:318,1,120,2|8,0:0|0:0,0:0:0:0:
214,358,122300,1,0,0:0:0:0:
214,358,122400,1,0,0:0:0:0:
355,183,122600,2,0,L|353:318,1,120,10|0,0:0|0:0,0:0:0:0:
298,358,122900,1,0,0:0:0:0:
298,358,123000,1,8,0:0:0:0:
256,207,123200,6,0,L|256:87,1,120,6|8,0:0|0:0,0:0:0:0:
256,9,123500,1,0,0:0:0:0:
256,9,123600,1,0,0:0:0:0:
113,71,123800,2,0,P|97:107|91:143,1,60,10|0,0:0|0:0,0:0:0:0:
84,204,124000,2,0,P|88:243|100:277,1,60,2|0,0:0|0:0,0:0:0:0:
125,333,124200,2,0,P|148:364|176:388,1,60,10|0,0:0|0:0,0:0:0:0:
343,323,124400,6,0,P|283:315|226:331,1,120,6|8,0:0|0:0,0:0:0:0:
204,196,124699,1,0,0:0:0:0:
204,196,124800,2,0,P|226:251|268:293,1,120,6|8,0:0|0:0,0:0:0:0:
163,378,125100,1,0,0:0:0:0:
163,378,125200,2,0,P|200:331|215:273,1,120,6|8,0:0|0:0,0:0:0:0:
147,134,125500,1,0,0:0:0:0:
147,134,125600,5,6,0:0:0:0:
272,64,125800,1,8,0:0:0:0:
308,51,125900,1,0,0:0:0:0:
347,52,126000,1,0,0:0:0:0:
372,205,126200,1,8,0:0:0:0:
343,180,126300,1,0,0:0:0:0:
324,146,126400,1,0,0:0:0:0:
444,47,126600,1,8,0:0:0:0:
436,85,126700,1,0,0:0:0:0:
417,118,126800,6,0,P|359:130|341:129,1,60,2|0,0:0|0:0,0:0:0:0:
306,70,127000,2,0,P|248:58|230:59,1,60,8|0,0:0|0:0,0:0:0:0:
194,115,127200,1,0,0:0:0:0:
313,215,127400,1,8,0:0:0:0:
313,215,127500,1,0,0:0:0:0:
313,215,127600,2,0,P|312:265|306:293,1,60,0|0,0:0|0:0,0:0:0:0:
251,326,127800,5,8,0:0:0:0:
