osu file format v14

[General]
AudioFilename: sans..mp3
AudioLeadIn: 0
PreviewTime: 22434
Countdown: 0
SampleSet: Soft
StackLeniency: 0.7
Mode: 0
LetterboxInBreaks: 0
WidescreenStoryboard: 1

[Editor]
DistanceSpacing: 1.4
BeatDivisor: 4
GridSize: 4
TimelineZoom: 1

[Metadata]
Title:sans.
TitleUnicode:sans.
Artist:toby fox
ArtistUnicode:toby fox
Creator:samplefish
Version:normal
Source:Undertale
Tags:raiho
BeatmapID:850903
BeatmapSetID:390375

[Difficulty]
HPDrainRate:4
CircleSize:3.5
OverallDifficulty:3
ApproachRate:5
SliderMultiplier:1.2
SliderTickRate:2

[Events]
//Background and Video events
0,0,"SansArtwork.jpg",0,0
//Break Periods
//Storyboard Layer 0 (Background)
//Storyboard Layer 1 (Fail)
//Storyboard Layer 2 (Pass)
//Storyboard Layer 3 (Foreground)
//Storyboard Sound Samples

[TimingPoints]
52,468.75,4,2,1,80,1,0
2630,-100,4,2,2,80,0,0
3098,-100,4,2,1,80,0,0
6380,-100,4,2,2,80,0,0
6848,-100,4,2,1,80,0,0
10130,-100,4,2,2,80,0,0
10598,-100,4,2,1,80,0,0
17630,-100,4,2,2,80,0,0
18098,-100,4,2,1,80,0,0
25130,-100,4,2,2,80,0,0
25598,-100,4,2,1,80,0,0
28880,-100,4,2,2,80,0,0
29348,-100,4,2,1,80,0,0
32630,-100,4,2,2,80,0,0
33098,-100,4,2,1,80,0,0
40130,-100,4,2,2,80,0,0
40598,-100,4,2,1,80,0,0
45989,-100,4,2,1,45,0,0
46927,-100,4,2,1,30,0,0
47864,-100,4,2,1,15,0,0
48333,-100,4,2,1,5,0,0

[Colours]
Combo1 : 203,158,233
Combo2 : 114,187,226
Combo3 : 234,191,240
Combo4 : 176,215,247

[HitObjects]
120,108,52,5,2,0:0:0:0:
284,152,520,2,0,P|320:144|348:140,1,60,0|0,0:0|0:0,0:0:0:0:
428,128,989,2,0,P|420:184|416:264,1,120,2|0,0:0|0:0,0:0:0:0:
448,324,1692,1,0,0:0:0:0:
364,320,1927,6,0,L|284:324,1,60,2|0,0:0|0:0,0:0:0:0:
228,292,2395,1,0,0:0:0:0:
144,280,2630,2,0,B|115:227|115:227|120:160,1,120,0|0,0:0|0:0,0:0:0:0:
202,152,3333,2,0,L|196:222,1,60,0|0,0:0|0:0,0:0:0:0:
280,199,3802,6,0,L|290:61,1,120,2|0,0:0|0:0,0:0:0:0:
205,66,4505,1,0,0:0:0:0:
135,18,4739,1,2,0:0:0:0:
24,144,5208,2,0,L|35:221,1,60,0|0,0:0|0:0,0:0:0:0:
116,209,5677,6,0,L|105:286,1,60,2|0,0:0|0:0,0:0:0:0:
52,332,6145,1,0,0:0:0:0:
131,359,6380,2,0,L|274:347,1,120,0|0,0:0|0:0,0:0:0:0:
324,308,7083,2,0,L|399:323,1,60,0|0,0:0|0:0,0:0:0:0:
459,353,7552,5,2,0:0:0:0:
451,185,8020,2,0,P|452:148|458:108,2,60,0|0|2,0:0|0:0|0:0,0:0:0:0:
305,99,8958,1,0,0:0:0:0:
258,168,9192,1,0,0:0:0:0:
319,225,9427,6,0,P|318:262|312:302,1,60,2|0,0:0|0:0,0:0:0:0:
243,328,9895,1,0,0:0:0:0:
181,270,10130,2,0,B|149:264|93:280|93:280|87:263|101:244,1,120,0|0,0:0|0:0,0:0:0:0:
124,170,10833,1,0,0:0:0:0:
61,114,11067,1,0,0:0:0:0:
118,52,11302,5,2,0:0:0:0:
282,84,11770,2,0,L|275:163,1,60,0|0,0:0|0:0,0:0:0:0:
209,194,12239,2,0,P|278:182|340:180,1,120,2|0,0:0|0:0,0:0:0:0:
411,189,12942,1,0,0:0:0:0:
454,260,13177,6,0,L|459:331,1,60,2|0,0:0|0:0,0:0:0:0:
377,344,13645,2,0,L|372:273,1,60,0|0,0:0|0:0,0:0:0:0:
300,241,14114,2,0,P|273:242|216:251,1,60,2|0,0:0|0:0,0:0:0:0:
198,319,14583,2,0,P|168:317|138:312,1,60,0|0,0:0|0:0,0:0:0:0:
74,257,15052,5,2,0:0:0:0:
84,89,15520,2,0,P|63:67|29:39,2,60,0|0|2,0:0|0:0|0:0,0:0:0:0:
240,150,16458,2,0,P|262:129|290:95,1,60
328,36,16927,6,0,B|358:32|358:32|403:44,1,60,2|0,0:0|0:0,0:0:0:0:
463,73,17395,1,0,0:0:0:0:
436,153,17630,2,0,B|432:214|432:214|449:278,1,120,0|0,0:0|0:0,0:0:0:0:
502,334,18333,2,0,L|510:379,2,30,0|0|0,0:0|0:0|0:0,0:0:0:0:
420,353,18802,6,0,L|298:341,1,120,2|0,0:0|0:0,0:0:0:0:
220,366,19505,1,0,0:0:0:0:
151,318,19739,1,2,0:0:0:0:
253,184,20208,2,0,P|290:174|317:169,1,60,0|0,0:0|0:0,0:0:0:0:
394,180,20677,6,0,L|408:111,1,60,2|0,0:0|0:0,0:0:0:0:
479,161,21145,2,0,L|493:230,1,60,0|0,0:0|0:0,0:0:0:0:
512,303,21614,1,2,0:0:0:0:
438,343,21848,1,0,0:0:0:0:
363,303,22083,1,0,0:0:0:0:
290,260,22317,1,0,0:0:0:0:
232,321,22552,6,0,P|216:315|91:304,1,120,2|0,0:0|0:0,0:0:0:0:
35,328,23255,1,0,0:0:0:0:
30,244,23489,2,0,B|27:182|27:182|40:124,1,120,2|0,0:0|0:0,0:0:0:0:
105,72,24192,1,0,0:0:0:0:
177,114,24427,6,0,P|178:144|174:187,1,60,2|0,0:0|0:0,0:0:0:0:
137,248,24895,1,0,0:0:0:0:
221,245,25130,2,0,P|297:258|328:308,1,120,0|0,0:0|0:0,0:0:0:0:
400,319,25833,2,0,L|406:249,1,60,0|0,0:0|0:0,0:0:0:0:
473,210,26302,6,0,L|483:72,1,120,2|0,0:0|0:0,0:0:0:0:
424,28,27005,1,0,0:0:0:0:
346,60,27239,1,2,0:0:0:0:
376,225,27708,2,0,L|292:202,1,60
236,190,28177,6,0,P|234:220|251:263,1,60,2|0,0:0|0:0,0:0:0:0:
292,316,28645,1,0,0:0:0:0:
215,349,28880,2,0,L|72:337,1,120,0|0,0:0|0:0,0:0:0:0:
65,260,29583,2,0,L|144:266,1,60
208,269,30052,5,2,0:0:0:0:
364,326,30520,2,0,L|436:358,2,60,0|0|2,0:0|0:0|0:0,0:0:0:0:
419,166,31458,1,0,0:0:0:0:
350,118,31692,1,0,0:0:0:0:
332,35,31927,6,0,P|302:35|256:37,1,60,2|0,0:0|0:0,0:0:0:0:
188,25,32395,1,0,0:0:0:0:
168,106,32630,2,0,B|176:147|176:147|204:177|204:177|210:226,1,120,0|0,0:0|0:0,0:0:0:0:
124,218,33333,2,0,P|103:219|47:220,1,60,0|0,0:0|0:0,0:0:0:0:
18,290,33802,5,2,0:0:0:0:
171,358,34270,2,0,P|200:349|243:347,1,60,0|0,0:0|0:0,0:0:0:0:
311,365,34739,2,0,L|442:351,1,120,2|0,0:0|0:0,0:0:0:0:
494,297,35442,1,0,0:0:0:0:
510,214,35677,6,0,L|505:143,1,60,2|0,0:0|0:0,0:0:0:0:
422,163,36145,2,0,L|417:92,1,60,0|0,0:0|0:0,0:0:0:0:
345,60,36614,2,0,B|314:52|314:52|263:56,1,60,2|0,0:0|0:0,0:0:0:0:
234,121,37083,2,0,B|206:123|206:123|175:115,1,60,0|0,0:0|0:0,0:0:0:0:
109,62,37552,5,2,0:0:0:0:
36,213,38020,2,0,P|31:236|28:296,2,60,0|0|2,0:0|0:0|0:0,0:0:0:0:
189,281,38958,2,0,P|194:304|197:364,1,60,0|0,0:0|0:0,0:0:0:0:
274,305,39427,6,0,P|307:307|349:313,1,60,2|0,0:0|0:0,0:0:0:0:
407,347,39895,1,0,0:0:0:0:
445,272,40130,2,0,B|435:249|442:220|442:220|433:208|433:208|437:182|433:154,1,120,0|0,0:0|0:0,0:0:0:0:
398,80,40833,2,0,L|390:35,2,30,0|0|0,0:0|0:0|0:0,0:0:0:0:
328,127,41302,6,0,L|206:115,1,120,2|0,0:0|0:0,0:0:0:0:
164,43,42005,1,0,0:0:0:0:
87,76,42239,1,2,0:0:0:0:
40,237,42708,2,0,P|49:273|61:309,1,60,0|0,0:0|0:0,0:0:0:0:
133,328,43177,6,0,L|199:337,1,60,2|0,0:0|0:0,0:0:0:0:
235,263,43645,2,0,L|294:254,1,60
377,266,44114,1,2,0:0:0:0:
446,219,44348,1,0,0:0:0:0:
418,139,44583,1,0,0:0:0:0:
394,58,44817,1,0,0:0:0:0:
337,120,45052,5,2,0:0:0:0:
256,192,45169,12,0,48333,0:0:0:0:
