osu file format v14

[General]
AudioFilename: sans..mp3
AudioLeadIn: 0
PreviewTime: 22434
Countdown: 0
SampleSet: Soft
StackLeniency: 0.7
Mode: 0
LetterboxInBreaks: 0
WidescreenStoryboard: 1

[Editor]
DistanceSpacing: 1.6
BeatDivisor: 4
GridSize: 4
TimelineZoom: 1

[Metadata]
Title:sans.
TitleUnicode:sans.
Artist:toby fox
ArtistUnicode:toby fox
Creator:samplefish
Version:easy
Source:Undertale
Tags:raiho
BeatmapID:850902
BeatmapSetID:390375

[Difficulty]
HPDrainRate:3
CircleSize:3
OverallDifficulty:2
ApproachRate:3
SliderMultiplier:1
SliderTickRate:2

[Events]
//Background and Video events
0,0,"SansArtwork.jpg",0,0
//Break Periods
//Storyboard Layer 0 (Background)
//Storyboard Layer 1 (Fail)
//Storyboard Layer 2 (Pass)
//Storyboard Layer 3 (Foreground)
//Storyboard Sound Samples

[TimingPoints]
52,468.75,4,2,1,80,1,0
2630,-100,4,2,2,80,0,0
3098,-100,4,2,1,80,0,0
6380,-100,4,2,2,80,0,0
6848,-100,4,2,1,80,0,0
10130,-100,4,2,2,80,0,0
10598,-100,4,2,1,80,0,0
17630,-100,4,2,2,80,0,0
18098,-100,4,2,1,80,0,0
28880,-100,4,2,2,80,0,0
29348,-100,4,2,1,80,0,0
32630,-100,4,2,2,80,0,0
33098,-100,4,2,1,80,0,0
40130,-100,4,2,2,80,0,0
40598,-100,4,2,1,80,0,0
45989,-100,4,2,1,45,0,0
46927,-100,4,2,1,30,0,0
47864,-100,4,2,1,15,0,0
48333,-100,4,2,1,5,0,0

[Colours]
Combo1 : 203,158,233
Combo2 : 114,187,226
Combo3 : 234,191,240
Combo4 : 176,215,247

[HitObjects]
122,255,52,6,0,L|243:243,1,100,2|0,0:0|0:0,0:0:0:0:
298,267,755,2,0,P|305:227|315:189,1,50,0|2,0:0|0:0,0:0:0:0:
434,120,1458,2,0,P|427:80|417:42,1,50,0|0,0:0|0:0,0:0:0:0:
350,41,1927,6,0,P|323:35|237:27,1,100,2|0,0:0|0:0,0:0:0:0:
174,49,2630,1,0,0:0:0:0:
73,172,3098,2,0,L|40:92,2,50,0|0|0,0:0|0:0|0:0,0:0:0:0:
142,213,3802,6,0,P|201:204|273:200,1,100,2|0,0:0|0:0,0:0:0:0:
304,250,4505,2,0,P|333:251|389:242,1,50,0|2,0:0|0:0,0:0:0:0:
472,141,5208,2,0,L|476:90,1,50,0|0,0:0|0:0,0:0:0:0:
422,31,5677,6,0,L|295:38,1,100,2|0,0:0|0:0,0:0:0:0:
258,86,6380,2,0,L|131:93,1,100,0|0,0:0|0:0,0:0:0:0:
85,57,7083,1,0,0:0:0:0:
44,211,7552,6,0,P|50:248|68:327,1,100,2|0,0:0|0:0,0:0:0:0:
138,336,8255,2,0,P|162:340|187:342,1,50,0|2,0:0|0:0,0:0:0:0:
227,188,8958,2,0,P|262:182|304:183,1,50,0|0,0:0|0:0,0:0:0:0:
352,207,9427,6,0,P|348:256|346:306,1,100,2|0,0:0|0:0,0:0:0:0:
420,337,10130,1,0,0:0:0:0:
486,192,10598,2,0,L|514:119,2,50,0|0|0,0:0|0:0|0:0,0:0:0:0:
413,157,11302,6,0,L|403:52,2,100,2|0|2,0:0|0:0|0:0,0:0:0:0:
346,302,12708,2,0,P|323:296|257:286,1,50,0|0,0:0|0:0,0:0:0:0:
227,330,13177,6,0,B|177:317|177:317|184:258|150:201,1,150,2|0,0:0|0:0,0:0:0:0:
94,176,14114,2,0,P|123:137|166:96,1,100,2|0,0:0|0:0,0:0:0:0:
272,214,15052,5,2,0:0:0:0:
433,212,15520,2,0,P|457:172|437:95,1,100,0|2,0:0|0:0,0:0:0:0:
309,49,16458,2,0,P|285:43|214:38,1,50,0|0,0:0|0:0,0:0:0:0:
194,86,16927,6,0,P|164:84|65:109,1,100,2|0,0:0|0:0,0:0:0:0:
95,175,17630,2,0,P|96:201|95:301,1,100,0|0,0:0|0:0,0:0:0:0:
57,345,18333,2,0,P|22:333|-23:325,2,50,0|0|2,0:0|0:0|0:0,0:0:0:0:
217,342,19270,6,0,P|223:294|237:219,1,100,0|2,0:0|0:0,0:0:0:0:
383,190,20208,2,0,P|390:221|393:262,1,50,0|0,0:0|0:0,0:0:0:0:
388,319,20677,6,0,L|517:303,1,100,2|0,0:0|0:0,0:0:0:0:
504,147,21614,2,0,L|405:159,1,100,2|0,0:0|0:0,0:0:0:0:
276,256,22552,6,0,P|249:244|155:244,1,100,2|0,0:0|0:0,0:0:0:0:
100,240,23255,2,0,P|100:208|104:180,1,50,0|2,0:0|0:0,0:0:0:0:
251,132,23958,2,0,P|251:100|247:72,1,50
180,40,24427,6,0,P|207:34|296:23,2,100,2|0|2,0:0|0:0|0:0,0:0:0:0:
48,131,25833,1,0,0:0:0:0:
125,271,26302,6,0,P|184:262|256:258,1,100,2|0,0:0|0:0,0:0:0:0:
299,285,27005,2,0,P|328:286|384:277,1,50,0|2,0:0|0:0,0:0:0:0:
484,199,27708,2,0,L|488:148,1,50,0|0,0:0|0:0,0:0:0:0:
412,121,28177,6,0,L|403:243,1,100,2|0,0:0|0:0,0:0:0:0:
326,203,28880,2,0,L|335:81,1,100,0|0,0:0|0:0,0:0:0:0:
258,75,29583,2,0,L|264:5,2,50,0|0|2,0:0|0:0|0:0,0:0:0:0:
99,106,30520,6,0,P|108:162|111:224,1,100,0|2,0:0|0:0,0:0:0:0:
196,340,31458,2,0,P|231:334|273:335,1,50,0|0,0:0|0:0,0:0:0:0:
323,353,31927,2,0,P|324:303|329:253,1,100,2|0,0:0|0:0,0:0:0:0:
407,234,32630,1,0,0:0:0:0:
371,78,33098,2,0,P|367:49|371:6,2,50,0|0|0,0:0|0:0|0:0,0:0:0:0:
292,98,33802,6,0,L|181:73,2,100,2|0|2,0:0|0:0|0:0,0:0:0:0:
443,148,35208,2,0,P|442:181|437:241,1,50
414,273,35677,6,0,P|377:264|252:250,1,150,2|0,0:0|0:0,0:0:0:0:
212,309,36614,2,0,P|184:302|99:294,1,100,2|0,0:0|0:0,0:0:0:0:
18,164,37552,5,2,0:0:0:0:
175,136,38020,2,0,P|198:155|251:211,1,100,0|2,0:0|0:0,0:0:0:0:
398,156,38958,2,0,P|388:126|385:102,1,50,0|0,0:0|0:0,0:0:0:0:
375,28,39427,6,0,P|329:32|246:51,1,100,2|0,0:0|0:0,0:0:0:0:
235,111,40130,2,0,P|185:101|136:96,1,100,0|0,0:0|0:0,0:0:0:0:
64,133,40833,1,0,0:0:0:0:
136,275,41302,6,0,B|167:293|167:293|206:284|256:283,1,100,2|0,0:0|0:0,0:0:0:0:
303,318,42005,2,0,L|368:327,1,50,0|2,0:0|0:0,0:0:0:0:
463,209,42708,2,0,P|461:165|455:137,1,50
402,103,43177,6,0,P|358:135|316:178,1,100,2|0,0:0|0:0,0:0:0:0:
183,240,44114,2,0,P|134:226|85:219,1,100,2|0,0:0|0:0,0:0:0:0:
217,127,45052,5,2,0:0:0:0:
256,192,45169,12,0,48333,0:0:0:0:
