osu file format v14

[General]
AudioFilename: audio.mp3
AudioLeadIn: 0
PreviewTime: 19687
Countdown: 0
SampleSet: Soft
StackLeniency: 0.7
Mode: 0
LetterboxInBreaks: 0
WidescreenStoryboard: 0

[Editor]
DistanceSpacing: 1
BeatDivisor: 1
GridSize: 4
TimelineZoom: 1

[Metadata]
Title:sans.
TitleUnicode:sans.
Artist:toby fox
ArtistUnicode:toby fox
Creator:Meouxe-
Version:Easy
Source:Undertale
Tags:sans the skeleton frisk character
BeatmapID:1434264
BeatmapSetID:668918

[Difficulty]
HPDrainRate:2
CircleSize:3
OverallDifficulty:2
ApproachRate:3
SliderMultiplier:1.2
SliderTickRate:1

[Events]
//Background and Video events
0,0,"BG.jpg",0,0
//Break Periods
//Storyboard Layer 0 (Background)
//Storyboard Layer 1 (Fail)
//Storyboard Layer 2 (Pass)
//Storyboard Layer 3 (Foreground)
//Storyboard Sound Samples

[TimingPoints]
0,468.75,4,2,1,10,1,0
0,-142.857142857143,4,2,1,40,0,0
45000,-142.857142857143,4,2,1,35,0,0
45937,-142.857142857143,4,2,1,25,0,0
46875,-142.857142857143,4,2,1,15,0,0
47812,-142.857142857143,4,2,1,5,0,0

[HitObjects]
38,317,0,6,0,L|127:297,1,83.9999974365235
193,339,937,2,0,P|205:295|187:246,1,83.9999974365235
238,186,1875,2,0,P|194:174|145:192,1,83.9999974365235
113,255,2812,1,0,0:0:0:0:
72,181,3281,1,0,0:0:0:0:
101,97,3750,6,0,L|198:96,1,83.9999974365235
261,59,4687,2,0,P|270:99|258:139,1,83.9999974365235
183,176,5625,2,0,P|173:135|185:95,1,83.9999974365235
261,59,6562,1,0,0:0:0:0:
345,58,7031,1,0,0:0:0:0:
420,94,7500,6,0,L|421:184,1,83.9999974365235
357,233,8437,2,0,P|392:260|450:258,1,83.9999974365235
480,332,9375,2,0,P|440:348|384:340,1,83.9999974365235
324,308,10312,1,0,0:0:0:0:
244,328,10781,1,0,0:0:0:0:
160,344,11250,6,0,P|160:312|184:264,1,83.9999974365235
256,224,12187,2,0,P|224:190|174:178,1,83.9999974365235
108,152,13125,2,0,P|132:114|179:93,1,83.9999974365235
248,116,14062,1,0,0:0:0:0:
232,32,14531,1,0,0:0:0:0:
148,12,15000,6,0,L|56:43,1,83.9999974365235
32,114,15937,2,0,L|118:157,1,83.9999974365235
188,132,16875,2,0,P|188:176|168:212,1,83.9999974365235
100,260,17812,1,0,0:0:0:0:
132,340,18281,1,0,0:0:0:0:
212,324,18750,6,0,L|307:311,1,83.9999974365235
368,268,19687,2,0,P|380:307|367:354,1,83.9999974365235
295,312,20625,2,0,P|282:272|295:225,1,83.9999974365235
368,268,21562,1,0,0:0:0:0:
452,256,22031,1,0,0:0:0:0:
468,172,22500,6,0,P|472:128|464:84,1,83.9999974365235
388,60,23437,2,0,L|291:60,1,83.9999974365235
220,60,24375,2,0,P|230:104|279:142,1,83.9999974365235
340,144,25312,1,0,0:0:0:0:
288,212,25781,1,0,0:0:0:0:
228,272,26250,6,0,L|162:199,1,83.9999974365235
104,260,27187,2,0,P|88:211|105:160,1,83.9999974365235
128,104,28125,2,0,L|232:103,1,83.9999974365235
296,104,29062,1,0,0:0:0:0:
356,44,29531,1,0,0:0:0:0:
440,28,30000,6,0,L|440:124,1,83.9999974365235
364,148,30937,2,0,P|392:184|456:192,1,83.9999974365235
504,232,31875,2,0,P|476:268|412:276,1,83.9999974365235
360,260,32812,1,0,0:0:0:0:
280,232,33281,1,0,0:0:0:0:
200,260,33750,6,0,P|196:228|216:172,1,83.9999974365235
280,232,34687,2,0,P|284:264|264:320,1,83.9999974365235
192,344,35625,2,0,L|96:344,1,83.9999974365235
24,344,36562,1,0,0:0:0:0:
64,272,37031,1,0,0:0:0:0:
116,204,37500,6,0,P|95:167|96:120,1,83.9999974365235
176,140,38437,2,0,L|265:140,1,83.9999974365235
341,122,39375,2,0,P|340:163|320:200,1,83.9999974365235
240,224,40312,1,0,0:0:0:0:
300,284,40781,1,0,0:0:0:0:
232,336,41250,6,0,L|144:336,1,83.9999974365235
64,332,42187,2,0,P|80:284|136:256,1,83.9999974365235
188,267,43125,2,0,P|172:315|116:343,1,83.9999974365235
104,263,44062,1,0,0:0:0:0:
144,188,44531,1,0,0:0:0:0:
196,120,45000,6,0,L|300:120,1,83.9999974365235
312,44,45937,6,0,P|348:72|360:132,1,83.9999974365235
440,80,46875,6,0,P|445:125|411:176,1,83.9999974365235
508,196,47812,6,0,P|480:231|420:244,1,83.9999974365235
