osu file format v14

[General]
AudioFilename: audio.mp3
AudioLeadIn: 0
PreviewTime: 22447
Countdown: 0
SampleSet: Drum
StackLeniency: 0.7
Mode: 3
LetterboxInBreaks: 0
SpecialStyle: 0
WidescreenStoryboard: 1

[Editor]
Bookmarks: 7506,15006,22506,30006,37506,45006
DistanceSpacing: 1.8
BeatDivisor: 8
GridSize: 32
TimelineZoom: 2.1

[Metadata]
Title:sans.
TitleUnicode:sans.
Artist:toby fox
ArtistUnicode:toby fox
Creator:Leniane
Version:hard
Source:UNDERTALE
Tags:Mimilie Suzuhara Lulu Soundtrack OST Grillby's Grillbys Snowdin Pub Sans the Skeleton Theme Instrumental Video Game
BeatmapID:2396023
BeatmapSetID:1147471

[Difficulty]
HPDrainRate:8
CircleSize:4
OverallDifficulty:8
ApproachRate:10
SliderMultiplier:1.4
SliderTickRate:1

[Events]
//Background and Video events
0,0,"SANS.jpg",0,0
//Break Periods
//Storyboard Layer 0 (Background)
//Storyboard Layer 1 (Fail)
//Storyboard Layer 2 (Pass)
//Storyboard Layer 3 (Foreground)
//Storyboard Layer 4 (Overlay)
//Storyboard Sound Samples

[TimingPoints]
6,468.75,4,3,1,40,1,0

[HitObjects]
64,192,6,5,4,0:0:0:0:
448,192,6,1,8,0:0:0:0:
320,192,474,128,2,591:0:0:0:0:
192,192,709,128,2,826:0:0:0:0:
320,192,943,128,8,1060:0:0:0:0:
448,192,943,1,0,0:0:0:0:
64,192,1412,128,2,1646:0:0:0:0:
320,192,1646,128,0,1763:0:0:0:0:
64,192,1881,1,8,0:0:0:0:
320,192,1881,128,0,1998:0:0:0:0:
448,192,2115,128,0,2232:0:0:0:0:
320,192,2349,128,2,2466:0:0:0:0:
64,192,2584,128,0,2701:0:0:0:0:
192,192,2818,1,8,0:0:0:0:
448,192,2818,1,0,0:0:0:0:
320,192,3052,128,0,3170:0:0:0:0:
64,192,3287,128,2,3404:0:0:0:0:
320,192,3521,128,0,3638:0:0:0:0:
64,192,3756,1,4,0:0:0:0:
448,192,3756,1,8,0:0:0:0:
448,192,4224,128,2,4341:0:0:0:0:
192,192,4459,128,2,4576:0:0:0:0:
320,192,4693,1,8,0:0:0:0:
448,192,4693,128,0,4810:0:0:0:0:
64,192,5162,128,2,5396:0:0:0:0:
192,192,5396,128,0,5513:0:0:0:0:
64,192,5631,1,8,0:0:0:0:
320,192,5631,128,0,5748:0:0:0:0:
448,192,5865,128,0,5982:0:0:0:0:
320,192,6099,128,2,6216:0:0:0:0:
64,192,6334,128,0,6802:0:0:0:0:
320,192,6568,1,8,0:0:0:0:
448,192,6568,1,0,0:0:0:0:
320,192,6802,128,0,6920:0:0:0:0:
192,192,7037,128,2,7506:0:0:0:0:
64,192,7506,1,4,0:0:0:0:
448,192,7506,1,8,0:0:0:0:
320,192,7974,128,2,8091:0:0:0:0:
192,192,8209,128,2,8326:0:0:0:0:
64,192,8443,1,8,0:0:0:0:
320,192,8443,128,0,8560:0:0:0:0:
64,192,8912,128,2,9146:0:0:0:0:
320,192,9146,128,0,9263:0:0:0:0:
192,192,9381,1,8,0:0:0:0:
320,192,9381,128,0,9498:0:0:0:0:
448,192,9615,128,0,9732:0:0:0:0:
320,192,9849,128,2,9966:0:0:0:0:
64,192,10084,128,0,10201:0:0:0:0:
192,192,10318,1,8,0:0:0:0:
448,192,10318,1,0,0:0:0:0:
320,192,10552,128,0,10670:0:0:0:0:
64,192,10787,128,2,10904:0:0:0:0:
320,192,11021,128,0,11138:0:0:0:0:
64,192,11256,1,4,0:0:0:0:
192,192,11256,1,8,0:0:0:0:
448,192,11724,128,2,11841:0:0:0:0:
192,192,11959,128,2,12076:0:0:0:0:
64,192,12193,1,8,0:0:0:0:
448,192,12193,128,0,12310:0:0:0:0:
64,192,12662,128,2,12896:0:0:0:0:
192,192,12896,128,0,13013:0:0:0:0:
64,192,13131,1,8,0:0:0:0:
320,192,13131,128,0,13248:0:0:0:0:
448,192,13365,128,0,13482:0:0:0:0:
320,192,13599,128,2,13716:0:0:0:0:
192,192,13834,128,0,13951:0:0:0:0:
64,192,14068,128,8,14185:0:0:0:0:
448,192,14068,1,0,0:0:0:0:
320,192,14302,128,0,14420:0:0:0:0:
64,192,14537,128,2,14654:0:0:0:0:
192,192,14771,128,0,14888:0:0:0:0:
320,192,15006,1,8,0:0:0:0:
448,192,15006,1,4,0:0:0:0:
448,192,15474,128,2,15591:0:0:0:0:
320,192,15709,128,2,15826:0:0:0:0:
192,192,15943,1,8,0:0:0:0:
448,192,15943,128,0,16060:0:0:0:0:
64,192,16412,128,2,16646:0:0:0:0:
320,192,16646,128,0,16763:0:0:0:0:
64,192,16881,1,8,0:0:0:0:
320,192,16881,128,0,16998:0:0:0:0:
448,192,17115,128,0,17232:0:0:0:0:
192,192,17349,128,2,17466:0:0:0:0:
64,192,17584,128,0,17818:0:0:0:0:
192,192,17818,1,8,0:0:0:0:
448,192,17818,1,0,0:0:0:0:
320,192,18052,128,0,18170:0:0:0:0:
192,192,18287,1,2,0:0:0:0:
64,192,18404,1,0,0:0:0:0:
448,192,18521,128,0,18638:0:0:0:0:
64,192,18756,1,4,0:0:0:0:
192,192,18756,1,8,0:0:0:0:
192,192,19224,128,2,19341:0:0:0:0:
64,192,19459,128,2,19576:0:0:0:0:
192,192,19693,128,8,19810:0:0:0:0:
448,192,19693,1,0,0:0:0:0:
320,192,20162,128,2,20396:0:0:0:0:
64,192,20396,128,0,20513:0:0:0:0:
192,192,20631,128,8,20748:0:0:0:0:
320,192,20631,1,0,0:0:0:0:
448,192,20865,128,0,20982:0:0:0:0:
320,192,21099,128,2,21334:0:0:0:0:
192,192,21334,128,0,21451:0:0:0:0:
64,192,21568,128,8,21685:0:0:0:0:
448,192,21568,1,0,0:0:0:0:
320,192,21802,128,0,21920:0:0:0:0:
320,192,22037,128,2,22154:0:0:0:0:
320,192,22271,128,0,22388:0:0:0:0:
64,192,22506,1,8,0:0:0:0:
192,192,22506,1,4,0:0:0:0:
320,192,22974,128,2,23091:0:0:0:0:
192,192,23209,128,2,23326:0:0:0:0:
64,192,23443,1,8,0:0:0:0:
320,192,23443,128,0,23560:0:0:0:0:
64,192,23912,128,2,24146:0:0:0:0:
320,192,24146,128,0,24263:0:0:0:0:
64,192,24381,1,8,0:0:0:0:
320,192,24381,128,0,24498:0:0:0:0:
448,192,24615,128,0,24732:0:0:0:0:
320,192,24849,128,2,24966:0:0:0:0:
64,192,25084,128,0,25201:0:0:0:0:
192,192,25318,1,8,0:0:0:0:
448,192,25318,1,0,0:0:0:0:
320,192,25552,128,0,25670:0:0:0:0:
64,192,25787,128,2,25904:0:0:0:0:
320,192,26021,128,0,26138:0:0:0:0:
64,192,26256,1,8,0:0:0:0:
192,192,26256,1,4,0:0:0:0:
448,192,26724,128,2,26841:0:0:0:0:
192,192,26959,128,2,27076:0:0:0:0:
64,192,27193,1,8,0:0:0:0:
448,192,27193,128,0,27310:0:0:0:0:
64,192,27662,128,2,27896:0:0:0:0:
192,192,27896,128,0,28013:0:0:0:0:
320,192,28131,128,8,28248:0:0:0:0:
448,192,28131,1,0,0:0:0:0:
448,192,28365,128,0,28482:0:0:0:0:
320,192,28599,128,2,28716:0:0:0:0:
64,192,28834,128,0,29302:0:0:0:0:
192,192,29068,1,8,0:0:0:0:
448,192,29068,1,0,0:0:0:0:
320,192,29302,128,0,29420:0:0:0:0:
192,192,29537,128,2,30006:0:0:0:0:
64,192,30006,1,8,0:0:0:0:
320,192,30006,1,4,0:0:0:0:
320,192,30474,128,2,30591:0:0:0:0:
192,192,30709,128,2,30826:0:0:0:0:
320,192,30943,128,8,31060:0:0:0:0:
448,192,30943,1,0,0:0:0:0:
64,192,31412,128,2,31646:0:0:0:0:
320,192,31646,128,0,31763:0:0:0:0:
192,192,31881,1,8,0:0:0:0:
320,192,31881,128,0,31998:0:0:0:0:
448,192,32115,128,0,32232:0:0:0:0:
320,192,32349,128,2,32466:0:0:0:0:
64,192,32584,128,0,32701:0:0:0:0:
192,192,32818,1,8,0:0:0:0:
448,192,32818,1,0,0:0:0:0:
320,192,33052,128,0,33170:0:0:0:0:
64,192,33287,128,2,33404:0:0:0:0:
320,192,33521,128,0,33638:0:0:0:0:
64,192,33756,1,8,0:0:0:0:
192,192,33756,1,4,0:0:0:0:
448,192,34224,128,2,34341:0:0:0:0:
192,192,34459,128,2,34576:0:0:0:0:
64,192,34693,1,8,0:0:0:0:
448,192,34693,128,0,34810:0:0:0:0:
64,192,35162,128,2,35396:0:0:0:0:
192,192,35396,128,0,35513:0:0:0:0:
64,192,35631,1,8,0:0:0:0:
320,192,35631,128,0,35748:0:0:0:0:
448,192,35865,128,0,35982:0:0:0:0:
320,192,36099,128,2,36216:0:0:0:0:
192,192,36334,128,0,36451:0:0:0:0:
64,192,36568,128,8,36685:0:0:0:0:
448,192,36568,1,0,0:0:0:0:
320,192,36802,128,0,36920:0:0:0:0:
64,192,37037,128,2,37154:0:0:0:0:
192,192,37271,128,0,37388:0:0:0:0:
320,192,37506,1,4,0:0:0:0:
448,192,37506,1,8,0:0:0:0:
448,192,37974,128,2,38091:0:0:0:0:
320,192,38209,128,2,38326:0:0:0:0:
192,192,38443,1,8,0:0:0:0:
448,192,38443,128,0,38560:0:0:0:0:
64,192,38912,128,2,39146:0:0:0:0:
320,192,39146,128,0,39263:0:0:0:0:
192,192,39381,1,8,0:0:0:0:
320,192,39381,128,0,39498:0:0:0:0:
448,192,39615,128,0,39732:0:0:0:0:
192,192,39849,128,2,39966:0:0:0:0:
64,192,40084,128,0,40318:0:0:0:0:
192,192,40318,1,8,0:0:0:0:
448,192,40318,1,0,0:0:0:0:
320,192,40552,128,0,40670:0:0:0:0:
192,192,40787,1,2,0:0:0:0:
64,192,40904,1,0,0:0:0:0:
448,192,41021,128,0,41138:0:0:0:0:
64,192,41256,1,8,0:0:0:0:
320,192,41256,1,4,0:0:0:0:
192,192,41724,128,2,41841:0:0:0:0:
64,192,41959,128,2,42076:0:0:0:0:
192,192,42193,128,8,42310:0:0:0:0:
448,192,42193,1,0,0:0:0:0:
320,192,42662,128,2,42896:0:0:0:0:
64,192,42896,128,0,43013:0:0:0:0:
192,192,43131,128,8,43248:0:0:0:0:
320,192,43131,1,0,0:0:0:0:
448,192,43365,128,0,43482:0:0:0:0:
320,192,43599,128,2,43834:0:0:0:0:
192,192,43834,128,0,43951:0:0:0:0:
64,192,44068,128,8,44185:0:0:0:0:
448,192,44068,1,0,0:0:0:0:
320,192,44302,128,0,44420:0:0:0:0:
320,192,44537,128,2,44654:0:0:0:0:
320,192,44771,128,0,44888:0:0:0:0:
192,192,45006,1,8,0:0:0:0:
448,192,45006,1,0,0:0:0:0:
64,192,45474,1,2,0:0:0:0:
192,192,45709,1,2,0:0:0:0:
320,192,45943,1,8,0:0:0:0:
448,192,45943,1,0,0:0:0:0:
192,192,46412,1,2,0:0:0:0:
64,192,46881,1,8,0:0:0:0:
448,192,46881,1,0,0:0:0:0:
192,192,47349,1,2,0:0:0:0:
320,192,47818,1,8,0:0:0:0:
448,192,47818,1,0,0:0:0:0:
192,192,48287,1,2,0:0:0:0:
