osu file format v14

[General]
AudioFilename: audio.mp3
AudioLeadIn: 0
PreviewTime: 22500
Countdown: 0
SampleSet: Soft
StackLeniency: 0.7
Mode: 2
LetterboxInBreaks: 0
WidescreenStoryboard: 0

[Editor]
DistanceSpacing: 1.2
BeatDivisor: 4
GridSize: 8
TimelineZoom: 3.699999

[Metadata]
Title:sans.
TitleUnicode:sans.
Artist:toby fox
ArtistUnicode:toby fox
Creator:Error-
Version:MBomb's Platter
Source:UNDERTALE
Tags:OST megalovania sans the skeleton magic bomb mbomb radiation
BeatmapID:1287353
BeatmapSetID:584575

[Difficulty]
HPDrainRate:5
CircleSize:3.5
OverallDifficulty:7.4
ApproachRate:7.4
SliderMultiplier:2
SliderTickRate:2

[Events]
//Background and Video events
0,0,"bg.png",0,0
//Break Periods
//Storyboard Layer 0 (Background)
//Storyboard Layer 1 (Fail)
//Storyboard Layer 2 (Pass)
//Storyboard Layer 3 (Foreground)
//Storyboard Sound Samples

[TimingPoints]
0,468.75,4,2,1,65,1,0
45000,-100,4,2,1,25,0,0

[Colours]
Combo1 : 18,124,255
Combo2 : 255,255,255

[HitObjects]
16,192,0,5,8,0:0:0:0:
352,192,468,2,0,L|216:192,1,100,2|0,0:0|0:0,0:0:0:0:
464,192,937,1,2,0:0:0:0:
240,192,1406,2,0,L|120:192,1,100
272,192,1875,5,2,0:0:0:0:
72,192,2109,2,0,L|192:192,1,100
304,192,2578,1,2,0:0:0:0:
192,192,2812,1,0,0:0:0:0:
320,192,3046,2,0,L|424:192,2,100,2|0|2,0:0|0:0|0:0,0:0:0:0:
16,192,3750,5,8,0:0:0:0:
280,192,4218,2,0,L|384:192,1,100,2|0,0:0|0:0,0:0:0:0:
176,192,4687,1,2,0:0:0:0:
400,192,5156,2,0,L|264:192,1,100
168,192,5625,5,2,0:0:0:0:
288,192,5859,1,0,0:0:0:0:
88,192,6093,1,0,0:0:0:0:
392,192,6328,2,0,L|496:192,2,100,2|0|0,0:0|0:0|0:0,0:0:0:0:
184,192,7031,2,0,L|64:192,1,100,2|0,0:0|0:0,0:0:0:0:
392,192,7500,5,8,0:0:0:0:
128,192,7968,2,0,L|256:192,1,100,2|0,0:0|0:0,0:0:0:0:
440,192,8437,1,2,0:0:0:0:
228,192,8906,2,0,L|92:192,1,100
336,192,9375,5,2,0:0:0:0:
128,192,9609,2,0,L|240:192,1,100
336,192,10078,2,0,B|384:192|384:192|336:160,1,100,2|0,0:0|0:0,0:0:0:0:
128,192,10546,2,0,L|24:192,2,100,2|0|2,0:0|0:0|0:0,0:0:0:0:
432,192,11250,5,8,0:0:0:0:
160,192,11718,2,0,L|40:192,1,100,2|0,0:0|0:0,0:0:0:0:
280,192,12187,1,2,0:0:0:0:
480,192,12656,2,0,L|336:192,1,100
176,192,13125,5,2,0:0:0:0:
480,192,13359,2,0,P|432:136|400:128,2,100,2|0|2,0:0|0:0|0:0,0:0:0:0:
272,192,14062,2,0,L|144:192,1,100,2|0,0:0|0:0,0:0:0:0:
304,192,14531,2,0,L|432:192,1,100,2|0,0:0|0:0,0:0:0:0:
96,192,15000,5,8,0:0:0:0:
404,192,15468,2,0,L|268:192,1,100,2|0,0:0|0:0,0:0:0:0:
76,192,15937,1,2,0:0:0:0:
296,192,16406,2,0,L|152:192,1,100
392,192,16875,5,2,0:0:0:0:
88,192,17109,2,0,P|32:176|16:128,1,100,2|0,0:0|0:0,0:0:0:0:
208,192,17578,2,0,L|80:152,2,100,2|0|0,0:0|0:0|0:0,0:0:0:0:
336,192,18281,2,0,L|408:192,2,50,2|0|2,0:0|0:0|0:0,0:0:0:0:
24,192,18750,5,8,0:0:0:0:
224,192,19218,2,0,L|104:192,1,100,2|0,0:0|0:0,0:0:0:0:
336,192,19687,1,2,0:0:0:0:
136,192,20156,2,0,L|264:192,1,100
432,192,20625,5,2,0:0:0:0:
136,192,20859,2,0,L|16:192,2,100,2|2|0,0:0|0:0|0:0,0:0:0:0:
344,192,21562,1,2,0:0:0:0:
136,192,21796,1,0,0:0:0:0:
228,192,22031,1,2,0:0:0:0:
20,192,22265,1,0,0:0:0:0:
336,192,22500,5,12,0:0:0:0:
64,192,22968,2,0,P|16:160|32:128,1,100,2|0,0:0|0:0,0:0:0:0:
232,192,23437,1,2,0:0:0:0:
432,192,23906,2,0,P|496:152|480:120,1,100
360,192,24375,5,2,0:0:0:0:
160,192,24609,2,0,L|56:192,1,100
168,192,25078,1,2,0:0:0:0:
280,192,25312,1,0,0:0:0:0:
152,192,25546,2,0,L|48:192,2,100,2|0|2,0:0|0:0|0:0,0:0:0:0:
456,192,26250,5,8,0:0:0:0:
176,192,26718,2,0,L|288:192,1,100,2|0,0:0|0:0,0:0:0:0:
488,192,27187,1,2,0:0:0:0:
272,192,27656,2,0,L|168:192,1,100
80,192,28125,5,2,0:0:0:0:
208,192,28359,1,0,0:0:0:0:
16,192,28593,1,0,0:0:0:0:
312,192,28828,2,0,L|432:192,2,100,2|0|0,0:0|0:0|0:0,0:0:0:0:
504,192,29531,2,0,P|480:152|408:144,1,100,2|0,0:0|0:0,0:0:0:0:
112,192,30000,5,8,0:0:0:0:
384,192,30468,2,0,L|272:192,1,100,2|0,0:0|0:0,0:0:0:0:
488,192,30937,1,2,0:0:0:0:
256,192,31406,2,0,L|368:192,1,100
152,192,31875,5,2,0:0:0:0:
356,192,32109,2,0,L|460:192,1,100
336,192,32578,2,0,L|448:192,1,100,2|0,0:0|0:0,0:0:0:0:
232,192,33046,2,0,L|128:192,1,100,2|0,0:0|0:0,0:0:0:0:
40,192,33515,1,2,0:0:0:0:
352,192,33750,5,8,0:0:0:0:
80,192,34218,2,0,L|208:192,1,100,2|0,0:0|0:0,0:0:0:0:
392,192,34687,1,2,0:0:0:0:
180,192,35156,2,0,L|292:192,1,100
88,192,35625,5,2,0:0:0:0:
384,192,35859,2,0,L|496:192,2,100,2|0|2,0:0|0:0|0:0,0:0:0:0:
176,192,36562,2,0,L|288:192,1,100,2|0,0:0|0:0,0:0:0:0:
408,192,37031,2,0,L|296:192,1,100,2|0,0:0|0:0,0:0:0:0:
8,192,37500,5,8,0:0:0:0:
304,192,37968,2,0,L|424:192,1,100,2|0,0:0|0:0,0:0:0:0:
192,192,38437,1,2,0:0:0:0:
376,192,38906,2,0,L|248:192,1,100
472,192,39375,5,2,0:0:0:0:
168,192,39609,2,0,L|40:192,1,100,2|0,0:0|0:0,0:0:0:0:
272,192,40078,2,0,L|384:192,2,100,2|0|0,0:0|0:0|0:0,0:0:0:0:
160,192,40781,2,0,L|96:192,2,50,2|0|0,0:0|0:0|0:0,0:0:0:0:
464,192,41250,5,8,0:0:0:0:
192,192,41718,2,0,L|320:192,1,100,2|0,0:0|0:0,0:0:0:0:
88,192,42187,1,2,0:0:0:0:
292,192,42656,2,0,L|420:192,1,100
192,192,43125,5,2,0:0:0:0:
496,192,43359,2,0,P|480:144|416:120,2,100,2|2|0,0:0|0:0|0:0,0:0:0:0:
288,192,44062,1,2,0:0:0:0:
496,192,44296,1,0,0:0:0:0:
376,192,44531,1,2,0:0:0:0:
168,192,44765,1,0,0:0:0:0:
480,192,45000,5,4,0:0:0:0:
280,192,45468,2,0,L|280:88,1,100
416,192,45937,1,2,0:0:0:0:
216,192,46406,2,0,L|216:88,1,100
352,192,46875,5,2,0:0:0:0:
152,192,47343,1,0,0:0:0:0:
384,192,47812,1,2,0:0:0:0:
184,192,48280,1,0,0:0:0:0:
