osu file format v14

[General]
AudioFilename: audio.mp3
AudioLeadIn: 0
PreviewTime: 22500
Countdown: 0
SampleSet: Soft
StackLeniency: 0.7
Mode: 0
LetterboxInBreaks: 0
WidescreenStoryboard: 0

[Editor]
Bookmarks: 7500,15000,22500,30000,37500
DistanceSpacing: 1.5
BeatDivisor: 4
GridSize: 4
TimelineZoom: 1

[Metadata]
Title:sans.
TitleUnicode:sans.
Artist:toby fox
ArtistUnicode:toby fox
Creator:Error-
Version:Advanced
Source:UNDERTALE
Tags:OST megalovania sans the skeleton magic bomb mbomb radiation
BeatmapID:1242071
BeatmapSetID:584575

[Difficulty]
HPDrainRate:4
CircleSize:3.5
OverallDifficulty:5
ApproachRate:6
SliderMultiplier:1.2
SliderTickRate:2

[Events]
//Background and Video events
0,0,"bg.png",0,0
//Break Periods
//Storyboard Layer 0 (Background)
//Storyboard Layer 1 (Fail)
//Storyboard Layer 2 (Pass)
//Storyboard Layer 3 (Foreground)
//Storyboard Sound Samples

[TimingPoints]
0,468.75,4,2,1,65,1,0
2695,-100,4,2,2,65,0,0
2929,-100,4,2,1,65,0,0
6445,-100,4,2,2,65,0,0
6679,-100,4,2,1,65,0,0
10195,-100,4,2,2,65,0,0
10429,-100,4,2,1,65,0,0
17695,-100,4,2,2,65,0,0
17929,-100,4,2,1,65,0,0
25195,-100,4,2,2,65,0,0
25429,-100,4,2,1,65,0,0
28945,-100,4,2,2,65,0,0
29179,-100,4,2,1,65,0,0
32695,-100,4,2,2,65,0,0
32929,-100,4,2,1,65,0,0
40195,-100,4,2,2,65,0,0
40429,-100,4,2,1,65,0,0
45000,-100,4,2,1,25,0,0

[Colours]
Combo1 : 18,124,255
Combo2 : 255,255,255

[HitObjects]
24,180,0,6,0,B|68:220|68:220|148:220,1,120,6|0,0:0|0:0,0:0:0:0:
220,220,703,1,0,0:0:0:0:
280,149,937,2,0,P|308:197|294:283,1,120,8|0,0:0|0:0,0:0:0:0:
260,336,1640,1,0,0:0:0:0:
176,368,1875,6,0,B|112:368|112:368|64:336,1,120,2|0,0:0|0:0,0:0:0:0:
8,268,2578,2,0,P|-4:196|24:140,1,120
84,96,3281,2,0,L|168:96,1,60
228,68,3750,6,0,P|236:124|178:183,1,120,2|0,0:0|0:0,0:0:0:0:
124,220,4453,1,0,0:0:0:0:
200,264,4687,2,0,B|260:248|260:248|336:264,1,120,8|0,0:0|0:0,0:0:0:0:
404,288,5390,1,0,0:0:0:0:
468,228,5625,6,0,L|476:166|476:166,1,60,2|0,0:0|0:0,0:0:0:0:
454,81,6093,1,0,0:0:0:0:
454,81,6328,2,0,P|378:49|320:60,1,120
264,88,7031,2,0,L|264:164,1,60
308,228,7500,5,4,0:0:0:0:
152,140,7968,1,0,0:0:0:0:
152,140,8203,1,0,0:0:0:0:
112,220,8437,2,0,P|141:295|200:310,1,120,8|0,0:0|0:0,0:0:0:0:
260,332,9140,1,0,0:0:0:0:
344,296,9375,6,0,L|456:248,1,120,2|0,0:0|0:0,0:0:0:0:
496,168,10078,2,0,B|496:108|496:108|468:52,1,120
404,120,10781,2,0,L|404:188,1,60
328,224,11250,6,0,P|272:204|212:224,1,120,2|0,0:0|0:0,0:0:0:0:
269,292,11953,1,0,0:0:0:0:
324,364,12187,2,0,P|263:381|207:359,1,120,8|0,0:0|0:0,0:0:0:0:
156,296,12890,1,0,0:0:0:0:
88,356,13125,6,0,L|20:356,2,60,2|0|0,0:0|0:0|0:0,0:0:0:0:
156,296,13828,2,0,L|216:296,2,60,0|8|0,0:0|0:0|0:0,0:0:0:0:
100,228,14531,1,0,0:0:0:0:
148,152,14765,1,0,0:0:0:0:
204,80,15000,6,0,B|260:56|260:56|320:80,1,120,6|0,0:0|0:0,0:0:0:0:
260,148,15703,1,0,0:0:0:0:
348,172,15937,5,8,0:0:0:0:
204,280,16406,1,0,0:0:0:0:
204,280,16640,1,0,0:0:0:0:
124,240,16875,6,0,P|112:296|168:360,1,120,2|0,0:0|0:0,0:0:0:0:
232,360,17578,2,0,L|352:360,1,120
448,340,18281,1,0,0:0:0:0:
448,340,18398,1,0,0:0:0:0:
448,340,18515,1,0,0:0:0:0:
480,236,18750,6,0,P|468:180|492:108,1,120,2|0,0:0|0:0,0:0:0:0:
420,52,19453,1,0,0:0:0:0:
336,84,19687,2,0,L|200:84,1,120,8|0,0:0|0:0,0:0:0:0:
200,172,20390,1,0,0:0:0:0:
160,256,20625,6,0,L|232:256,2,60,2|0|0,0:0|0:0|0:0,0:0:0:0:
124,172,21328,2,0,L|56:172,2,60,0|8|0,0:0|0:0|0:0,0:0:0:0:
176,100,22031,1,0,0:0:0:0:
252,148,22265,1,0,0:0:0:0:
308,76,22500,6,0,B|368:64|368:64|444:88,1,120,6|0,0:0|0:0,0:0:0:0:
476,156,23203,1,0,0:0:0:0:
400,208,23437,2,0,P|388:268|428:336,1,120,8|0,0:0|0:0,0:0:0:0:
332,364,24140,1,0,0:0:0:0:
252,320,24375,6,0,B|192:304|192:304|128:320,1,120,2|0,0:0|0:0,0:0:0:0:
64,372,25078,2,0,P|88:308|72:252,1,120
32,180,25781,2,0,L|32:120,1,60
104,64,26250,6,0,B|160:44|160:44|224:60,1,120,2|0,0:0|0:0,0:0:0:0:
276,128,26953,1,0,0:0:0:0:
236,208,27187,2,0,P|224:256|254:322,1,120,8|0,0:0|0:0,0:0:0:0:
312,252,27890,1,0,0:0:0:0:
380,312,28125,6,0,L|452:312,1,60,2|0,0:0|0:0,0:0:0:0:
492,240,28593,1,0,0:0:0:0:
440,164,28828,2,0,P|384:148|316:168,1,120
272,236,29531,2,0,L|272:308,1,60
208,360,30000,5,4,0:0:0:0:
172,184,30468,1,0,0:0:0:0:
172,184,30703,1,0,0:0:0:0:
192,96,30937,2,0,P|248:76|312:96,1,120,8|0,0:0|0:0,0:0:0:0:
368,156,31640,1,0,0:0:0:0:
426,224,31875,6,0,B|370:244|370:244|302:224,1,120,2|0,0:0|0:0,0:0:0:0:
232,184,32578,2,0,B|176:168|176:168|108:188,1,120
173,255,33281,2,0,L|257:275,1,60
316,296,33750,6,0,P|372:320|436:296,1,120,2|0,0:0|0:0,0:0:0:0:
376,228,34453,1,0,0:0:0:0:
432,156,34687,2,0,P|376:136|304:172,1,120,8|0,0:0|0:0,0:0:0:0:
262,224,35390,1,0,0:0:0:0:
208,152,35625,6,0,L|128:152,2,60,2|0|0,0:0|0:0|0:0,0:0:0:0:
256,76,36328,2,0,L|324:76,2,60,0|8|0,0:0|0:0|0:0,0:0:0:0:
172,40,37031,1,0,0:0:0:0:
84,40,37265,1,0,0:0:0:0:
16,100,37500,6,0,B|26:159|26:159|16:220,1,120,6|0,0:0|0:0,0:0:0:0:
80,284,38203,1,0,0:0:0:0:
148,224,38437,5,8,0:0:0:0:
328,244,38906,1,0,0:0:0:0:
328,244,39140,1,0,0:0:0:0:
376,321,39375,6,0,P|420:257|408:205,1,120,2|0,0:0|0:0,0:0:0:0:
380,136,40078,2,0,B|324:112|324:112|260:112,1,120
300,200,40781,1,0,0:0:0:0:
300,200,40898,1,0,0:0:0:0:
300,200,41015,1,0,0:0:0:0:
260,280,41250,6,0,P|200:276|160:212,1,120,2|0,0:0|0:0,0:0:0:0:
164,144,41953,1,0,0:0:0:0:
216,68,42187,2,0,B|264:40|264:40|352:40,1,120,8|0,0:0|0:0,0:0:0:0:
376,116,42890,1,0,0:0:0:0:
428,192,43125,6,0,L|488:192,2,60,2|0|0,0:0|0:0|0:0,0:0:0:0:
348,232,43828,2,0,L|272:232,2,60,0|8|0,0:0|0:0|0:0,0:0:0:0:
424,284,44531,1,0,0:0:0:0:
352,336,44765,1,0,0:0:0:0:
256,192,45000,12,0,48281,0:0:0:0:
