osu file format v14

[General]
AudioFilename: audio.mp3
AudioLeadIn: 0
PreviewTime: 22500
Countdown: 0
SampleSet: Soft
StackLeniency: 0.8
Mode: 0
LetterboxInBreaks: 0
WidescreenStoryboard: 1

[Editor]
Bookmarks: 7500,15000,22500,30000,37500
DistanceSpacing: 1.6
BeatDivisor: 4
GridSize: 8
TimelineZoom: 1

[Metadata]
Title:sans.
TitleUnicode:sans.
Artist:toby fox
ArtistUnicode:toby fox
Creator:Error-
Version:Normal
Source:UNDERTALE
Tags:OST megalovania sans the skeleton magic bomb mbomb radiation
BeatmapID:1390581
BeatmapSetID:584575

[Difficulty]
HPDrainRate:3
CircleSize:3
OverallDifficulty:4
ApproachRate:5
SliderMultiplier:1
SliderTickRate:2

[Events]
//Background and Video events
0,0,"bg.png",0,0
//Break Periods
//Storyboard Layer 0 (Background)
//Storyboard Layer 1 (Fail)
//Storyboard Layer 2 (Pass)
//Storyboard Layer 3 (Foreground)
//Storyboard Sound Samples

[TimingPoints]
0,468.75,4,2,1,65,1,0
6445,-100,4,2,2,65,0,0
6679,-100,4,2,1,65,0,0
28945,-100,4,2,2,65,0,0
29179,-100,4,2,1,65,0,0
45000,-100,4,2,1,25,0,0

[Colours]
Combo1 : 18,124,255
Combo2 : 255,255,255

[HitObjects]
48,64,0,6,0,L|184:64,1,100,6|0,0:0|0:0,0:0:0:0:
224,32,703,1,0,0:0:0:0:
224,32,937,2,0,P|192:96|200:168,1,100,8|0,0:0|0:0,0:0:0:0:
296,240,1875,6,0,L|424:240,1,100,2|0,0:0|0:0,0:0:0:0:
464,200,2578,1,0,0:0:0:0:
464,200,2812,2,0,P|448:144|472:80,1,100,8|0,0:0|0:0,0:0:0:0:
493,32,3515,1,0,0:0:0:0:
416,8,3750,6,0,B|360:0|360:0|272:16,1,100,2|0,0:0|0:0,0:0:0:0:
264,64,4453,1,0,0:0:0:0:
264,64,4687,2,0,P|248:136|256:208,1,100,8|0,0:0|0:0,0:0:0:0:
397,200,5625,6,0,P|397:152|389:128,1,50
352,88,6093,1,0,0:0:0:0:
352,88,6328,2,0,B|400:96|400:96|480:80,1,100
504,24,7031,1,0,0:0:0:0:
344,0,7500,6,0,P|296:16|264:96,1,100,6|0,0:0|0:0,0:0:0:0:
288,136,8203,1,0,0:0:0:0:
288,136,8437,2,0,L|144:112,1,100,8|0,0:0|0:0,0:0:0:0:
88,240,9375,6,0,L|224:272,1,100,2|0,0:0|0:0,0:0:0:0:
259,232,10078,1,0,0:0:0:0:
259,232,10312,2,0,P|283:176|259:96,1,100,8|0,0:0|0:0,0:0:0:0:
221,84,11015,1,0,0:0:0:0:
288,40,11250,6,0,B|344:32|344:32|432:40,1,100,2|0,0:0|0:0,0:0:0:0:
457,83,11953,1,0,0:0:0:0:
457,83,12187,2,0,P|473:131|449:219,1,100,8|0,0:0|0:0,0:0:0:0:
384,312,13125,6,0,B|328:320|328:320|256:312,1,100,2|0,0:0|0:0,0:0:0:0:
232,256,13828,1,0,0:0:0:0:
232,256,14062,2,0,L|224:192,1,50,8|0,0:0|0:0,0:0:0:0:
256,136,14531,2,0,L|264:64,1,50
336,120,15000,6,0,P|392:128|472:88,1,100,6|0,0:0|0:0,0:0:0:0:
496,64,15703,1,0,0:0:0:0:
496,64,15937,2,0,L|488:176,1,100,8|0,0:0|0:0,0:0:0:0:
440,320,16875,6,0,B|384:336|384:336|304:320,1,100,2|0,0:0|0:0,0:0:0:0:
280,280,17578,1,0,0:0:0:0:
280,280,17812,2,0,P|224:264|160:288,1,100,8|0,0:0|0:0,0:0:0:0:
40,336,18750,6,0,B|48:280|48:280|24:223,1,100,2|0,0:0|0:0,0:0:0:0:
32,160,19453,1,0,0:0:0:0:
32,160,19687,2,0,P|96:160|136:136,1,100,8|0,0:0|0:0,0:0:0:0:
256,48,20625,6,0,B|248:96|248:96|256:152,1,100,2|0,0:0|0:0,0:0:0:0:
304,216,21328,1,0,0:0:0:0:
304,216,21562,2,0,L|368:216,1,50,8|0,0:0|0:0,0:0:0:0:
400,280,22031,2,0,L|464:280,1,50
504,224,22500,6,0,P|512:168|504:104,1,100,6|0,0:0|0:0,0:0:0:0:
464,56,23203,1,0,0:0:0:0:
464,56,23437,2,0,L|344:56,1,100,8|0,0:0|0:0,0:0:0:0:
208,88,24375,6,0,B|192:128|192:128|200:200,1,100,2|0,0:0|0:0,0:0:0:0:
272,224,25078,1,0,0:0:0:0:
272,224,25312,2,0,P|200:216|136:248,1,100,8|0,0:0|0:0,0:0:0:0:
114,276,26015,1,0,0:0:0:0:
72,208,26250,6,0,P|56:152|80:80,1,100,2|0,0:0|0:0,0:0:0:0:
120,56,26953,1,0,0:0:0:0:
120,56,27187,2,0,L|240:56,1,100,8|0,0:0|0:0,0:0:0:0:
331,171,28125,6,0,L|275:171,1,50
211,139,28593,1,0,0:0:0:0:
211,139,28828,2,0,P|219:195|179:275,1,100
135,271,29531,1,0,0:0:0:0:
112,112,30000,6,0,P|136:48|200:24,1,100,6|0,0:0|0:0,0:0:0:0:
240,8,30703,1,0,0:0:0:0:
240,8,30937,2,0,L|368:16,1,100,8|0,0:0|0:0,0:0:0:0:
432,144,31875,6,0,P|432:200|384:256,1,100,2|0,0:0|0:0,0:0:0:0:
344,280,32578,1,0,0:0:0:0:
344,280,32812,2,0,L|216:272,1,100,8|0,0:0|0:0,0:0:0:0:
184,221,33515,1,0,0:0:0:0:
248,168,33750,6,0,B|264:120|264:120|248:32,1,100,2|0,0:0|0:0,0:0:0:0:
192,24,34453,1,0,0:0:0:0:
192,24,34687,2,0,L|72:24,1,100,8|0,0:0|0:0,0:0:0:0:
72,184,35625,6,0,L|200:184,1,100,2|0,0:0|0:0,0:0:0:0:
192,264,36328,1,0,0:0:0:0:
192,264,36562,2,0,L|250:263,1,50
288,328,37031,2,0,L|360:328,1,50
376,256,37500,6,0,P|392:192|376:120,1,100,6|0,0:0|0:0,0:0:0:0:
336,96,38203,1,0,0:0:0:0:
336,96,38437,2,0,L|448:104,1,100,8|0,0:0|0:0,0:0:0:0:
312,8,39375,6,0,L|184:0,1,100,2|0,0:0|0:0,0:0:0:0:
152,56,40078,1,0,0:0:0:0:
152,56,40312,2,0,P|160:104|136:168,1,100,10|0,0:0|0:0,0:0:0:0:
48,280,41250,6,0,B|96:264|96:264|184:280,1,100,2|0,0:0|0:0,0:0:0:0:
208,328,41953,1,0,0:0:0:0:
208,328,42187,2,0,P|216:264|256:216,1,100,8|0,0:0|0:0,0:0:0:0:
376,160,43125,6,0,P|392:112|376:40,1,100,2|0,0:0|0:0,0:0:0:0:
328,8,43828,1,0,0:0:0:0:
264,56,44062,2,0,L|184:56,1,50,8|0,0:0|0:0,0:0:0:0:
144,96,44531,2,0,L|72:96,1,50
256,192,45000,12,0,48281,0:0:0:0:
