osu file format v14

[General]
AudioFilename: audio.mp3
AudioLeadIn: 0
PreviewTime: 203
Countdown: 1
SampleSet: Soft
StackLeniency: 0.7
Mode: 0
LetterboxInBreaks: 0
WidescreenStoryboard: 0
SamplesMatchPlaybackRate: 1

[Editor]
Bookmarks: 13917,27631,37917,48202,58488,68774,79060,89345,99631,109916
DistanceSpacing: 3.4
BeatDivisor: 8
GridSize: 32
TimelineZoom: 0.4999999

[Metadata]
Title:Waterfall
TitleUnicode:Waterfall
Artist:toby fox
ArtistUnicode:toby fox
Creator:Vulkin
Version:Rain
Source:UNDERTALE
Tags:31 "radiation" FwugRadiation Determination Frisk Undyne Quiet Water Umbrella OST Original Soundtrack VGM Video Game Music Instrumental Orchestra Venix Alphabet Aistre [-Evil-]
BeatmapID:1936672
BeatmapSetID:927245

[Difficulty]
HPDrainRate:5
CircleSize:5
OverallDifficulty:6
ApproachRate:6
SliderMultiplier:1
SliderTickRate:2

[Events]
//Background and Video events
0,0,"background.jpg",0,0
//Break Periods
//Storyboard Layer 0 (Background)
//Storyboard Layer 1 (Fail)
//Storyboard Layer 2 (Pass)
//Storyboard Layer 3 (Foreground)
//Storyboard Layer 4 (Overlay)
//Storyboard Sound Samples

[TimingPoints]
200,857.142857142857,4,2,1,20,1,0
200,-133.333333333333,4,2,1,20,0,0
20664,-133.333333333333,4,2,1,20,0,0
21092,-133.333333333333,4,2,1,19,0,0
21521,-133.333333333333,4,2,1,19,0,0
21949,-133.333333333333,4,2,1,18,0,0
22378,-133.333333333333,4,2,1,17,0,0
22807,-133.333333333333,4,2,1,17,0,0
23235,-133.333333333333,4,2,1,16,0,0
23664,-133.333333333333,4,2,1,15,0,0
24092,-133.333333333333,4,2,1,15,0,0
24521,-133.333333333333,4,2,1,14,0,0
24949,-133.333333333333,4,2,1,13,0,0
25378,-133.333333333333,4,2,1,13,0,0
25807,-133.333333333333,4,2,1,12,0,0
26235,-133.333333333333,4,2,1,11,0,0
26664,-133.333333333333,4,2,1,11,0,0
27092,-133.333333333333,4,2,1,10,0,0
27628,857.142857142857,3,2,14,60,1,0
27628,-133.333333333333,3,2,14,60,0,0
27842,-133.333333333333,3,2,1,20,0,0
30199,-133.333333333333,3,2,15,60,0,0
30413,-133.333333333333,3,2,1,20,0,0
31913,-133.333333333333,3,2,13,60,0,0
32128,-133.333333333333,3,2,1,20,0,0
32770,-133.333333333333,3,2,14,60,0,0
32985,-133.333333333333,3,2,1,20,0,0
35342,-133.333333333333,3,2,10,60,0,0
35556,-133.333333333333,3,2,1,20,0,0
37056,-133.333333333333,3,2,11,60,0,0
37270,-133.333333333333,3,2,1,20,0,0
37913,-133.333333333333,3,2,14,60,0,0
38128,-133.333333333333,3,2,1,20,0,0
40485,-133.333333333333,3,2,10,60,0,0
40699,-133.333333333333,3,2,1,20,0,0
43056,-133.333333333333,3,2,12,60,0,0
43270,-133.333333333333,3,2,1,20,0,0
45628,-133.333333333333,3,2,10,60,0,0
45842,-133.333333333333,3,2,1,20,0,0
47342,-133.333333333333,3,2,12,60,0,0
47556,-133.333333333333,3,2,1,20,0,0
48199,-133.333333333333,3,2,14,60,0,0
48413,-133.333333333333,3,2,1,20,0,0
50770,-133.333333333333,3,2,15,60,0,0
50985,-133.333333333333,3,2,1,20,0,0
52485,-133.333333333333,3,2,13,60,0,0
52699,-133.333333333333,3,2,1,20,0,0
53342,-133.333333333333,3,2,14,60,0,0
53556,-133.333333333333,3,2,1,20,0,0
55913,-133.333333333333,3,2,10,60,0,0
56128,-133.333333333333,3,2,1,20,0,0
57628,-133.333333333333,3,2,11,60,0,0
57842,-133.333333333333,3,2,1,20,0,0
58485,-133.333333333333,3,2,14,60,0,0
58699,-133.333333333333,3,2,1,20,0,0
61056,-133.333333333333,3,2,10,60,0,0
61270,-133.333333333333,3,2,1,20,0,0
63627,-133.333333333333,3,2,12,60,0,0
63842,-133.333333333333,3,2,1,20,0,0
66199,-114.942528735632,3,2,10,60,0,0
66413,-114.942528735632,3,2,1,20,0,0
67485,-200,3,2,1,20,0,0
67913,-200,3,2,12,60,0,0
68128,-200,3,2,17,40,0,0
68770,-66.6666666666667,3,2,14,60,0,1
69199,-66.6666666666667,3,2,1,20,0,1
69628,-66.6666666666667,3,2,17,50,0,1
70056,-66.6666666666667,3,2,1,20,0,1
70485,-66.6666666666667,3,2,18,50,0,1
70913,-66.6666666666667,3,2,17,40,0,1
71342,-66.6666666666667,3,2,15,60,0,1
71770,-66.6666666666667,3,2,1,20,0,1
72199,-66.6666666666667,3,2,12,50,0,1
72628,-66.6666666666667,3,2,1,20,0,1
73056,-66.6666666666667,3,2,17,50,0,1
73485,-66.6666666666667,3,2,17,40,0,1
73913,-66.6666666666667,3,2,16,60,0,1
74342,-66.6666666666667,3,2,1,20,0,1
74770,-66.6666666666667,3,2,18,50,0,1
75199,-66.6666666666667,3,2,1,20,0,1
75628,-66.6666666666667,3,2,15,50,0,1
76056,-66.6666666666667,3,2,17,40,0,1
76485,-66.6666666666667,3,2,19,60,0,1
76913,-66.6666666666667,3,2,1,20,0,1
77342,-66.6666666666667,3,2,15,50,0,1
77770,-200,3,2,1,20,0,1
78199,-200,3,2,20,50,0,1
78628,-200,3,2,17,40,0,1
79054,-66.6666666666667,3,2,14,60,0,1
79483,-66.6666666666667,3,2,1,20,0,1
79912,-66.6666666666667,3,2,17,50,0,1
80340,-66.6666666666667,3,2,1,20,0,1
80769,-66.6666666666667,3,2,18,50,0,1
81197,-66.6666666666667,3,2,17,40,0,1
81626,-66.6666666666667,3,2,15,60,0,1
82054,-66.6666666666667,3,2,1,20,0,1
82483,-66.6666666666667,3,2,12,50,0,1
82912,-66.6666666666667,3,2,1,20,0,1
83340,-66.6666666666667,3,2,17,50,0,1
83769,-66.6666666666667,3,2,17,40,0,1
84197,-66.6666666666667,3,2,16,60,0,1
84626,-66.6666666666667,3,2,1,20,0,1
85054,-66.6666666666667,3,2,18,50,0,1
85483,-66.6666666666667,3,2,1,20,0,1
85912,-66.6666666666667,3,2,15,50,0,1
86340,-66.6666666666667,3,2,17,40,0,1
86769,-66.6666666666667,3,2,19,60,0,1
87197,-66.6666666666667,3,2,1,20,0,1
87626,-66.6666666666667,3,2,15,50,0,1
88054,-200,3,2,1,20,0,1
88483,-200,3,2,20,50,0,1
88912,-200,3,2,17,40,0,1
89339,-66.6666666666667,3,2,14,60,0,1
89768,-66.6666666666667,3,2,1,20,0,1
90197,-66.6666666666667,3,2,17,50,0,1
90625,-66.6666666666667,3,2,1,20,0,1
91054,-66.6666666666667,3,2,18,50,0,1
91482,-66.6666666666667,3,2,17,40,0,1
91911,-66.6666666666667,3,2,15,60,0,1
92339,-66.6666666666667,3,2,1,20,0,1
92768,-66.6666666666667,3,2,12,50,0,1
93197,-66.6666666666667,3,2,1,20,0,1
93625,-66.6666666666667,3,2,17,50,0,1
94054,-66.6666666666667,3,2,17,40,0,1
94482,-66.6666666666667,3,2,16,60,0,1
94911,-66.6666666666667,3,2,1,20,0,1
95339,-66.6666666666667,3,2,18,50,0,1
95768,-66.6666666666667,3,2,1,20,0,1
96197,-66.6666666666667,3,2,15,50,0,1
96625,-66.6666666666667,3,2,17,40,0,1
97054,-66.6666666666667,3,2,19,60,0,1
97482,-66.6666666666667,3,2,1,20,0,1
97911,-66.6666666666667,3,2,15,50,0,1
98339,-200,3,2,1,20,0,1
98768,-200,3,2,20,50,0,1
99197,-200,3,2,17,40,0,1
99625,-66.6666666666667,3,2,14,60,0,1
100056,-66.6666666666667,3,2,1,20,0,1
100485,-66.6666666666667,3,2,17,50,0,1
100913,-66.6666666666667,3,2,1,20,0,1
101342,-66.6666666666667,3,2,18,50,0,1
101770,-66.6666666666667,3,2,17,40,0,1
102199,-66.6666666666667,3,2,15,60,0,1
102627,-66.6666666666667,3,2,1,20,0,1
103056,-66.6666666666667,3,2,12,50,0,1
103485,-66.6666666666667,3,2,1,20,0,1
103913,-66.6666666666667,3,2,17,50,0,1
104342,-66.6666666666667,3,2,17,40,0,1
104770,-66.6666666666667,3,2,16,60,0,1
105199,-66.6666666666667,3,2,1,20,0,1
105627,-66.6666666666667,3,2,18,50,0,1
106056,-66.6666666666667,3,2,1,20,0,1
106485,-66.6666666666667,3,2,15,50,0,1
106913,-66.6666666666667,3,2,17,40,0,1
107342,-66.6666666666667,3,2,19,60,0,1
107770,-66.6666666666667,3,2,1,20,0,1
108199,-66.6666666666667,3,2,15,50,0,1
108627,-200,3,2,1,20,0,1
109056,-200,3,2,19,50,0,1
109485,-200,3,2,17,40,0,1
109913,-100,3,2,21,60,0,0
110342,-100,3,2,1,20,0,0
112485,-100,3,2,22,60,0,0
113342,-100,3,2,1,20,0,0
116770,857.142857142857,4,2,14,60,1,0
117627,-100,4,2,14,55,0,0
118484,-100,4,2,14,50,0,0
119341,-100,4,2,14,45,0,0
120198,-100,4,2,14,40,0,0
121055,-100,4,2,14,30,0,0
121912,-100,4,2,14,20,0,0
122770,-100,4,2,14,10,0,0

[Colours]
Combo1 : 192,192,192
Combo2 : 128,128,192
Combo3 : 128,128,255

[HitObjects]
39,346,200,5,0,0:0:0:0:
111,338,628,1,0,0:0:0:0:
77,205,1057,1,2,0:0:0:0:
149,213,1485,1,0,0:0:0:0:
192,155,1914,2,0,L|244:161,1,37.5000014305115,2|2,0:0|0:0,0:0:0:0:
212,284,2771,2,0,L|160:290,1,37.5000014305115,0|2,0:0|0:0,0:0:0:0:
39,346,3628,5,0,0:0:0:0:
111,338,4057,1,0,0:0:0:0:
77,205,4485,1,2,0:0:0:0:
106,138,4914,1,2,0:0:0:0:
209,110,5342,2,0,P|192:118|178:130,1,37.5000014305115,2|2,0:0|0:0,0:0:0:0:
108,224,6199,2,0,P|80:206|61:202,1,37.5000014305115,0|2,0:0|0:0,0:0:0:0:
39,346,7057,21,0,0:0:0:0:
111,338,7485,1,0,0:0:0:0:
77,205,7914,1,2,0:0:0:0:
149,213,8342,1,0,0:0:0:0:
192,155,8771,2,0,L|244:161,1,37.5000014305115,2|2,0:0|0:0,0:0:0:0:
212,284,9628,2,0,L|160:290,1,37.5000014305115,0|2,0:0|0:0,0:0:0:0:
39,346,10485,5,0,0:0:0:0:
111,338,10914,1,0,0:0:0:0:
77,205,11342,1,2,0:0:0:0:
106,138,11771,1,2,0:0:0:0:
209,110,12199,2,0,P|192:118|177:130,1,37.5000014305115,2|2,0:0|0:0,0:0:0:0:
108,224,13056,2,0,P|80:206|61:202,1,37.5000014305115,0|2,0:0|0:0,0:0:0:0:
39,346,13914,22,0,B|102:319|187:371|262:345,1,225.000008583069,0|0,0:0|0:0,0:0:0:0:
346,341,16914,1,2,0:0:0:0:
431,337,17342,2,0,B|427:310|417:283|399:261|375:257|342:252|325:257|325:257|301:261|289:275|262:278|240:275,1,225.000008583069,0|0,0:0|0:0,0:0:0:0:
154,295,20342,1,2,0:0:0:0:
82,223,20771,6,0,B|155:160|266:178|230:304|290:299|321:293|338:276|338:276|348:300|363:314|396:329|423:315|437:297|435:281|435:281|426:268|434:248|450:239|466:244|475:255|477:268|477:281|474:297|467:315|455:327|425:348,1,600.000022888185,0|2,0:0|0:0,0:0:0:0:
316,360,28485,21,0,0:0:0:0:
350,252,29342,1,0,0:0:0:0:
251,197,30199,1,2,0:0:0:0:
160,132,31056,2,0,P|137:136|121:150,1,37.5000014305115
19,46,31913,2,0,P|42:50|58:64,1,37.5000014305115,2|0,0:0|0:0,0:0:0:0:
125,144,32770,6,0,P|137:184|125:226,1,75.0000028610231,2|0,0:0|0:0,0:0:0:0:
88,268,34056,2,0,P|76:308|88:350,1,75.0000028610231,0|0,0:0|0:0,0:0:0:0:
91,356,35128,1,0,0:0:0:0:
102,370,35342,2,0,B|132:378|169:362|186:375,1,75.0000028610231,2|0,0:0|0:0,0:0:0:0:
293,361,36628,1,0,0:0:0:0:
143,280,37056,1,2,0:0:0:0:
307,267,37485,1,0,0:0:0:0:
216,164,37913,22,0,P|194:134|193:97,1,75.0000028610231,2|0,0:0|0:0,0:0:0:0:
293,17,39628,2,0,L|288:68,1,37.5000014305115
358,143,40485,2,0,L|274:148,2,75.0000028610231,2|0|0,0:0|0:0|0:0,0:0:0:0:
414,138,42628,1,0,0:0:0:0:
472,255,43056,5,2,0:0:0:0:
435,341,43485,1,0,0:0:0:0:
481,277,43913,1,0,0:0:0:0:
425,318,44342,2,0,P|401:302|379:294,1,37.5000014305115
329,276,45199,1,0,0:0:0:0:
280,218,45628,2,0,P|258:247|253:284,1,75.0000028610231,2|0,0:0|0:0,0:0:0:0:
274,344,46913,1,0,0:0:0:0:
190,271,47342,1,2,0:0:0:0:
350,321,47770,1,0,0:0:0:0:
477,210,48199,21,2,0:0:0:0:
368,235,49056,1,0,0:0:0:0:
334,342,49913,1,0,0:0:0:0:
258,260,50770,1,2,0:0:0:0:
144,280,51628,2,0,L|99:300,1,37.5000014305115
0,153,52485,2,0,L|45:173,1,37.5000014305115,2|0,0:0|0:0,0:0:0:0:
109,295,53342,6,0,P|122:324|113:373,1,75.0000028610231,2|0,0:0|0:0,0:0:0:0:
196,260,54628,2,0,P|183:231|192:182,1,75.0000028610231,0|0,0:0|0:0,0:0:0:0:
199,173,55699,1,0,0:0:0:0:
214,162,55913,2,0,B|244:154|281:170|298:157,1,75.0000028610231,2|0,0:0|0:0,0:0:0:0:
405,171,57199,1,0,0:0:0:0:
255,251,57628,1,2,0:0:0:0:
419,264,58056,1,0,0:0:0:0:
328,368,58485,22,0,P|306:338|305:301,1,75.0000028610231,2|0,0:0|0:0,0:0:0:0:
370,191,60199,2,0,L|372:228,1,37.5000014305115
362,116,61056,2,0,L|446:121,2,75.0000028610231,2|0|0,0:0|0:0|0:0,0:0:0:0:
306,111,63199,1,0,0:0:0:0:
238,223,63627,5,2,0:0:0:0:
201,137,64056,1,0,0:0:0:0:
247,201,64484,1,0,0:0:0:0:
191,160,64913,2,0,P|163:179|155:193,1,37.5000014305115
133,243,65770,1,0,0:0:0:0:
191,308,66199,2,0,B|236:318|236:290|286:300,1,87.0000007301331,2|0,0:0|0:0,0:0:0:0:
338,252,67485,6,0,L|342:227,2,25,0|2|0,0:0|0:0|3:0,0:0:0:0:
321,61,68770,6,0,B|312:97|312:97|330:140,1,75.0000028610231,6|0,0:0|0:0,0:0:0:0:
444,87,69628,2,0,B|458:121|458:121|449:157,1,75.0000028610231,2|0,0:0|0:0,0:0:0:0:
418,266,70485,1,2,0:0:0:0:
378,91,70913,1,0,3:0:0:0:
318,354,71342,6,0,P|286:334|246:333,1,75.0000028610231,6|0,0:0|0:0,0:0:0:0:
137,358,72199,1,2,0:0:0:0:
249,332,72628,1,0,0:0:0:0:
88,264,73056,1,2,3:2:0:0:
249,332,73485,1,0,3:0:0:0:
131,137,73913,22,0,B|204:121|205:159|281:136,1,150.000005722046,6|2,0:0|0:0,0:0:0:0:
334,46,75199,2,0,P|366:78|373:181,1,150.000005722046,0|0,0:0|3:0,0:0:0:0:
169,347,76485,2,0,B|137:331|114:297|114:297|108:335|76:365,1,150.000005722046,6|2,0:0|0:0,0:0:0:0:
23,288,77770,22,0,L|50:304,2,25,0|2|0,0:0|0:0|3:0,0:0:0:0:
164,27,79056,6,0,B|183:59|183:59|173:97,1,75.0000028610231,6|0,0:0|0:0,0:0:0:0:
319,56,79913,2,0,B|309:92|309:92|328:124,1,75.0000028610231,2|0,0:0|0:0,0:0:0:0:
385,220,80770,1,2,0:0:0:0:
247,76,81199,1,0,3:0:0:0:
265,308,81628,6,0,P|214:329|170:318,1,75.0000028610231,6|0,0:0|0:0,0:0:0:0:
103,272,82485,1,2,0:0:0:0:
195,327,82913,1,0,0:0:0:0:
156,173,83342,1,2,3:2:0:0:
195,327,83770,1,0,3:2:0:0:
292,166,84199,22,0,B|364:144|360:201|445:174,1,150.000005722046,6|2,0:0|0:0,0:0:0:0:
497,10,85485,2,0,P|427:29|404:98,1,150.000005722046,0|0,0:0|3:0,0:0:0:0:
321,244,86770,2,0,B|298:295|334:315|311:353|311:353|270:344|244:354,1,150.000005722046,6|2,0:0|0:0,0:0:0:0:
219,301,88056,22,0,P|206:321|203:332,2,25,0|2|0,0:0|0:0|3:0,0:0:0:0:
394,90,89342,6,0,P|404:54|431:30,1,75.0000028610231,6|0,0:0|0:0,0:0:0:0:
292,181,90199,2,0,P|282:145|255:121,1,75.0000028610231,2|0,0:0|0:0,0:0:0:0:
172,328,91056,1,2,0:0:0:0:
218,190,91485,1,0,3:0:0:0:
365,361,91913,6,0,P|400:374|445:364,1,75.0000028610231,6|0,0:0|0:0,0:0:0:0:
479,230,92770,1,2,0:0:0:0:
436,368,93199,1,0,0:0:0:0:
393,180,93627,1,2,3:2:0:0:
436,368,94056,1,0,3:2:0:0:
240,157,94485,22,0,B|151:149|187:202|90:189,1,150.000005722046,6|2,0:0|0:0,0:0:0:0:
34,39,95770,2,0,P|102:32|116:100,1,150.000005722046,0|0,0:0|3:0,0:0:0:0:
218,231,97056,2,0,B|183:306|245:306|218:376,1,150.000005722046,6|2,0:0|0:0,0:0:0:0:
134,345,98342,22,0,L|110:351,2,25,0|2|0,0:0|0:0|3:0,0:0:0:0:
255,101,99627,6,0,P|257:64|242:30,1,75.0000028610231,6|0,0:0|0:0,0:0:0:0:
123,222,100485,2,0,P|108:188|115:135,1,75.0000028610231,2|0,0:0|0:0,0:0:0:0:
179,80,101342,1,2,0:0:0:0:
193,264,101770,1,0,3:0:0:0:
242,30,102199,6,0,L|318:37,1,75.0000028610231,6|0,0:0|0:0,0:0:0:0:
395,166,103056,1,2,0:0:0:0:
316,36,103485,1,0,0:0:0:0:
321,227,103913,1,2,3:2:0:0:
316,36,104342,1,0,3:2:0:0:
189,270,104770,22,0,B|115:306|119:231|46:272,1,150.000005722046,6|2,0:0|0:0,0:0:0:0:
87,87,106056,2,0,P|148:126|156:199,1,150.000005722046,0|0,0:0|3:0,0:0:0:0:
368,75,107342,2,0,L|219:74,1,150.000005722046,6|2,0:0|0:0,0:0:0:0:
143,136,108627,1,0,0:0:0:0:
134,218,109056,1,2,0:0:0:0:
174,271,109485,1,0,0:0:0:0:
210,287,109913,6,0,B|310:297|311:276|412:288|412:288|391:263|380:236|394:197,1,300,2|2,0:0|0:0,0:0:0:0:
371,126,113342,21,2,0:0:0:0:
320,181,113770,1,2,0:0:0:0:
342,252,114199,1,2,0:0:0:0:
416,269,115056,1,2,0:0:0:0:
466,215,115913,1,2,0:0:0:0:
443,143,116770,1,2,0:0:0:0:
256,192,117627,12,0,123627,0:0:0:0:
