osu file format v14

[General]
AudioFilename: audio.mp3
AudioLeadIn: 0
PreviewTime: 27514
Countdown: 0
SampleSet: Soft
StackLeniency: 0.7
Mode: 0
LetterboxInBreaks: 0
WidescreenStoryboard: 0

[Editor]
DistanceSpacing: 0.5
BeatDivisor: 16
GridSize: 32
TimelineZoom: 1

[Metadata]
Title:Uwa!! So Temperate
TitleUnicode:Uwa!! So Temperateā™«
Artist:toby fox
ArtistUnicode:toby fox
Creator:atlas-
Version:hollow
Source:UNDERTALE
Tags:video game instrumental "radiation" videogame soundtrack ost aeniko bluirre wanpachi
BeatmapID:3533781
BeatmapSetID:1729139

[Difficulty]
HPDrainRate:8
CircleSize:10
OverallDifficulty:8
ApproachRate:8
SliderMultiplier:1.4
SliderTickRate:0.5

[Events]
//Background and Video events
0,0,"frisk.jpg",0,0
//Break Periods
//Storyboard Layer 0 (Background)
//Storyboard Layer 1 (Fail)
//Storyboard Layer 2 (Pass)
//Storyboard Layer 3 (Foreground)
//Storyboard Layer 4 (Overlay)
//Storyboard Sound Samples
Sample,86,3,"audio/waves.ogg",100
Sample,41228,3,"audio/waves.ogg",100

[TimingPoints]
86,857.142857142857,4,2,1,60,1,0
86,-133.333333333333,4,2,1,60,0,0
514,-133.333333333333,4,2,2,60,0,0
943,-133.333333333333,4,2,3,60,0,0
1264,-133.333333333333,4,2,3,5,0,0
1371,-133.333333333333,4,2,3,60,0,0
1800,-133.333333333333,4,2,1,60,0,0
2228,-133.333333333333,4,2,2,60,0,0
2657,-133.333333333333,4,2,3,60,0,0
3514,-133.333333333333,4,2,4,60,0,0
3835,-133.333333333333,4,2,4,5,0,0
3943,-133.333333333333,4,2,5,60,0,0
4371,-133.333333333333,4,2,6,60,0,0
4693,-133.333333333333,4,2,6,40,0,0
5014,-133.333333333333,4,2,6,20,0,0
5228,-133.333333333333,4,2,4,60,0,0
5550,-133.333333333333,4,2,4,5,0,0
5657,-133.333333333333,4,2,5,60,0,0
6085,-133.333333333333,4,2,11,60,0,0
6407,-133.333333333333,4,2,11,40,0,0
6728,-133.333333333333,4,2,11,20,0,0
6943,-133.333333333333,4,2,1,60,0,0
7371,-133.333333333333,4,2,2,60,0,0
7800,-133.333333333333,4,2,3,60,0,0
8121,-133.333333333333,4,2,3,5,0,0
8228,-133.333333333333,4,2,3,60,0,0
8657,-133.333333333333,4,2,1,60,0,0
9085,-133.333333333333,4,2,2,60,0,0
9514,-133.333333333333,4,2,3,60,0,0
10371,-133.333333333333,4,2,7,60,0,0
10693,-133.333333333333,4,2,7,5,0,0
10800,-133.333333333333,4,2,8,60,0,0
11228,-133.333333333333,4,2,9,60,0,0
11550,-133.333333333333,4,2,9,40,0,0
11871,-133.333333333333,4,2,9,20,0,0
12085,-133.333333333333,4,2,7,60,0,0
12407,-133.333333333333,4,2,7,5,0,0
12514,-133.333333333333,4,2,8,60,0,0
12943,-133.333333333333,4,2,10,60,0,0
13264,-133.333333333333,4,2,10,40,0,0
13585,-133.333333333333,4,2,10,20,0,0
13800,-133.333333333333,4,2,1,60,0,0
14228,-133.333333333333,4,2,2,60,0,0
14657,-133.333333333333,4,2,3,60,0,0
14978,-133.333333333333,4,2,3,5,0,0
15085,-133.333333333333,4,2,3,60,0,0
15514,-133.333333333333,4,2,1,60,0,0
15942,-133.333333333333,4,2,2,60,0,0
16371,-133.333333333333,4,2,3,60,0,0
17228,-133.333333333333,4,2,4,60,0,0
17550,-133.333333333333,4,2,4,5,0,0
17657,-133.333333333333,4,2,5,60,0,0
18085,-133.333333333333,4,2,6,60,0,0
18407,-133.333333333333,4,2,6,40,0,0
18728,-133.333333333333,4,2,6,20,0,0
18942,-133.333333333333,4,2,4,60,0,0
19264,-133.333333333333,4,2,4,5,0,0
19371,-133.333333333333,4,2,5,60,0,0
19799,-133.333333333333,4,2,11,60,0,0
20121,-133.333333333333,4,2,11,40,0,0
20443,-133.333333333333,4,2,11,20,0,0
20657,-133.333333333333,4,2,1,60,0,0
21085,-133.333333333333,4,2,2,60,0,0
21514,-133.333333333333,4,2,3,60,0,0
21835,-133.333333333333,4,2,3,5,0,0
21943,-133.333333333333,4,2,3,60,0,0
22371,-133.333333333333,4,2,1,60,0,0
22799,-133.333333333333,4,2,2,60,0,0
23228,-133.333333333333,4,2,3,60,0,0
24085,-133.333333333333,4,2,7,60,0,0
24407,-133.333333333333,4,2,7,5,0,0
24514,-133.333333333333,4,2,8,60,0,0
24942,-133.333333333333,4,2,9,60,0,0
25264,-133.333333333333,4,2,9,40,0,0
25585,-133.333333333333,4,2,9,20,0,0
25799,-133.333333333333,4,2,7,60,0,0
26121,-133.333333333333,4,2,7,5,0,0
26228,-133.333333333333,4,2,8,60,0,0
26657,-133.333333333333,4,2,10,60,0,0
26978,-133.333333333333,4,2,10,40,0,0
27300,-133.333333333333,4,2,10,20,0,0
27514,-100,4,2,1,50,0,0
41228,-100,4,2,1,70,0,0
41550,-100,4,2,1,5,0,0
41656,-100,4,2,2,70,0,0
42085,-100,4,2,3,70,0,0
42407,-100,4,2,3,5,0,0
42514,-100,4,2,3,70,0,0
42942,-100,4,2,1,70,0,0
43264,-100,4,2,1,5,0,0
43370,-100,4,2,2,70,0,0
43799,-100,4,2,3,70,0,0
44121,-100,4,2,3,60,0,0
44443,-100,4,2,3,50,0,0
44656,-100,4,2,4,70,0,0
44978,-100,4,2,4,5,0,0
45085,-100,4,2,5,70,0,0
45513,-100,4,2,6,70,0,0
46370,-100,4,2,4,70,0,0
46693,-100,4,2,4,5,0,0
46799,-100,4,2,5,70,0,0
47227,-100,4,2,11,70,0,0
47550,-100,4,2,3,60,0,0
47872,-100,4,2,3,50,0,0
48085,-100,4,2,1,70,0,0
48407,-100,4,2,1,5,0,0
48513,-100,4,2,2,70,0,0
48942,-100,4,2,3,70,0,0
49264,-100,4,2,3,5,0,0
49371,-100,4,2,3,70,0,0
49799,-100,4,2,1,70,0,0
50121,-100,4,2,1,5,0,0
50227,-100,4,2,2,70,0,0
50656,-100,4,2,3,70,0,0
50978,-100,4,2,3,60,0,0
51300,-100,4,2,3,50,0,0
51513,-100,4,2,7,70,0,0
51835,-100,4,2,7,5,0,0
51942,-100,4,2,8,70,0,0
52370,-100,4,2,9,70,0,0
53227,-100,4,2,7,70,0,0
53550,-100,4,2,7,5,0,0
53656,-100,4,2,8,70,0,0
54085,-100,4,2,10,70,0,0
54407,-100,4,2,3,60,0,0
54729,-100,4,2,3,50,0,0
54782,-100,4,2,3,30,0,0
54943,-100,4,2,10,15,0,0
55585,-100,4,2,10,10,0,0
56228,-100,4,2,10,5,0,0

[Colours]
Combo1 : 128,128,255
Combo2 : 22,122,175
Combo3 : 171,202,254
Combo4 : 0,64,128

[HitObjects]
14,371,86,6,0,L|66:361,1,52.5000020027161,2|2,0:0|0:0,0:0:0:0:
79,343,728,1,0,0:0:0:0:
79,343,943,2,0,L|131:333,1,52.5000020027161,2|0,0:0|0:0,0:0:0:0:
144,317,1586,1,0,0:0:0:0:
144,317,1801,2,0,L|196:307,1,52.5000020027161,2|2,0:0|0:0,0:0:0:0:
209,288,2443,1,0,0:0:0:0:
209,288,2658,2,0,L|261:298,1,52.5000020027161,2|0,0:0|0:0,0:0:0:0:
261,298,3514,6,0,P|273:290|273:262,1,39.3750015020371,2|0,0:0|0:0,0:0:0:0:
272,263,3943,2,0,P|266:250|271:238,1,26.2500010013581,2|0,0:0|0:0,0:0:0:0:
309,239,4371,2,0,P|305:256|299:277,2,39.3750015020371,2|0|0,0:0|0:0|0:0,0:0:0:0:
309,239,5228,6,0,P|297:231|297:203,1,39.3750015020371,2|0,0:0|0:0,0:0:0:0:
298,205,5657,2,0,P|304:192|299:179,1,26.2500010013581,2|0,0:0|0:0,0:0:0:0:
261,180,6085,2,0,P|265:197|271:218,2,39.3750015020371,2|0|0,0:0|0:0|0:0,0:0:0:0:
241,161,6943,6,0,P|214:165|200:142,1,52.5000020027161,2|2,0:0|0:0,0:0:0:0:
199,122,7585,1,0,0:0:0:0:
199,122,7800,2,0,P|172:118|158:141,1,52.5000020027161,2|0,0:0|0:0,0:0:0:0:
156,161,8443,1,0,0:0:0:0:
156,161,8658,2,0,P|129:165|115:142,1,52.5000020027161,2|2,0:0|0:0,0:0:0:0:
112,117,9300,1,0,0:0:0:0:
112,117,9514,2,0,P|108:90|131:76,1,52.5000020027161,2|0,0:0|0:0,0:0:0:0:
163,84,10371,6,0,B|161:101|161:101|160:101|160:101|158:122,1,39.3750015020371,2|0,0:0|0:0,0:0:0:0:
162,124,10800,2,0,B|163:136|163:136|164:136|164:136|165:151,1,26.2500010013581,2|0,0:0|0:0,0:0:0:0:
160,170,11228,2,0,B|136:164|136:164|145:169|145:175,2,39.3750015020371,2|0|0,0:0|0:0|0:0,0:0:0:0:
184,174,12085,6,0,B|185:191|185:191|186:191|186:191|188:212,1,39.3750015020371,2|0,0:0|0:0,0:0:0:0:
185,214,12514,2,0,B|183:226|183:226|182:226|182:226|181:241,1,26.2500010013581,2|0,0:0|0:0,0:0:0:0:
185,261,12942,2,0,B|209:254|209:254|200:260|200:266,2,39.3750015020371,2|0|0,0:0|0:0|0:0,0:0:0:0:
155,263,13800,6,0,P|160:237|161:206,1,52.5000020027161,2|2,0:0|0:0,0:0:0:0:
174,192,14443,1,0,0:0:0:0:
174,192,14657,2,0,P|196:177|219:155,1,52.5000020027161,2|0,0:0|0:0,0:0:0:0:
238,160,15300,1,0,0:0:0:0:
238,160,15514,2,0,P|265:164|296:165,1,52.5000020027161,2|2,0:0|0:0,0:0:0:0:
304,186,16157,1,0,0:0:0:0:
304,186,16371,2,0,P|286:206|270:230,1,52.5000020027161,2|0,0:0|0:0,0:0:0:0:
271,227,17228,6,0,L|318:235,1,39.3750015020371,2|0,0:0|0:0,0:0:0:0:
310,239,17657,2,0,L|340:245,1,26.2500010013581,2|0,0:0|0:0,0:0:0:0:
350,264,18085,2,0,P|361:244|354:227,2,39.3750015020371,2|0|0,0:0|0:0|0:0,0:0:0:0:
324,279,18943,6,0,L|277:287,1,39.3750015020371,2|0,0:0|0:0,0:0:0:0:
285,289,19372,2,0,L|259:294,1,26.2500010013581,2|0,0:0|0:0,0:0:0:0:
240,314,19800,2,0,P|229:294|236:277,2,39.3750015020371,2|0|0,0:0|0:0|0:0,0:0:0:0:
197,354,20657,6,0,B|199:342|189:336|189:336|181:305,1,52.5000020027161,2|2,0:0|0:0,0:0:0:0:
195,287,21300,1,0,0:0:0:0:
195,287,21514,2,0,B|193:275|203:269|203:269|211:238,1,52.5000020027161,2|0,0:0|0:0,0:0:0:0:
193,218,22157,1,0,0:0:0:0:
193,218,22371,2,0,B|195:206|185:200|185:200|177:169,1,52.5000020027161,2|2,0:0|0:0,0:0:0:0:
174,146,23014,1,0,0:0:0:0:
174,146,23228,2,0,B|162:144|156:154|156:154|123:161,1,52.5000020027161,2|0,0:0|0:0,0:0:0:0:
53,127,24085,6,0,P|71:124|83:107,1,39.3750015020371,2|0,0:0|0:0,0:0:0:0:
84,104,24514,2,0,P|98:96|110:100,1,26.2500010013581,2|0,0:0|0:0,0:0:0:0:
123,111,24943,2,0,B|124:121|124:121|97:139,2,39.3750015020371,2|0|0,0:0|0:0|0:0,0:0:0:0:
134,66,25800,6,0,P|152:69|164:86,1,39.3750015020371,2|0,0:0|0:0,0:0:0:0:
165,89,26229,2,0,P|179:97|191:93,1,26.2500010013581,2|0,0:0|0:0,0:0:0:0:
204,82,26658,2,0,B|205:72|205:72|178:54,2,39.3750015020371,2|0|0,0:0|0:0|0:0,0:0:0:0:
239,62,27514,6,0,B|263:65|266:46|264:44|263:42|278:19|301:34,1,70,0|8,1:0|0:0,0:0:0:0:
315,42,28157,1,0,1:0:0:0:
315,42,28371,2,0,P|318:63|278:84,1,70,8|8,0:0|0:0,0:0:0:0:
290,59,29014,1,0,1:0:0:0:
290,59,29228,5,0,1:0:0:0:
281,85,29657,2,0,L|245:93,1,35,8|0,0:0|1:0,0:0:0:0:
312,117,30085,5,8,0:0:0:0:
312,117,30407,5,0,0:0:0:0:
340,123,30728,5,0,0:0:0:0:
368,131,30943,6,0,B|372:164|372:164|376:166|376:166|380:203,1,70,0|8,1:0|0:0,0:0:0:0:
401,217,31585,1,0,1:0:0:0:
401,217,31800,2,0,B|397:250|397:250|393:252|393:252|389:289,1,70,8|8,0:0|0:0,0:0:0:0:
372,303,32443,5,0,1:0:0:0:
372,303,32657,1,0,1:0:0:0:
356,330,33085,2,0,P|339:311|342:297,1,35,8|0,0:0|1:0,0:0:0:0:
361,276,33514,5,8,0:0:0:0:
337,280,33835,5,0,0:0:0:0:
312,284,34157,5,0,0:0:0:0:
291,264,34371,6,0,B|263:255|249:280|249:280|255:295|231:304,1,70,0|8,1:0|0:0,0:0:0:0:
227,280,35014,1,0,1:0:0:0:
227,280,35228,2,0,L|221:203,1,70,8|8,0:0|0:0,0:0:0:0:
238,194,35871,1,0,1:0:0:0:
238,194,36085,1,0,1:0:0:0:
221,210,36514,6,0,B|206:212|206:212|205:211|205:211|185:215,1,35,8|0,0:0|1:0,0:0:0:0:
166,206,36943,5,8,0:0:0:0:
166,206,37264,5,0,0:0:0:0:
170,173,37585,5,0,0:0:0:0:
172,141,37800,6,0,B|153:114|153:114|169:72,1,70,0|8,1:0|0:0,0:0:0:0:
207,85,38443,1,0,1:0:0:0:
207,85,38657,2,0,B|220:50|220:50|201:23,1,70,8|8,0:0|0:0,0:0:0:0:
183,12,39300,1,0,1:0:0:0:
183,12,39514,1,0,1:0:0:0:
233,31,39943,6,0,P|255:26|259:7,1,35,8|0,0:0|1:0,0:0:0:0:
279,0,40371,5,8,0:0:0:0:
309,4,40693,5,0,0:0:0:0:
338,9,41014,5,0,0:0:0:0:
370,34,41228,6,0,B|371:75|340:57|339:101,1,70,2|10,1:2|0:2,0:0:0:0:
357,110,41871,1,0,1:2:0:0:
357,110,42085,2,0,B|356:151|387:133|388:177,1,70,10|8,0:2|0:2,0:0:0:0:
374,186,42728,1,0,1:2:0:0:
374,186,42942,2,0,B|375:227|344:209|343:253,1,70,2|10,1:2|0:2,0:0:0:0:
357,265,43585,1,0,1:2:0:0:
357,265,43800,5,10,0:2:0:0:
357,265,44121,5,0,3:3:0:0:
391,257,44443,5,0,0:0:0:0:
423,249,44657,6,0,L|484:260,1,52.5,2|0,1:2|0:0,0:0:0:0:
475,262,45085,2,0,L|511:254,1,35,10|0,0:2|1:2,0:0:0:0:
510,230,45514,1,10,0:2:0:0:
510,230,45943,2,0,L|470:239,1,35,0|0,0:0|1:2,0:0:0:0:
454,229,46371,6,0,L|465:168,1,52.5,2|0,1:2|0:0,0:0:0:0:
467,177,46799,2,0,L|459:141,1,35,10|0,0:2|1:2,0:0:0:0:
441,125,47228,5,10,0:2:0:0:
411,119,47550,5,0,3:3:0:0:
382,114,47871,5,0,0:0:0:0:
342,91,48085,6,0,B|371:96|385:74|385:74|373:79|362:71,1,70,2|10,1:2|0:2,0:0:0:0:
344,62,48728,1,0,1:2:0:0:
344,62,48943,2,0,B|370:46|363:19|363:19|358:31|344:33,1,70,10|8,0:2|0:2,0:0:0:0:
324,40,49585,1,0,1:2:0:0:
324,40,49800,2,0,B|332:10|307:-2|307:-2|312:9|304:20,1,70,2|10,1:2|0:2,0:0:0:0:
286,35,50443,1,0,1:2:0:0:
286,35,50658,5,10,0:2:0:0:
286,35,50979,5,0,3:3:0:0:
253,28,51301,5,0,0:0:0:0:
218,23,51514,6,0,B|212:29|212:29|222:74,1,52.5,2|0,1:2|0:0,0:0:0:0:
210,90,51943,2,0,B|216:96|216:96|209:125,1,35,10|0,0:2|1:2,0:0:0:0:
189,142,52371,1,10,0:0:0:0:
189,142,52800,2,0,P|180:124|187:112,1,35
171,93,53228,6,0,B|165:99|165:99|120:89,1,52.5,2|0,1:2|0:0,0:0:0:0:
108,73,53657,2,0,B|102:67|102:67|64:75,1,35,10|0,0:2|1:2,0:0:0:0:
63,92,54085,5,10,0:2:0:0:
68,121,54407,5,0,3:3:0:0:
72,150,54728,5,0,0:0:0:0:
256,192,54782,12,0,56228,0:0:0:0:
