osu file format v14

[General]
AudioFilename: audio.mp3
AudioLeadIn: 0
PreviewTime: 27514
Countdown: 0
SampleSet: Soft
StackLeniency: 0.7
Mode: 0
LetterboxInBreaks: 0
WidescreenStoryboard: 1

[Editor]
DistanceSpacing: 0.9
BeatDivisor: 4
GridSize: 32
TimelineZoom: 1

[Metadata]
Title:Uwa!! So Temperate
TitleUnicode:Uwa!! So Temperateā™«
Artist:toby fox
ArtistUnicode:toby fox
Creator:atlas-
Version:bluirre's hard
Source:UNDERTALE
Tags:video game instrumental "radiation" videogame soundtrack ost aeniko bluirre wanpachi
BeatmapID:3535358
BeatmapSetID:1729139

[Difficulty]
HPDrainRate:6
CircleSize:8.5
OverallDifficulty:6
ApproachRate:6
SliderMultiplier:2
SliderTickRate:0.5

[Events]
//Background and Video events
0,0,"frisk.jpg",0,0
//Break Periods
//Storyboard Layer 0 (Background)
//Storyboard Layer 1 (Fail)
//Storyboard Layer 2 (Pass)
//Storyboard Layer 3 (Foreground)
//Storyboard Layer 4 (Overlay)
//Storyboard Sound Samples
Sample,86,3,"audio/waves.ogg",100
Sample,41228,3,"audio/waves.ogg",100

[TimingPoints]
86,857.142857142857,4,2,1,60,1,0
86,-133.333333333333,4,2,1,60,0,0
514,-133.333333333333,4,2,2,60,0,0
943,-133.333333333333,4,2,3,60,0,0
1264,-133.333333333333,4,2,3,5,0,0
1371,-133.333333333333,4,2,3,60,0,0
1800,-133.333333333333,4,2,1,60,0,0
2228,-133.333333333333,4,2,2,60,0,0
2657,-133.333333333333,4,2,3,60,0,0
3514,-133.333333333333,4,2,4,60,0,0
3835,-133.333333333333,4,2,4,5,0,0
3943,-133.333333333333,4,2,5,60,0,0
4371,-133.333333333333,4,2,6,60,0,0
5228,-133.333333333333,4,2,4,60,0,0
5550,-133.333333333333,4,2,4,5,0,0
5657,-133.333333333333,4,2,5,60,0,0
6085,-133.333333333333,4,2,11,60,0,0
6943,-133.333333333333,4,2,1,60,0,0
7371,-133.333333333333,4,2,2,60,0,0
7800,-133.333333333333,4,2,3,60,0,0
8121,-133.333333333333,4,2,3,5,0,0
8228,-133.333333333333,4,2,3,60,0,0
8657,-133.333333333333,4,2,1,60,0,0
9085,-133.333333333333,4,2,2,60,0,0
9514,-133.333333333333,4,2,3,60,0,0
10371,-133.333333333333,4,2,7,60,0,0
10693,-133.333333333333,4,2,7,5,0,0
10800,-133.333333333333,4,2,8,60,0,0
11228,-133.333333333333,4,2,9,60,0,0
12085,-133.333333333333,4,2,7,60,0,0
12407,-133.333333333333,4,2,7,5,0,0
12514,-133.333333333333,4,2,8,60,0,0
12943,-133.333333333333,4,2,10,60,0,0
13800,-133.333333333333,4,2,1,60,0,0
14228,-133.333333333333,4,2,2,60,0,0
14657,-133.333333333333,4,2,3,60,0,0
14978,-133.333333333333,4,2,3,5,0,0
15085,-133.333333333333,4,2,3,60,0,0
15514,-133.333333333333,4,2,1,60,0,0
15942,-133.333333333333,4,2,2,60,0,0
16371,-133.333333333333,4,2,3,60,0,0
17228,-133.333333333333,4,2,4,60,0,0
17550,-133.333333333333,4,2,4,5,0,0
17657,-133.333333333333,4,2,5,60,0,0
18085,-133.333333333333,4,2,6,60,0,0
18942,-133.333333333333,4,2,4,60,0,0
19264,-133.333333333333,4,2,4,5,0,0
19371,-133.333333333333,4,2,5,60,0,0
19799,-133.333333333333,4,2,11,60,0,0
20657,-133.333333333333,4,2,1,60,0,0
21085,-133.333333333333,4,2,2,60,0,0
21514,-133.333333333333,4,2,3,60,0,0
21835,-133.333333333333,4,2,3,5,0,0
21943,-133.333333333333,4,2,3,60,0,0
22371,-133.333333333333,4,2,1,60,0,0
22799,-133.333333333333,4,2,2,60,0,0
23228,-133.333333333333,4,2,3,60,0,0
24085,-133.333333333333,4,2,7,60,0,0
24407,-133.333333333333,4,2,7,5,0,0
24514,-133.333333333333,4,2,8,60,0,0
24942,-133.333333333333,4,2,9,60,0,0
25799,-133.333333333333,4,2,7,60,0,0
26121,-133.333333333333,4,2,7,5,0,0
26228,-133.333333333333,4,2,8,60,0,0
26657,-133.333333333333,4,2,10,60,0,0
27514,-117.647058823529,4,2,1,50,0,0
41228,-117.647058823529,4,2,1,70,0,0
41550,-117.647058823529,4,2,1,5,0,0
41656,-117.647058823529,4,2,2,60,0,0
42085,-117.647058823529,4,2,3,60,0,0
42407,-117.647058823529,4,2,3,5,0,0
42514,-117.647058823529,4,2,3,60,0,0
42942,-117.647058823529,4,2,1,60,0,0
43264,-117.647058823529,4,2,1,5,0,0
43370,-117.647058823529,4,2,2,60,0,0
43799,-117.647058823529,4,2,3,60,0,0
44656,-117.647058823529,4,2,4,60,0,0
44978,-117.647058823529,4,2,4,5,0,0
45085,-117.647058823529,4,2,5,60,0,0
45513,-117.647058823529,4,2,6,60,0,0
46370,-117.647058823529,4,2,4,60,0,0
46693,-117.647058823529,4,2,4,5,0,0
46799,-117.647058823529,4,2,5,60,0,0
47227,-117.647058823529,4,2,11,60,0,0
48085,-117.647058823529,4,2,1,60,0,0
48407,-117.647058823529,4,2,1,5,0,0
48513,-117.647058823529,4,2,2,60,0,0
48942,-117.647058823529,4,2,3,60,0,0
49264,-117.647058823529,4,2,3,5,0,0
49371,-117.647058823529,4,2,3,60,0,0
49799,-117.647058823529,4,2,1,60,0,0
50121,-117.647058823529,4,2,1,5,0,0
50227,-117.647058823529,4,2,2,60,0,0
50656,-117.647058823529,4,2,3,60,0,0
51513,-117.647058823529,4,2,7,60,0,0
51835,-117.647058823529,4,2,7,5,0,0
51942,-117.647058823529,4,2,8,60,0,0
52370,-117.647058823529,4,2,9,60,0,0
53227,-117.647058823529,4,2,7,60,0,0
53550,-117.647058823529,4,2,7,5,0,0
53656,-117.647058823529,4,2,8,60,0,0
54085,-117.647058823529,4,2,10,60,0,0
54407,-117.647058823529,4,2,10,30,0,0
54943,-117.647058823529,4,2,10,15,0,0
55585,-117.647058823529,4,2,10,10,0,0
56228,-117.647058823529,4,2,10,5,0,0

[Colours]
Combo1 : 128,128,255
Combo2 : 22,122,175
Combo3 : 171,202,254
Combo4 : 0,64,128

[HitObjects]
74,13,86,6,0,P|92:13|111:16,1,37.5000014305115,2|0,0:0|0:0,0:0:0:0:
143,6,514,2,0,P|162:8|182:9,1,37.5000014305115,2|0,0:0|0:0,0:0:0:0:
214,6,943,1,2,0:0:0:0:
253,60,1371,2,0,P|241:75|230:92,1,37.5000014305115
217,122,1800,1,2,0:0:0:0:
149,116,2228,2,0,P|141:97|132:80,1,37.5000014305115,2|0,0:0|0:0,0:0:0:0:
103,65,2657,2,0,B|59:58|73:90|28:82,1,75.0000028610231,2|0,0:0|0:0,0:0:0:0:
33,83,3514,6,0,P|30:102|35:164,1,75.0000028610231,2|2,0:0|0:0,0:0:0:0:
58,184,4157,1,0,0:0:0:0:
58,184,4371,2,0,B|101:177|87:209|132:201,1,75.0000028610231,2|0,0:0|0:0,0:0:0:0:
166,146,5228,2,0,P|185:143|247:148,1,75.0000028610231,2|2,0:0|0:0,0:0:0:0:
267,171,5871,1,0,0:0:0:0:
267,171,6085,2,0,B|260:214|292:200|284:245,1,75.0000028610231,2|0,0:0|0:0,0:0:0:0:
275,308,6943,6,0,P|256:307|237:304,1,37.5000014305115,2|0,0:0|0:0,0:0:0:0:
206,315,7371,2,0,P|186:312|167:312,1,37.5000014305115,2|0,0:0|0:0,0:0:0:0:
135,315,7800,1,2,0:0:0:0:
96,261,8228,2,0,P|107:245|118:228,1,37.5000014305115
132,199,8657,1,2,0:0:0:0:
200,205,9085,2,0,P|207:223|216:240,1,37.5000014305115,2|0,0:0|0:0,0:0:0:0:
246,256,9514,2,0,B|289:262|275:230|320:238,1,75.0000028610231,2|0,0:0|0:0,0:0:0:0:
315,237,10371,6,0,B|317:274|317:274|314:311,1,75.0000028610231,2|2,0:0|0:0,0:0:0:0:
286,329,11014,1,0,0:0:0:0:
286,329,11228,2,0,B|329:322|315:354|360:346,1,75.0000028610231,2|0,0:0|0:0,0:0:0:0:
423,339,12085,2,0,B|420:301|420:301|423:264,1,75.0000028610231,2|2,0:0|0:0,0:0:0:0:
452,247,12728,1,0,0:0:0:0:
452,247,12942,2,0,B|408:253|422:221|377:229,1,75.0000028610231,2|0,0:0|0:0,0:0:0:0:
317,207,13800,6,0,P|317:188|320:169,1,37.5000014305115,2|0,0:0|0:0,0:0:0:0:
310,138,14228,2,0,P|312:118|313:99,1,37.5000014305115,2|0,0:0|0:0,0:0:0:0:
302,68,14657,1,2,0:0:0:0:
369,58,15085,2,0,P|350:65|333:74,1,37.5000014305115
312,100,15514,1,2,0:0:0:0:
271,46,15943,2,0,P|286:57|303:68,1,37.5000014305115,2|0,0:0|0:0,0:0:0:0:
334,73,16371,2,0,B|377:66|363:98|408:90,1,75.0000028610231,2|0,0:0|0:0,0:0:0:0:
467,66,17228,6,0,P|464:85|469:147,1,75.0000028610231,2|2,0:0|0:0,0:0:0:0:
452,171,17871,1,0,0:0:0:0:
452,171,18085,2,0,B|408:164|422:196|377:188,1,75.0000028610231,2|0,0:0|0:0,0:0:0:0:
328,231,18943,2,0,P|325:211|330:150,1,75.0000028610231,2|2,0:0|0:0,0:0:0:0:
313,126,19586,1,0,0:0:0:0:
313,126,19800,2,0,B|269:132|283:100|238:108,1,75.0000028610231,2|0,0:0|0:0,0:0:0:0:
192,153,20657,6,0,P|173:153|154:156,1,37.5000014305115,2|0,0:0|0:0,0:0:0:0:
123,146,21085,2,0,P|103:148|84:149,1,37.5000014305115,2|0,0:0|0:0,0:0:0:0:
52,146,21514,1,2,0:0:0:0:
13,200,21942,2,0,P|24:215|35:232,1,37.5000014305115
49,262,22371,1,2,0:0:0:0:
117,256,22799,2,0,P|124:237|133:220,1,37.5000014305115,2|0,0:0|0:0,0:0:0:0:
163,205,23228,2,0,B|206:198|192:230|237:222,1,75.0000028610231,2|0,0:0|0:0,0:0:0:0:
276,274,24085,6,0,B|273:311|273:311|276:348,1,75.0000028610231,2|2,0:0|0:0,0:0:0:0:
305,366,24728,1,0,0:0:0:0:
305,366,24942,2,0,B|261:359|275:391|230:383,1,75.0000028610231,2|0,0:0|0:0,0:0:0:0:
169,366,25799,2,0,B|166:328|166:328|169:291,1,75.0000028610231,2|2,0:0|0:0,0:0:0:0:
198,274,26442,1,0,0:0:0:0:
198,274,26656,2,0,B|132:283|153:236|86:247,1,112.500004291535,2|0,0:0|0:0,0:0:0:0:
56,259,27514,6,0,P|66:294|68:352,1,85.0000016212464,0|8,1:0|0:0,0:0:0:0:
52,377,28157,1,0,1:0:0:0:
52,377,28371,2,0,P|137:366|225:356,1,170.000003242493,8|0,0:0|1:0,0:0:0:0:
291,327,29657,2,0,P|277:305|284:270,1,42.5000008106232,8|0,0:0|1:0,0:0:0:0:
307,267,30085,2,0,B|323:276|323:276|384:272,2,63.7500012159348,8|0|0,0:0|0:0|0:0,0:0:0:0:
274,245,30943,6,0,P|284:210|286:152,1,85.0000016212464,0|8,1:0|0:0,0:0:0:0:
280,125,31586,1,0,1:0:0:0:
280,125,31800,2,0,P|365:136|453:146,1,170.000003242493,8|0,0:0|1:0,0:0:0:0:
486,79,33086,2,0,P|500:57|493:22,1,42.5000008106232,8|0,0:0|1:0,0:0:0:0:
463,49,33514,2,0,B|447:58|447:58|386:54,2,63.7500012159348,8|0|0,0:0|0:0|0:0,0:0:0:0:
452,12,34371,6,0,P|417:2|359:0,1,85.0000016212464,0|8,1:0|0:0,0:0:0:0:
334,15,35014,1,0,1:0:0:0:
334,15,35228,2,0,P|323:100|313:188,1,170.000003242493,8|0,0:0|1:0,0:0:0:0:
338,256,36514,2,0,P|316:270|281:263,1,42.5000008106232,8|0,0:0|1:0,0:0:0:0:
272,244,36942,2,0,B|281:260|281:260|277:321,2,63.7500012159348,8|0|0,0:0|0:0|0:0,0:0:0:0:
251,211,37800,6,0,P|216:221|158:223,1,85.0000016212464,0|8,1:0|0:0,0:0:0:0:
133,209,38443,1,0,1:0:0:0:
105,236,38657,2,0,B|100:249|100:249|105:347,1,85.0000016212464,8|8,0:0|0:0,0:0:0:0:
165,365,39514,2,0,P|185:362|202:350,1,42.5000008106232,0|0,1:0|0:0,0:0:0:0:
224,318,39943,2,0,P|241:305|261:303,1,42.5000008106232,8|0,0:0|1:0,0:0:0:0:
288,331,40371,2,0,B|279:315|279:315|283:254,2,63.7500012159348,8|0|0,0:0|0:0|0:0,0:0:0:0:
325,337,41228,6,0,P|347:337|368:340,1,42.5000008106232,2|0,1:2|0:0,0:0:0:0:
389,309,41656,2,0,P|412:311|434:312,1,42.5000008106232,10|0,0:2|1:2,0:0:0:0:
465,295,42085,1,10,0:2:0:0:
496,227,42514,2,0,P|481:245|470:264,1,42.5000008106232,8|0,0:2|1:2,0:0:0:0:
465,295,42943,1,2,1:2:0:0:
499,370,43371,2,0,P|489:348|479:328,1,42.5000008106232,10|0,0:2|1:2,0:0:0:0:
465,295,43799,2,0,B|428:289|440:316|402:309,1,63.7500012159348,10|0,0:2|3:3,0:0:0:0:
312,293,44656,6,0,P|309:269|314:197,1,85.0000016212464,2|10,1:2|0:2,0:0:0:0:
324,173,45299,1,0,1:2:0:0:
324,173,45513,2,0,B|272:165|289:202|236:193,1,85.0000016212464,10|0,0:2|0:0,0:0:0:0:
244,194,46370,2,0,P|241:170|246:98,1,85.0000016212464,2|10,1:2|0:2,0:0:0:0:
244,72,47013,1,0,1:2:0:0:
244,72,47227,2,0,B|280:77|268:50|306:57,1,63.7500012159348,10|0,0:2|3:3,0:0:0:0:
383,110,48085,6,0,P|383:132|386:153,1,42.5000008106232,2|0,1:2|0:0,0:0:0:0:
415,176,48513,2,0,P|417:199|418:221,1,42.5000008106232,10|0,0:2|1:2,0:0:0:0:
404,252,48942,1,10,0:2:0:0:
341,208,49371,2,0,P|359:193|378:182,1,42.5000008106232,8|0,0:2|1:2,0:0:0:0:
415,176,49800,1,2,1:2:0:0:
404,252,50228,2,0,P|382:242|362:232,1,42.5000008106232,10|0,0:2|1:2,0:0:0:0:
328,244,50656,2,0,B|322:280|349:268|342:306,1,63.7500012159348,10|0,0:2|3:3,0:0:0:0:
276,372,51513,6,0,P|252:369|180:374,1,85.0000016212464,2|10,1:2|0:2,0:0:0:0:
171,339,52156,1,0,1:2:0:0:
171,339,52370,2,0,B|163:287|200:304|191:251,1,85.0000016212464,10|0,0:0|0:0,0:0:0:0:
218,187,53227,2,0,P|242:184|314:189,1,85.0000016212464,2|10,1:2|0:2,0:0:0:0:
340,202,53870,1,0,1:2:0:0:
340,202,54084,2,0,B|335:166|362:178|355:140,1,63.7500012159348,10|0,0:2|3:3,0:0:0:0:
256,192,54514,12,0,56228,0:0:0:0:
