osu file format v14

[General]
AudioFilename: audio.mp3
AudioLeadIn: 0
PreviewTime: 13804
Countdown: 0
SampleSet: None
StackLeniency: 0.7
Mode: 0
LetterboxInBreaks: 0
WidescreenStoryboard: 1

[Editor]
DistanceSpacing: 1
BeatDivisor: 4
GridSize: 4
TimelineZoom: 1

[Metadata]
Title:Uwa!! So Temperate
TitleUnicode:Uwa!! So Temperateā™«
Artist:toby fox
ArtistUnicode:toby fox
Creator:DaxMasterix
Version:Easy
Source:Undertale
Tags:radiation
BeatmapID:1475151
BeatmapSetID:696382

[Difficulty]
HPDrainRate:2
CircleSize:3
OverallDifficulty:3
ApproachRate:4
SliderMultiplier:1.2
SliderTickRate:2

[Events]
//Background and Video events
0,0,"BG.jpg",0,0
//Break Periods
//Storyboard Layer 0 (Background)
//Storyboard Layer 1 (Fail)
//Storyboard Layer 2 (Pass)
//Storyboard Layer 3 (Foreground)
//Storyboard Sound Samples

[TimingPoints]
90.470588235294,857.142857142857,4,2,0,40,1,0

[Colours]
Combo1 : 255,255,128
Combo2 : 128,255,128
Combo3 : 128,255,255
Combo4 : 255,128,128

[HitObjects]
96,88,90,6,0,P|128:104|160:112,1,60
212,112,947,1,2,0:0:0:0:
324,68,1804,2,0,P|356:52|388:44,1,60
440,44,2661,1,2,0:0:0:0:
476,160,3519,6,0,P|478:188|476:228,1,60
456,276,4376,1,2,0:0:0:0:
336,264,5233,2,0,P|317:285|287:312,1,60
239,331,6090,1,2,0:0:0:0:
120,332,6947,6,0,P|84:304|72:284,1,60
60,236,7804,1,2,0:0:0:0:
172,196,8661,2,0,P|208:168|220:148,1,60
232,100,9519,1,2,0:0:0:0:
348,76,10376,6,0,P|396:76|420:80,1,60
464,96,11233,1,2,0:0:0:0:
476,216,12090,2,0,P|428:216|404:212,1,60
360,196,12947,1,2,0:0:0:0:
256,132,13804,6,0,P|220:120|188:120,1,60
140,128,14661,1,2,0:0:0:0:
72,228,15519,2,0,P|68:268|68:300,1,60
96,340,16376,1,2,0:0:0:0:
216,344,17233,6,0,P|260:332|280:324,1,60
324,292,18090,1,2,0:0:0:0:
444,296,18947,2,0,P|466:256|475:236,1,60
483,182,19804,1,2,0:0:0:0:
408,88,20661,6,0,P|368:92|336:100,1,60
296,124,21519,1,2,0:0:0:0:
192,184,22376,2,0,P|152:180|120:172,1,60
80,148,23233,1,2,0:0:0:0:
256,192,24090,12,2,26661,0:0:0:0:
284,196,27519,6,0,P|324:176|392:120,1,120,0|2,0:0|0:0,0:0:0:0:
408,76,28804,1,0,0:0:0:0:
288,56,29661,1,0,0:0:0:0:
236,88,30090,1,2,0:0:0:0:
176,100,30519,1,0,0:0:0:0:
116,88,30947,6,0,P|88:140|80:208,1,120,0|2,0:0|0:0,0:0:0:0:
92,260,32233,1,0,0:0:0:0:
184,336,33090,1,0,0:0:0:0:
240,320,33519,1,2,0:0:0:0:
296,336,33947,1,0,0:0:0:0:
352,320,34376,6,0,P|412:296|460:264,1,120,0|2,0:0|0:0,0:0:0:0:
484,212,35661,1,0,0:0:0:0:
448,96,36519,1,0,0:0:0:0:
396,124,36947,1,2,0:0:0:0:
340,104,37376,1,0,0:0:0:0:
280,100,37804,6,0,P|224:116|160:124,1,120,0|2,0:0|0:0,0:0:0:0:
104,120,39090,1,0,0:0:0:0:
84,240,39947,1,0,0:0:0:0:
128,284,40376,1,2,0:0:0:0:
184,304,40804,1,0,0:0:0:0:
244,308,41233,6,0,P|280:316|316:320,1,60
364,312,42090,1,2,0:0:0:0:
420,288,42519,1,0,0:0:0:0:
456,240,42947,2,0,P|464:204|468:168,1,60
460,120,43804,1,2,0:0:0:0:
336,100,44661,6,0,P|280:96|264:96,1,60
216,96,45519,1,2,0:0:0:0:
180,208,46376,2,0,P|124:204|108:204,1,60
60,204,47233,1,2,0:0:0:0:
24,316,48090,6,0,P|56:328|92:332,1,60
140,324,48947,1,2,0:0:0:0:
200,316,49376,1,0,0:0:0:0:
260,304,49804,2,0,P|292:292|328:288,1,60
376,296,50661,1,2,0:0:0:0:
460,212,51519,6,0,P|468:168|468:148,1,60
456,92,52376,1,2,0:0:0:0:
344,48,53233,2,0,P|336:92|336:112,1,60
348,168,54090,1,2,0:0:0:0:
