osu file format v14

[General]
AudioFilename: audio.mp3
AudioLeadIn: 0
PreviewTime: 105
Countdown: 0
SampleSet: Soft
StackLeniency: 0.3
Mode: 0
LetterboxInBreaks: 0
WidescreenStoryboard: 1

[Editor]
DistanceSpacing: 6
BeatDivisor: 8
GridSize: 8
TimelineZoom: 0.9

[Metadata]
Title:Uwa!! So Holiday
TitleUnicode:Uwa!! So Holiday♫
Artist:toby fox
ArtistUnicode:toby fox
Creator:bluirre
Version:hard
Source:UNDERTALE
Tags:video game instrumental ost original soundtrack radiation chiptune calm peaceful slow sleep quiet
BeatmapID:3208546
BeatmapSetID:1570222

[Difficulty]
HPDrainRate:4
CircleSize:5.5
OverallDifficulty:6
ApproachRate:7
SliderMultiplier:0.400000005960464
SliderTickRate:1

[Events]
//Background and Video events
0,0,"frisk.jpg",0,0
//Break Periods
//Storyboard Layer 0 (Background)
Sprite,Background,Centre,"cir.png",320,312 S,2,105,1105,0.15,0.03 F,2,105,1105,1,0 P,0,105,1105,A C,0,105,,40,113,125
Sprite,Background,Centre,"cir.png",320,184 S,2,533,1533,0.15,0.03 F,2,533,1533,1,0 P,0,533,1533,A C,0,533,,40,113,125
Sprite,Background,Centre,"cir.png",320,248 S,2,747,1747,0.15,0.03 F,2,747,1747,1,0 P,0,747,1747,A C,0,747,,40,113,125
Sprite,Background,Centre,"cir.png",320,312 S,2,962,1962,0.15,0.03 F,2,962,1962,1,0 P,0,962,1962,A C,0,962,,40,113,125
Sprite,Background,Centre,"cir.png",384,200 S,2,1390,2390,0.15,0.03 F,2,1390,2390,1,0 P,0,1390,2390,A C,0,1390,,40,113,125
Sprite,Background,Centre,"cir.png",384,248 S,2,1604,2604,0.15,0.03 F,2,1604,2604,1,0 P,0,1604,2604,A C,0,1604,,40,113,125
Sprite,Background,Centre,"cir.png",384,296 S,2,1819,2819,0.15,0.03 F,2,1819,2819,1,0 P,0,1819,2819,A C,0,1819,,40,113,125
Sprite,Background,Centre,"cir.png",448,216 S,2,2247,3247,0.15,0.03 F,2,2247,3247,1,0 P,0,2247,3247,A C,0,2247,,40,113,125
Sprite,Background,Centre,"cir.png",448,248 S,2,2461,3461,0.15,0.03 F,2,2461,3461,1,0 P,0,2461,3461,A C,0,2461,,40,113,125
Sprite,Background,Centre,"cir.png",448,280 S,2,2676,3676,0.15,0.03 F,2,2676,3676,1,0 P,0,2676,3676,A C,0,2676,,40,113,125
Sprite,Background,Centre,"cir.png",320,248 S,2,3533,4533,0.15,0.03 F,2,3533,4533,1,0 P,0,3533,4533,A C,0,3533,,84,169,146
Sprite,Background,Centre,"cir.png",512,248 S,2,3962,4962,0.15,0.03 F,2,3962,4962,1,0 P,0,3962,4962,A C,0,3962,,84,169,146
Sprite,Background,Centre,"cir.png",448,248 S,2,4176,5176,0.15,0.03 F,2,4176,5176,1,0 P,0,4176,5176,A C,0,4176,,84,169,146
Sprite,Background,Centre,"cir.png",384,296 S,2,4390,5390,0.15,0.03 F,2,4390,5390,1,0 P,0,4390,5390,A C,0,4390,,84,169,146
Sprite,Background,Centre,"cir.png",320,312 S,2,5247,6247,0.15,0.03 F,2,5247,6247,1,0 P,0,5247,6247,A C,0,5247,,84,169,146
Sprite,Background,Centre,"cir.png",128,248 S,2,5676,6676,0.15,0.03 F,2,5676,6676,1,0 P,0,5676,6676,A C,0,5676,,84,169,146
Sprite,Background,Centre,"cir.png",192,248 S,2,5890,6890,0.15,0.03 F,2,5890,6890,1,0 P,0,5890,6890,A C,0,5890,,84,169,146
Sprite,Background,Centre,"cir.png",320,184 S,2,6104,7104,0.15,0.03 F,2,6104,7104,1,0 P,0,6104,7104,A C,0,6104,,84,169,146
Sprite,Background,Centre,"cir.png",320,184 S,2,6962,7962,0.15,0.03 F,2,6962,7962,1,0 P,0,6962,7962,A C,0,6962,,153,228,120
Sprite,Background,Centre,"cir.png",320,312 S,2,7390,8390,0.15,0.03 F,2,7390,8390,1,0 P,0,7390,8390,A C,0,7390,,153,228,120
Sprite,Background,Centre,"cir.png",320,248 S,2,7604,8604,0.15,0.03 F,2,7604,8604,1,0 P,0,7604,8604,A C,0,7604,,153,228,120
Sprite,Background,Centre,"cir.png",320,184 S,2,7819,8819,0.15,0.03 F,2,7819,8819,1,0 P,0,7819,8819,A C,0,7819,,153,228,120
Sprite,Background,Centre,"cir.png",256,296 S,2,8247,9247,0.15,0.03 F,2,8247,9247,1,0 P,0,8247,9247,A C,0,8247,,153,228,120
Sprite,Background,Centre,"cir.png",256,248 S,2,8461,9461,0.15,0.03 F,2,8461,9461,1,0 P,0,8461,9461,A C,0,8461,,153,228,120
Sprite,Background,Centre,"cir.png",256,200 S,2,8676,9676,0.15,0.03 F,2,8676,9676,1,0 P,0,8676,9676,A C,0,8676,,153,228,120
Sprite,Background,Centre,"cir.png",192,280 S,2,9104,10104,0.15,0.03 F,2,9104,10104,1,0 P,0,9104,10104,A C,0,9104,,153,228,120
Sprite,Background,Centre,"cir.png",192,248 S,2,9318,10318,0.15,0.03 F,2,9318,10318,1,0 P,0,9318,10318,A C,0,9318,,153,228,120
Sprite,Background,Centre,"cir.png",192,216 S,2,9533,10533,0.15,0.03 F,2,9533,10533,1,0 P,0,9533,10533,A C,0,9533,,153,228,120
Sprite,Background,Centre,"cir.png",320,248 S,2,10390,11390,0.15,0.03 F,2,10390,11390,1,0 P,0,10390,11390,A C,0,10390,,40,113,125
Sprite,Background,Centre,"cir.png",128,248 S,2,10819,11819,0.15,0.03 F,2,10819,11819,1,0 P,0,10819,11819,A C,0,10819,,40,113,125
Sprite,Background,Centre,"cir.png",192,248 S,2,11033,12033,0.15,0.03 F,2,11033,12033,1,0 P,0,11033,12033,A C,0,11033,,40,113,125
Sprite,Background,Centre,"cir.png",256,296 S,2,11247,12247,0.15,0.03 F,2,11247,12247,1,0 P,0,11247,12247,A C,0,11247,,40,113,125
Sprite,Background,Centre,"cir.png",320,248 S,2,12104,13104,0.15,0.03 F,2,12104,13104,1,0 P,0,12104,13104,A C,0,12104,,40,113,125
Sprite,Background,Centre,"cir.png",512,248 S,2,12533,13533,0.15,0.03 F,2,12533,13533,1,0 P,0,12533,13533,A C,0,12533,,40,113,125
Sprite,Background,Centre,"cir.png",448,248 S,2,12747,13747,0.15,0.03 F,2,12747,13747,1,0 P,0,12747,13747,A C,0,12747,,40,113,125
Sprite,Background,Centre,"cir.png",320,184 S,2,12961,13961,0.15,0.03 F,2,12961,13961,1,0 P,0,12961,13961,A C,0,12961,,40,113,125
Sprite,Background,Centre,"cir.png",320,312 S,2,13819,14819,0.15,0.03 F,2,13819,14819,1,0 P,0,13819,14819,A C,0,13819,,84,169,146
Sprite,Background,Centre,"cir.png",320,184 S,2,14247,15247,0.15,0.03 F,2,14247,15247,1,0 P,0,14247,15247,A C,0,14247,,84,169,146
Sprite,Background,Centre,"cir.png",320,248 S,2,14461,15461,0.15,0.03 F,2,14461,15461,1,0 P,0,14461,15461,A C,0,14461,,84,169,146
Sprite,Background,Centre,"cir.png",320,312 S,2,14676,15676,0.15,0.03 F,2,14676,15676,1,0 P,0,14676,15676,A C,0,14676,,84,169,146
Sprite,Background,Centre,"cir.png",256,200 S,2,15104,16104,0.15,0.03 F,2,15104,16104,1,0 P,0,15104,16104,A C,0,15104,,84,169,146
Sprite,Background,Centre,"cir.png",256,248 S,2,15318,16318,0.15,0.03 F,2,15318,16318,1,0 P,0,15318,16318,A C,0,15318,,84,169,146
Sprite,Background,Centre,"cir.png",256,296 S,2,15533,16533,0.15,0.03 F,2,15533,16533,1,0 P,0,15533,16533,A C,0,15533,,84,169,146
Sprite,Background,Centre,"cir.png",192,216 S,2,15961,16961,0.15,0.03 F,2,15961,16961,1,0 P,0,15961,16961,A C,0,15961,,84,169,146
Sprite,Background,Centre,"cir.png",192,248 S,2,16175,17175,0.15,0.03 F,2,16175,17175,1,0 P,0,16175,17175,A C,0,16175,,84,169,146
Sprite,Background,Centre,"cir.png",192,280 S,2,16390,17390,0.15,0.03 F,2,16390,17390,1,0 P,0,16390,17390,A C,0,16390,,84,169,146
Sprite,Background,Centre,"cir.png",320,248 S,2,17247,18247,0.15,0.03 F,2,17247,18247,1,0 P,0,17247,18247,A C,0,17247,,153,228,120
Sprite,Background,Centre,"cir.png",512,266 S,2,17676,18676,0.15,0.03 F,2,17676,18676,1,0 P,0,17676,18676,A C,0,17676,,153,228,120
Sprite,Background,Centre,"cir.png",448,280 S,2,17890,18890,0.15,0.03 F,2,17890,18890,1,0 P,0,17890,18890,A C,0,17890,,153,228,120
Sprite,Background,Centre,"cir.png",320,312 S,2,18104,19104,0.15,0.03 F,2,18104,19104,1,0 P,0,18104,19104,A C,0,18104,,153,228,120
Sprite,Background,Centre,"cir.png",320,248 S,2,18962,19962,0.15,0.03 F,2,18962,19962,1,0 P,0,18962,19962,A C,0,18962,,153,228,120
Sprite,Background,Centre,"cir.png",128,230 S,2,19390,20390,0.15,0.03 F,2,19390,20390,1,0 P,0,19390,20390,A C,0,19390,,153,228,120
Sprite,Background,Centre,"cir.png",192,248 S,2,19604,20604,0.15,0.03 F,2,19604,20604,1,0 P,0,19604,20604,A C,0,19604,,153,228,120
Sprite,Background,Centre,"cir.png",320,184 S,2,19818,20818,0.15,0.03 F,2,19818,20818,1,0 P,0,19818,20818,A C,0,19818,,153,228,120
Sprite,Background,Centre,"cir.png",320,184 S,2,20676,21676,0.15,0.03 F,2,20676,21676,1,0 P,0,20676,21676,A C,0,20676,,40,113,125
Sprite,Background,Centre,"cir.png",320,312 S,2,21104,22104,0.15,0.03 F,2,21104,22104,1,0 P,0,21104,22104,A C,0,21104,,40,113,125
Sprite,Background,Centre,"cir.png",320,248 S,2,21318,22318,0.15,0.03 F,2,21318,22318,1,0 P,0,21318,22318,A C,0,21318,,40,113,125
Sprite,Background,Centre,"cir.png",320,184 S,2,21533,22533,0.15,0.03 F,2,21533,22533,1,0 P,0,21533,22533,A C,0,21533,,40,113,125
Sprite,Background,Centre,"cir.png",384,296 S,2,21962,22962,0.15,0.03 F,2,21962,22962,1,0 P,0,21962,22962,A C,0,21962,,40,113,125
Sprite,Background,Centre,"cir.png",384,248 S,2,22175,23175,0.15,0.03 F,2,22175,23175,1,0 P,0,22175,23175,A C,0,22175,,40,113,125
Sprite,Background,Centre,"cir.png",384,200 S,2,22390,23390,0.15,0.03 F,2,22390,23390,1,0 P,0,22390,23390,A C,0,22390,,40,113,125
Sprite,Background,Centre,"cir.png",448,280 S,2,22818,23818,0.15,0.03 F,2,22818,23818,1,0 P,0,22818,23818,A C,0,22818,,40,113,125
Sprite,Background,Centre,"cir.png",448,248 S,2,23032,24032,0.15,0.03 F,2,23032,24032,1,0 P,0,23032,24032,A C,0,23032,,40,113,125
Sprite,Background,Centre,"cir.png",448,216 S,2,23247,24247,0.15,0.03 F,2,23247,24247,1,0 P,0,23247,24247,A C,0,23247,,40,113,125
Sprite,Background,Centre,"cir.png",320,248 S,2,24104,25104,0.15,0.03 F,2,24104,25104,1,0 P,0,24104,25104,A C,0,24104,,84,169,146
Sprite,Background,Centre,"cir.png",128,266 S,2,24533,25533,0.15,0.03 F,2,24533,25533,1,0 P,0,24533,25533,A C,0,24533,,84,169,146
Sprite,Background,Centre,"cir.png",192,280 S,2,24747,25747,0.15,0.03 F,2,24747,25747,1,0 P,0,24747,25747,A C,0,24747,,84,169,146
Sprite,Background,Centre,"cir.png",256,200 S,2,24961,25961,0.15,0.03 F,2,24961,25961,1,0 P,0,24961,25961,A C,0,24961,,84,169,146
Sprite,Background,Centre,"cir.png",320,248 S,2,25818,26818,0.15,0.03 F,2,25818,26818,1,0 P,0,25818,26818,A C,0,25818,,84,169,146
Sprite,Background,Centre,"cir.png",512,230 S,2,26247,27247,0.15,0.03 F,2,26247,27247,1,0 P,0,26247,27247,A C,0,26247,,84,169,146
Sprite,Background,Centre,"cir.png",448,280 S,2,26462,27462,0.15,0.03 F,2,26462,27462,1,0 P,0,26462,27462,A C,0,26462,,84,169,146
//Storyboard Layer 1 (Fail)
//Storyboard Layer 2 (Pass)
//Storyboard Layer 3 (Foreground)
//Storyboard Sound Samples

[TimingPoints]
105,857.142857142857,4,2,1,40,1,0
533,-100,4,2,1,50,0,0
1390,-100,4,2,1,40,0,0
2247,-100,4,2,1,30,0,0
3533,-100,4,2,1,45,0,0
6962,-100,4,2,1,60,0,0
7390,-100,4,2,1,50,0,0
8247,-100,4,2,1,40,0,0
9104,-100,4,2,1,30,0,0
10390,-100,4,2,1,45,0,0
13819,-100,4,2,1,60,0,0
14247,-100,4,2,1,50,0,0
15104,-100,4,2,1,40,0,0
15962,-100,4,2,1,30,0,0
17247,-100,4,2,1,45,0,0
20676,-100,4,2,1,60,0,0
21104,-100,4,2,1,50,0,0
21962,-100,4,2,1,40,0,0
22819,-100,4,2,1,30,0,0
24104,-100,4,2,1,45,0,0
26676,-100,4,2,1,60,0,0
26890,-100,4,2,1,40,0,0
27104,-100,4,2,1,40,0,0
27533,-100,4,2,1,20,0,0
28390,-100,4,2,1,20,0,0
29247,-100,4,2,1,20,0,0
30212,-100,4,2,1,10,0,0

[Colours]
Combo1 : 153,228,120
Combo2 : 40,113,125
Combo3 : 84,169,146

[HitObjects]
256,256,105,5,4,0:0:0:0:
256,128,533,1,2,0:2:0:0:
256,192,747,1,0,0:0:0:0:
256,256,962,1,2,0:1:0:0:
320,144,1390,1,2,0:2:0:0:
320,192,1604,1,0,0:0:0:0:
320,240,1819,1,2,0:1:0:0:
384,160,2247,1,2,0:2:0:0:
384,192,2461,1,0,0:0:0:0:
384,224,2676,1,2,0:1:0:0:
256,192,3533,5,4,0:0:0:0:
448,192,3962,1,0,0:0:0:0:
384,192,4176,1,0,0:0:0:0:
320,240,4390,1,2,0:2:0:0:
256,256,5247,1,2,0:1:0:0:
64,192,5676,1,0,0:0:0:0:
128,192,5890,1,0,0:0:0:0:
256,128,6104,1,2,0:2:0:0:
256,128,6962,5,4,0:0:0:0:
256,256,7390,1,2,0:2:0:0:
256,192,7604,1,0,0:0:0:0:
256,128,7819,1,2,0:1:0:0:
192,240,8247,1,2,0:2:0:0:
192,192,8461,1,0,0:0:0:0:
192,144,8676,1,2,0:1:0:0:
128,224,9104,1,2,0:2:0:0:
128,192,9318,1,0,0:0:0:0:
128,160,9533,1,2,0:1:0:0:
256,192,10390,5,4,0:0:0:0:
64,192,10819,1,0,0:0:0:0:
128,192,11033,1,0,0:0:0:0:
192,240,11247,1,2,0:2:0:0:
256,192,12104,1,2,0:1:0:0:
448,192,12533,1,0,0:0:0:0:
384,192,12747,1,0,0:0:0:0:
256,128,12961,1,2,0:2:0:0:
256,256,13819,5,4,0:0:0:0:
256,128,14247,1,2,0:2:0:0:
256,192,14461,1,0,0:0:0:0:
256,256,14676,1,2,0:1:0:0:
192,144,15104,1,2,0:2:0:0:
192,192,15318,1,0,0:0:0:0:
192,240,15533,1,2,0:1:0:0:
128,160,15961,1,2,0:2:0:0:
128,192,16175,1,0,0:0:0:0:
128,224,16390,1,2,0:1:0:0:
256,192,17247,5,4,0:0:0:0:
448,210,17676,1,0,0:0:0:0:
384,224,17890,1,0,0:0:0:0:
256,256,18104,1,2,0:2:0:0:
256,192,18962,1,2,0:1:0:0:
64,174,19390,1,0,0:0:0:0:
128,192,19604,1,0,0:0:0:0:
256,128,19818,1,2,0:2:0:0:
256,128,20676,5,4,0:0:0:0:
256,256,21104,1,2,0:2:0:0:
256,192,21318,1,0,0:0:0:0:
256,128,21533,1,2,0:1:0:0:
320,240,21962,1,2,0:2:0:0:
320,192,22175,1,0,0:0:0:0:
320,144,22390,1,2,0:1:0:0:
384,224,22818,1,2,0:2:0:0:
384,192,23032,1,0,0:0:0:0:
384,160,23247,1,2,0:1:0:0:
256,192,24104,5,4,0:0:0:0:
64,210,24533,1,0,0:0:0:0:
128,224,24747,1,0,0:0:0:0:
192,144,24961,1,2,0:2:0:0:
256,192,25818,1,2,0:1:0:0:
448,174,26247,1,0,0:0:0:0:
384,224,26462,1,0,0:0:0:0:
256,128,26676,5,6,0:2:0:0:
256,192,26890,12,0,30212,0:0:0:0:
