osu file format v14

[General]
AudioFilename: audio.mp3
AudioLeadIn: 0
PreviewTime: 15
Countdown: 0
SampleSet: Soft
StackLeniency: 0.7
Mode: 3
LetterboxInBreaks: 0
SpecialStyle: 0
WidescreenStoryboard: 1

[Editor]
Bookmarks: 6962,13819,20676,26676
DistanceSpacing: 1.1
BeatDivisor: 4
GridSize: 32
TimelineZoom: 0.9000059

[Metadata]
Title:Uwa!! So Holiday
TitleUnicode:Uwa!! So Holiday♫
Artist:toby fox
ArtistUnicode:toby fox
Creator:GGraterson
Version:serenity
Source:UNDERTALE
Tags:video game music VGM instrumental ost original soundtrack sound track frisk "radiation" ambience ambient electronic axelixiya
BeatmapID:3240085
BeatmapSetID:1585710

[Difficulty]
HPDrainRate:7.5
CircleSize:4
OverallDifficulty:7.5
ApproachRate:10
SliderMultiplier:1.59999990463257
SliderTickRate:1

[Events]
//Background and Video events
0,0,"tobyfoxuwasobackground.jpg",0,0
//Break Periods
//Storyboard Layer 0 (Background)
//Storyboard Layer 1 (Fail)
//Storyboard Layer 2 (Pass)
//Storyboard Layer 3 (Foreground)
//Storyboard Layer 4 (Overlay)
//Storyboard Sound Samples

[TimingPoints]
105,857.142857142857,4,2,1,25,1,0

[HitObjects]
448,192,105,128,0,533:0:0:0:70:screw you M i X.ogg
64,192,105,1,2,0:0:0:0:
64,192,533,1,0,0:0:0:70:C6.wav
448,192,747,1,0,0:0:0:70:D6.wav
320,192,962,1,0,0:0:0:70:G5.wav
320,192,1390,1,0,0:0:0:70:F5.wav
448,192,1605,1,0,0:0:0:70:G5.wav
192,192,1819,1,0,0:0:0:70:D5.wav
192,192,2247,1,0,0:0:0:70:C5.wav
320,192,2462,1,0,0:0:0:70:D5.wav
64,192,2676,1,0,0:0:0:70:A#4.wav
64,192,3533,128,0,3962:0:0:0:70:youre cool soncak.ogg
448,192,3533,1,2,0:0:0:0:
192,192,3962,1,0,0:0:0:70:A#4.wav
64,192,4176,1,0,0:0:0:70:C5.wav
320,192,4390,5,0,0:0:0:70:F5.wav
64,192,5247,1,0,0:0:0:70:C5.ogg
192,192,5676,1,0,0:0:0:70:A#4.wav
64,192,5890,1,0,0:0:0:70:C5.wav
448,192,6104,1,0,0:0:0:70:A#5.ogg
448,192,6962,128,0,7390:0:0:0:70:screw you M i X but its a second file.ogg
320,192,6962,1,2,0:0:0:0:
64,192,7390,1,0,0:0:0:70:D6.wav
448,192,7604,1,0,0:0:0:70:D#6.wav
192,192,7819,1,0,0:0:0:70:G5.wav
320,192,8247,1,0,0:0:0:70:F5.wav
448,192,8462,1,0,0:0:0:70:G5.wav
192,192,8676,1,0,0:0:0:70:D5.wav
192,192,9104,1,0,0:0:0:70:C5.wav
320,192,9319,1,0,0:0:0:70:D5.wav
64,192,9533,1,0,0:0:0:70:A#4.wav
448,192,10390,1,2,0:0:0:0:
64,192,10390,128,0,10819:0:0:0:70:youre cool soncak.ogg
192,192,10819,1,0,0:0:0:70:A#4.wav
64,192,11033,1,0,0:0:0:70:C5.wav
320,192,11247,5,0,0:0:0:70:F5.wav
64,192,12104,1,0,0:0:0:70:C5.ogg
192,192,12533,1,0,0:0:0:70:A#4.wav
64,192,12747,1,0,0:0:0:70:C5.wav
320,192,12962,1,0,0:0:0:70:A5.ogg
64,192,13819,1,2,0:0:0:0:
448,192,13819,128,0,14247:0:0:0:70:screw you M i X.ogg
64,192,14247,1,0,0:0:0:70:C6.wav
448,192,14462,1,0,0:0:0:70:D6.wav
320,192,14676,1,0,0:0:0:70:G5.wav
320,192,15104,1,0,0:0:0:70:F5.wav
448,192,15319,1,0,0:0:0:70:G5.wav
192,192,15533,1,0,0:0:0:70:D5.wav
192,192,15962,1,0,0:0:0:70:C5.wav
320,192,16176,1,0,0:0:0:70:D5.wav
64,192,16390,1,0,0:0:0:70:A#4.wav
448,192,17247,1,2,0:0:0:0:
64,192,17247,128,0,17676:0:0:0:70:youre cool soncak.ogg
192,192,17676,1,0,0:0:0:70:A#4.wav
64,192,17890,1,0,0:0:0:70:C5.wav
320,192,18104,5,0,0:0:0:70:F5.wav
64,192,18962,1,0,0:0:0:70:C5.ogg
192,192,19390,1,0,0:0:0:70:A#4.wav
64,192,19604,1,0,0:0:0:70:C5.wav
448,192,19819,1,0,0:0:0:70:A#5.ogg
320,192,20676,1,2,0:0:0:0:
448,192,20676,128,0,21104:0:0:0:70:screw you M i X but its a second file.ogg
64,192,21104,1,0,0:0:0:70:D6.wav
448,192,21319,1,0,0:0:0:70:D#6.wav
192,192,21533,1,0,0:0:0:70:G5.wav
320,192,21962,1,0,0:0:0:70:F5.wav
448,192,22176,1,0,0:0:0:70:G5.wav
192,192,22390,1,0,0:0:0:70:D5.wav
192,192,22819,1,0,0:0:0:70:C5.wav
320,192,23033,1,0,0:0:0:70:D5.wav
64,192,23247,1,0,0:0:0:70:A#4.wav
64,192,24104,128,0,24533:0:0:0:70:youre cool soncak.ogg
448,192,24104,1,2,0:0:0:0:
192,192,24533,1,0,0:0:0:70:A#4.wav
64,192,24747,1,0,0:0:0:70:C5.wav
320,192,24962,5,0,0:0:0:70:F5.wav
64,192,25819,1,0,0:0:0:70:C5.ogg
192,192,26247,1,0,0:0:0:70:A#4.wav
64,192,26462,1,0,0:0:0:70:C5.wav
320,192,26676,128,0,30104:0:0:0:70:A5.ogg
