osu file format v14

[General]
AudioFilename: audio.mp3
AudioLeadIn: 0
PreviewTime: 50
Countdown: 0
SampleSet: Soft
StackLeniency: 0.7
Mode: 1
LetterboxInBreaks: 0
WidescreenStoryboard: 1

[Editor]
Bookmarks: 50,6907,13764,20621,26621
DistanceSpacing: 1.1
BeatDivisor: 4
GridSize: 32
TimelineZoom: 1

[Metadata]
Title:Uwa!! So Holiday
TitleUnicode:Uwa!! So Holiday♫
Artist:toby fox
ArtistUnicode:toby fox
Creator:Chompy
Version:wanpachi's futsuu
Source:UNDERTALE
Tags:video game instrumental ost original soundtrack Radiation Wanpachi Cyco Cycopton
BeatmapID:2328292
BeatmapSetID:1114589

[Difficulty]
HPDrainRate:9
CircleSize:2
OverallDifficulty:3.5
ApproachRate:9
SliderMultiplier:1.4
SliderTickRate:1

[Events]
//Background and Video events
0,0,"frisk.jpg",0,50
//Break Periods
//Storyboard Layer 0 (Background)
//Storyboard Layer 1 (Fail)
//Storyboard Layer 2 (Pass)
//Storyboard Layer 3 (Foreground)
//Storyboard Layer 4 (Overlay)
//Storyboard Sound Samples

[TimingPoints]
105,857.142857142857,4,2,0,30,1,0
105,-66.6666666666667,4,2,0,30,0,0
1605,-66.6666666666667,4,2,0,20,0,0
2247,-66.6666666666667,4,2,0,10,0,0
3533,-66.6666666666667,4,2,0,30,0,0
8462,-66.6666666666667,4,2,0,20,0,0
9104,-66.6666666666667,4,2,0,10,0,0
10390,-66.6666666666667,4,2,0,30,0,0
15319,-66.6666666666667,4,2,0,20,0,0
15962,-66.6666666666667,4,2,0,10,0,0
17247,-66.6666666666667,4,2,0,30,0,0
22176,-66.6666666666667,4,2,0,20,0,0
22819,-66.6666666666667,4,2,0,10,0,0
24104,-66.6666666666667,4,2,0,30,0,0
27533,-66.6666666666667,4,2,0,25,0,0
27962,-66.6666666666667,4,2,0,20,0,0
28390,-66.6666666666667,4,2,0,15,0,0
29247,-66.6666666666667,4,2,0,10,0,0
30105,-66.6666666666667,4,2,0,5,0,0

[Colours]
Combo1 : 0,128,0
Combo2 : 237,253,172
Combo3 : 128,255,0
SliderBorder : 222,184,135

[HitObjects]
256,192,105,5,12,0:0:0:0:
256,192,747,1,8,0:0:0:0:
256,192,962,1,0,0:0:0:0:
256,192,1605,1,8,0:0:0:0:
256,192,1819,1,0,0:0:0:0:
256,192,2247,1,0,0:0:0:0:
256,192,2462,1,8,0:0:0:0:
256,192,2676,1,0,0:0:0:0:
256,192,3533,1,8,0:0:0:0:
256,192,3962,1,0,0:0:0:0:
256,192,4176,1,0,0:0:0:0:
256,192,4391,1,8,0:0:0:0:
256,192,5247,1,8,0:0:0:0:
256,192,5677,1,0,0:0:0:0:
256,192,5891,1,8,0:0:0:0:
256,192,6105,1,8,0:0:0:0:
256,192,6962,1,12,0:0:0:0:
256,192,7605,1,8,0:0:0:0:
256,192,7819,1,0,0:0:0:0:
256,192,8462,1,8,0:0:0:0:
256,192,8676,1,0,0:0:0:0:
256,192,9105,1,0,0:0:0:0:
256,192,9319,1,8,0:0:0:0:
256,192,9533,1,0,0:0:0:0:
256,192,10390,1,8,0:0:0:0:
256,192,10819,1,0,0:0:0:0:
256,192,11033,1,8,0:0:0:0:
256,192,11247,1,8,0:0:0:0:
256,192,12104,1,8,0:0:0:0:
256,192,12533,1,8,0:0:0:0:
256,192,12747,1,0,0:0:0:0:
256,192,12962,1,8,0:0:0:0:
256,192,13819,1,12,0:0:0:0:
256,192,14461,1,8,0:0:0:0:
256,192,14676,1,0,0:0:0:0:
256,192,15319,1,8,0:0:0:0:
256,192,15533,1,0,0:0:0:0:
256,192,15961,1,0,0:0:0:0:
256,192,16176,1,8,0:0:0:0:
256,192,16390,1,0,0:0:0:0:
256,192,17247,1,8,0:0:0:0:
256,192,17676,1,0,0:0:0:0:
256,192,17890,1,0,0:0:0:0:
256,192,18104,1,8,0:0:0:0:
256,192,18961,1,8,0:0:0:0:
256,192,19390,1,0,0:0:0:0:
256,192,19604,1,8,0:0:0:0:
256,192,19819,1,8,0:0:0:0:
256,192,20676,1,12,0:0:0:0:
256,192,21319,1,8,0:0:0:0:
256,192,21533,1,0,0:0:0:0:
256,192,22176,1,8,0:0:0:0:
256,192,22390,1,0,0:0:0:0:
256,192,22819,1,0,0:0:0:0:
256,192,23033,1,8,0:0:0:0:
256,192,23247,1,0,0:0:0:0:
256,192,24104,1,8,0:0:0:0:
256,192,24533,1,0,0:0:0:0:
256,192,24747,1,8,0:0:0:0:
256,192,24961,1,8,0:0:0:0:
256,192,25818,1,8,0:0:0:0:
256,192,26247,1,8,0:0:0:0:
256,192,26461,1,0,0:0:0:0:
256,192,26676,1,8,0:0:0:0:
256,192,27105,12,0,30105,0:0:0:0:
