osu file format v14

[General]
AudioFilename: audio.mp3
AudioLeadIn: 0
PreviewTime: 105
Countdown: 0
SampleSet: Soft
StackLeniency: 0.7
Mode: 3
LetterboxInBreaks: 0
SpecialStyle: 0
WidescreenStoryboard: 1

[Editor]
DistanceSpacing: 1.1
BeatDivisor: 8
GridSize: 32
TimelineZoom: 1

[Metadata]
Title:Uwa!! So Holiday
TitleUnicode:Uwa!! So Holiday♫
Artist:toby fox
ArtistUnicode:toby fox
Creator:-XxbluezaperxX-
Version:Easy
Source:UNDERTALE
Tags:instrumental video game vgm chiptune ost original soundtrack radiation temperate heats!! winter orchestral randelman4ik katagiri k_a_t_a_g_i_r_i
BeatmapID:3631654
BeatmapSetID:1773639

[Difficulty]
HPDrainRate:7
CircleSize:6
OverallDifficulty:7
ApproachRate:5
SliderMultiplier:1.4
SliderTickRate:1

[Events]
//Background and Video events
0,0,"Undertale-Uwa-So-Holiday.png",0,0
//Break Periods
//Storyboard Layer 0 (Background)
//Storyboard Layer 1 (Fail)
//Storyboard Layer 2 (Pass)
//Storyboard Layer 3 (Foreground)
//Storyboard Layer 4 (Overlay)
//Storyboard Sound Samples

[TimingPoints]
105,857.142857142857,4,2,1,25,1,0

[HitObjects]
42,192,105,5,4,0:0:0:0:
384,192,105,1,0,0:0:0:39:8_D5_70_384.wav
298,192,533,1,0,0:0:0:39:8_C5_70_384.wav
213,192,747,1,0,0:0:0:39:8_D5_70_384.wav
469,192,962,1,0,0:0:0:39:8_G4_70_384.wav
42,192,1390,1,0,0:0:0:39:8_F4_70_384.wav
128,192,1605,1,0,0:0:0:20:8_G4_70_384.wav
213,192,1819,1,0,0:0:0:39:8_D4_70_384.wav
469,192,2247,1,0,0:0:0:39:8_C4_70_384.wav
384,192,2462,1,0,0:0:0:39:8_D4_70_384.wav
298,192,2676,1,0,0:0:0:39:8_A#3_70_384.wav
42,192,3533,1,4,0:0:0:0:
384,192,3533,1,0,0:0:0:39:8_C4_70_384.wav
128,192,3962,1,0,0:0:0:39:8_A#3_70_384.wav
213,192,4176,1,0,0:0:0:39:8_C4_70_384.wav
384,192,4390,1,0,0:0:0:39:8_F4_70_384.wav
469,192,5247,1,0,0:0:0:39:8_C4_70_384.wav
128,192,5676,1,0,0:0:0:39:8_A#3_70_384.wav
213,192,5890,1,0,0:0:0:39:8_C4_70_384.wav
298,192,6104,1,0,0:0:0:39:8_A#4_70_384.wav
128,192,6962,1,4,0:0:0:0:
469,192,6962,1,0,0:0:0:39:8_D#5_70_384.wav
384,192,7390,1,0,0:0:0:39:8_D5_70_384.wav
213,192,7604,1,0,0:0:0:39:8_D#5_70_384.wav
42,192,7819,1,0,0:0:0:39:8_G4_70_384.wav
128,192,8247,1,0,0:0:0:39:8_F4_70_384.wav
298,192,8462,1,0,0:0:0:39:8_G4_70_384.wav
384,192,8676,1,0,0:0:0:39:8_D4_70_384.wav
213,192,9104,1,0,0:0:0:39:8_C4_70_384.wav
128,192,9319,1,0,0:0:0:39:8_D4_70_384.wav
42,192,9533,1,0,0:0:0:39:8_A#3_70_384.wav
42,192,10390,1,4,0:0:0:0:
298,192,10390,1,0,0:0:0:39:8_C4_70_384.wav
128,192,10819,1,0,0:0:0:39:8_A#3_70_384.wav
213,192,11033,1,0,0:0:0:39:8_C4_70_384.wav
469,192,11247,1,0,0:0:0:39:8_F4_70_384.wav
42,192,12104,1,0,0:0:0:39:8_C4_70_384.wav
213,192,12533,1,0,0:0:0:39:8_A#3_70_384.wav
298,192,12747,1,0,0:0:0:39:8_C4_70_384.wav
469,192,12962,1,0,0:0:0:39:8_A4_70_384.wav
42,192,13819,1,4,0:0:0:0:
384,192,13819,1,0,0:0:0:39:8_D5_70_384.wav
298,192,14247,1,0,0:0:0:39:8_C5_70_384.wav
128,192,14462,1,0,0:0:0:39:8_D5_70_384.wav
42,192,14676,1,0,0:0:0:39:8_G4_70_384.wav
298,192,15104,1,0,0:0:0:39:8_F4_70_384.wav
469,192,15319,1,0,0:0:0:39:8_G4_70_384.wav
384,192,15533,1,0,0:0:0:39:8_D4_70_384.wav
213,192,15962,1,0,0:0:0:39:8_C4_70_384.wav
42,192,16176,1,0,0:0:0:39:8_D4_70_384.wav
128,192,16390,1,0,0:0:0:39:8_A#3_70_384.wav
213,192,17247,1,4,0:0:0:0:
384,192,17247,1,0,0:0:0:39:8_C4_70_384.wav
298,192,17676,1,0,0:0:0:39:8_A#3_70_384.wav
128,192,17890,1,0,0:0:0:39:8_C4_70_384.wav
469,192,18104,1,0,0:0:0:39:8_F4_70_384.wav
42,192,18962,1,0,0:0:0:39:8_C4_70_384.wav
298,192,19390,1,0,0:0:0:39:8_A#3_70_384.wav
469,192,19604,1,0,0:0:0:39:8_C4_70_384.wav
128,192,19819,1,0,0:0:0:39:8_A#4_70_384.wav
213,192,20676,1,4,0:0:0:0:
384,192,20676,1,0,0:0:0:39:8_D#5_70_384.wav
42,192,21104,1,0,0:0:0:39:8_D5_70_384.wav
128,192,21319,1,0,0:0:0:39:8_D#5_70_384.wav
298,192,21533,1,0,0:0:0:39:8_G4_70_384.wav
469,192,21962,1,0,0:0:0:39:8_F4_70_384.wav
384,192,22176,1,0,0:0:0:39:8_G4_70_384.wav
213,192,22390,1,0,0:0:0:39:8_D4_70_384.wav
298,192,22819,1,0,0:0:0:39:8_C4_70_384.wav
42,192,23033,1,0,0:0:0:39:8_D4_70_384.wav
128,192,23247,1,0,0:0:0:39:8_A#3_70_384.wav
213,192,24104,1,4,0:0:0:0:
384,192,24104,1,0,0:0:0:39:8_C4_70_384.wav
298,192,24533,1,0,0:0:0:39:8_A#3_70_384.wav
128,192,24747,1,0,0:0:0:39:8_C4_70_384.wav
42,192,24962,1,0,0:0:0:39:8_F4_70_384.wav
213,192,25819,1,0,0:0:0:39:8_C4_70_384.wav
469,192,26247,1,0,0:0:0:39:8_A#3_70_384.wav
42,192,26462,1,0,0:0:0:39:8_C4_70_384.wav
384,192,26676,128,0,30212:0:0:0:39:8_A4_70_384.wav
