osu file format v14

[General]
AudioFilename: audio.mp3
AudioLeadIn: 0
PreviewTime: -1
Countdown: 1
SampleSet: Soft
StackLeniency: 0.7
Mode: 0
LetterboxInBreaks: 0
WidescreenStoryboard: 1

[Editor]
DistanceSpacing: 0.4
BeatDivisor: 4
GridSize: 4
TimelineZoom: 1

[Metadata]
Title:Undertale Boss Themes
TitleUnicode:Undertale Boss Themes
Artist:toby fox
ArtistUnicode:toby fox
Creator:corninho
Version:Spider Dance
Source:UNDERTALE
Tags:bad time spoiler sans papyrus frisk chara flowey determination patience kindness human toriel asgore asriel mount ebott snowdin bravery integrity perserverance justice fallen human genocide alphys mettaton hotland dog soul love exp undyne flowey onionsan onionsama onionchan onion napstablook hope dream annoying demo heroine final battle voli dirai epilepsy ruins core waterfall neutral ending hard mode megalomania Nyeh Heh Heh! temmie idiot baka heart blue indigo purple yellow green orange soulless monster chiptune pixel 2015 spare act fight item heartache bonetrousle spear of justice spider dance death by glamour your best nightmare hopes and dreams megalovania muffet NEO undying omega photoshop raidiation indie hula earthbound belowstory morality marathon incorrigible undermeme
BeatmapID:2116540
BeatmapSetID:747710

[Difficulty]
HPDrainRate:4
CircleSize:4
OverallDifficulty:9
ApproachRate:9.5
SliderMultiplier:2
SliderTickRate:1

[Events]
//Background and Video events
0,0,"SOULS.jpg",0,0
//Break Periods
2,352086,368257
//Storyboard Layer 0 (Background)
//Storyboard Layer 1 (Fail)
//Storyboard Layer 2 (Pass)
//Storyboard Layer 3 (Foreground)
//Storyboard Sound Samples

[TimingPoints]
720,251.046025104603,3,2,3,65,1,0
12770,-100,4,2,3,65,0,1
13774,-57.1428571428571,4,2,3,65,0,1
14276,-100,4,2,3,65,0,1
17289,-100,4,2,3,65,0,0
30845,-100,4,2,3,65,0,1
31849,-66.6666666666667,4,2,3,65,0,1
32728,-100,4,2,3,65,0,1
36117,-66.6666666666667,4,2,3,65,0,1
37247,-100,4,2,3,65,0,1
37874,-66.6666666666667,4,2,3,65,0,1
38753,-100,4,2,3,65,0,1
43899,-66.6666666666667,4,2,3,65,0,1
44778,-100,4,2,3,65,0,1
45406,-66.6666666666667,4,2,3,65,0,1
45908,-100,4,2,3,65,0,0
46284,-100,4,2,3,65,0,0
110428,400,4,2,3,65,1,0
110428,-80,4,2,3,65,0,0
142428,-57.1428571428571,4,2,3,65,0,1
161628,-100,4,2,3,65,0,0
168971,342.211829122227,4,2,3,65,1,0
285304,260.869565217391,4,2,3,65,1,0
318695,-80,4,2,3,65,0,1
327043,-66.6666666666667,4,2,3,65,0,1
334869,-117.647058823529,4,2,3,65,0,1
335390,-57.1428571428571,4,2,3,65,0,1
339564,-100,4,2,3,35,0,1
340347,-80,4,2,3,35,0,1
341390,-66.6666666666667,4,2,3,35,0,1
341651,-57.1428571428571,4,2,3,65,0,1
351043,-133.333333333333,4,2,3,65,0,1
351825,-133.333333333333,4,2,3,20,0,1
351956,-133.333333333333,4,2,3,5,0,1
352086,-100,4,2,3,65,0,0
368782,-66.6666666666667,4,2,3,65,0,0
392904,405.405405405405,4,2,3,65,1,0
528605,264.31718061674,4,2,3,65,1,0
549061,261.244394130709,4,2,3,65,1,0
705642,317.460317460317,4,2,3,65,1,0
728344,315.789473684211,4,2,3,65,1,0
823157,351.535036325287,4,2,3,65,1,0
1005362,400,4,2,3,5,1,0
1161315,250,4,3,3,65,1,0

[HitObjects]
150,338,285304,6,0,P|132:272|139:224,1,100
377,241,285564,2,0,P|378:290|362:338,1,100
256,280,285825,1,0,0:0:0:0:
187,181,285956,1,0,0:0:0:0:
256,280,286086,1,0,0:0:0:0:
324,181,286217,1,0,0:0:0:0:
256,280,286347,6,0,L|257:384,1,100
136,368,286608,2,0,L|136:255,1,100
103,151,286869,1,0,0:0:0:0:
198,78,286999,1,0,0:0:0:0:
183,197,287130,1,0,0:0:0:0:
278,125,287260,2,0,P|325:155|360:190,1,100
431,280,287521,5,0,0:0:0:0:
311,282,287651,1,0,0:0:0:0:
384,186,287782,1,0,0:0:0:0:
264,177,287912,1,0,0:0:0:0:
228,292,288043,1,0,0:0:0:0:
108,292,288173,1,0,0:0:0:0:
158,182,288304,1,0,0:0:0:0:
38,171,288434,1,0,0:0:0:0:
7,286,288564,1,0,0:0:0:0:
108,292,288695,1,0,0:0:0:0:
108,292,288825,6,0,P|140:230|155:186,1,100
213,99,289086,1,0,0:0:0:0:
267,206,289217,1,0,0:0:0:0:
267,206,289282,1,0,0:0:0:0:
267,206,289347,1,0,0:0:0:0:
267,206,289412,1,0,0:0:0:0:
267,206,289477,6,0,P|277:267|274:316,1,100
450,298,289738,2,0,P|449:248|458:199,1,100
267,206,289999,2,0,P|277:267|274:316,1,100
450,298,290260,2,0,P|449:248|458:199,1,100
267,206,290521,2,0,P|277:267|274:316,1,100
450,298,290782,2,0,P|449:248|458:199,1,100
267,206,291043,2,0,P|277:267|274:316,1,100
450,298,291304,2,0,P|449:248|458:199,1,100
381,107,291564,5,0,0:0:0:0:
193,63,291825,1,0,0:0:0:0:
271,195,292086,1,0,0:0:0:0:
95,160,292347,1,0,0:0:0:0:
179,280,292608,1,0,0:0:0:0:
21,247,292869,1,0,0:0:0:0:
87,354,293130,1,0,0:0:0:0:
87,354,293260,1,0,0:0:0:0:
87,354,293390,1,0,0:0:0:0:
87,354,293521,1,0,0:0:0:0:
87,354,293651,6,0,L|145:268,1,100
314,97,293912,2,0,L|263:209,1,100
283,330,294173,1,0,0:0:0:0:
455,328,294304,1,0,0:0:0:0:
283,330,294434,6,0,L|341:233,1,100
439,66,294695,1,0,0:0:0:0:
441,218,294825,1,0,0:0:0:0:
439,66,294956,6,0,L|316:72,1,100
135,89,295217,1,0,0:0:0:0:
317,153,295347,1,0,0:0:0:0:
135,89,295477,6,0,L|108:193,1,100
219,331,295738,1,0,0:0:0:0:
239,157,295869,1,0,0:0:0:0:
219,331,295999,6,0,P|155:335|96:339,1,100
30,202,296260,1,0,0:0:0:0:
211,208,296390,1,0,0:0:0:0:
30,202,296521,6,0,L|45:72,1,100
146,31,296782,1,0,0:0:0:0:
130,231,296912,1,0,0:0:0:0:
146,31,297043,6,0,L|282:33,1,100
223,196,297304,1,0,0:0:0:0:
375,302,297434,1,0,0:0:0:0:
377,131,297564,1,0,0:0:0:0:
377,131,297630,1,0,0:0:0:0:
377,131,297695,1,0,0:0:0:0:
377,131,297760,1,0,0:0:0:0:
377,131,297825,6,0,L|291:198,1,100
227,107,298086,2,0,L|116:85,1,100
57,188,298347,2,0,L|144:253,1,100
231,190,298608,2,0,L|332:151,1,100
435,121,298869,2,0,L|430:261,1,100
312,218,299130,2,0,L|280:340,1,100
69,339,299390,2,0,L|100:214,1,100
203,231,299651,2,0,L|232:91,1,100
312,67,299912,5,0,0:0:0:0:
311,206,300173,1,0,0:0:0:0:
412,66,300434,1,0,0:0:0:0:
420,206,300695,1,0,0:0:0:0:
481,133,300956,1,0,0:0:0:0:
338,129,301217,1,0,0:0:0:0:
482,249,301477,5,0,0:0:0:0:
482,249,301608,1,0,0:0:0:0:
482,249,301738,1,0,0:0:0:0:
482,249,301869,1,0,0:0:0:0:
482,249,301999,6,0,L|420:166,1,100
234,157,302260,2,0,L|288:253,1,100
386,355,302521,1,0,0:0:0:0:
212,340,302651,1,0,0:0:0:0:
386,355,302782,2,0,L|404:238,1,100
373,50,303043,1,0,0:0:0:0:
190,53,303173,1,0,0:0:0:0:
373,50,303304,2,0,L|354:151,1,100
268,299,303564,1,0,0:0:0:0:
140,168,303695,1,0,0:0:0:0:
305,147,303825,1,0,0:0:0:0:
154,307,303956,2,0,P|103:331|45:331,1,100
27,175,304217,5,0,0:0:0:0:
132,226,304347,1,0,0:0:0:0:
209,147,304477,1,0,0:0:0:0:
292,219,304608,1,0,0:0:0:0:
365,137,304738,1,0,0:0:0:0:
450,206,304869,1,0,0:0:0:0:
509,129,304999,1,0,0:0:0:0:
450,206,305130,1,0,0:0:0:0:
365,137,305260,1,0,0:0:0:0:
292,219,305390,1,0,0:0:0:0:
211,143,305521,6,0,B|192:191|192:191|170:238,1,100
66,325,305782,1,0,0:0:0:0:
54,120,305912,1,0,0:0:0:0:
54,120,305977,1,0,0:0:0:0:
54,120,306043,1,0,0:0:0:0:
54,120,306108,1,0,0:0:0:0:
54,120,306173,6,0,L|157:89,1,100
161,296,306434,2,0,L|65:324,1,100
54,120,306695,2,0,L|157:89,1,100
161,296,306956,2,0,L|65:324,1,100
54,120,307217,2,0,L|157:89,1,100
161,296,307478,2,0,L|65:324,1,100
54,120,307738,2,0,L|157:89,1,100
161,296,307999,2,0,L|65:324,1,100
59,206,308260,5,0,0:0:0:0:
163,229,308521,1,0,0:0:0:0:
250,168,308782,1,0,0:0:0:0:
332,224,309043,1,0,0:0:0:0:
409,161,309304,1,0,0:0:0:0:
481,229,309564,1,0,0:0:0:0:
481,229,309825,5,0,0:0:0:0:
409,161,309956,1,0,0:0:0:0:
303,238,310087,1,0,0:0:0:0:
192,169,310217,1,0,0:0:0:0:
98,258,310347,1,0,0:0:0:0:
286,331,310477,1,0,0:0:0:0:
98,258,310608,6,0,P|106:175|95:138,1,100
225,30,310869,1,0,0:0:0:0:
225,218,310999,1,0,0:0:0:0:
225,30,311130,6,0,P|306:49|339:68,1,100
450,189,311390,1,0,0:0:0:0:
287,142,311521,1,0,0:0:0:0:
450,189,311651,6,0,P|433:248|433:296,1,100
290,359,311912,1,0,0:0:0:0:
287,142,312043,1,0,0:0:0:0:
290,359,312173,6,0,P|254:311|220:283,1,100
68,161,312434,1,0,0:0:0:0:
215,52,312564,1,0,0:0:0:0:
59,40,312695,1,0,0:0:0:0:
198,168,312825,1,0,0:0:0:0:
198,168,312956,6,0,P|248:192|303:193,1,100
472,148,313217,2,0,P|459:203|459:249,1,100
369,339,313477,1,0,0:0:0:0:
261,264,313608,1,0,0:0:0:0:
154,338,313738,1,0,0:0:0:0:
56,251,313869,2,0,B|40:298|40:298|110:259,1,100
241,126,314130,1,0,0:0:0:0:
45,76,314260,1,0,0:0:0:0:
45,76,314325,1,0,0:0:0:0:
45,76,314390,1,0,0:0:0:0:
45,76,314456,1,0,0:0:0:0:
45,76,314521,6,0,P|119:71|153:76,1,100
241,126,314782,2,0,P|298:141|361:172,1,100
45,76,315043,2,0,P|119:71|153:76,1,100
241,126,315304,2,0,P|298:141|361:172,1,100
45,76,315564,2,0,P|119:71|153:76,1,100
241,126,315825,2,0,P|298:141|361:172,1,100
45,76,316086,2,0,P|119:71|153:76,1,100
241,126,316347,2,0,P|298:141|361:172,1,100
194,239,316608,6,0,B|259:264|259:264|348:237|395:254,5,200
445,134,318043,5,0,0:0:0:0:
265,86,318173,1,0,0:0:0:0:
445,134,318303,1,0,0:0:0:0:
265,86,318434,1,0,0:0:0:0:
445,134,318564,1,0,0:0:0:0:
265,86,318695,6,0,P|252:155|247:227,1,125
361,325,318956,2,0,B|294:309|294:309|232:312,1,125
78,276,319217,1,0,0:0:0:0:
217,146,319347,1,0,0:0:0:0:
78,276,319477,1,0,0:0:0:0:
217,146,319608,1,0,0:0:0:0:
78,276,319738,6,0,P|153:290|202:322,1,125
334,231,319999,1,0,0:0:0:0:
334,231,320130,2,0,P|310:157|310:94,1,125
459,51,320390,1,0,0:0:0:0:
335,113,320521,1,0,0:0:0:0:
213,49,320651,1,0,0:0:0:0:
114,145,320782,6,0,P|174:183|219:221,1,125
371,342,321043,1,0,0:0:0:0:
371,342,321173,2,0,B|304:326|304:326|222:337,1,125
116,292,321434,1,0,0:0:0:0:
300,233,321564,1,0,0:0:0:0:
116,292,321695,1,0,0:0:0:0:
300,233,321825,6,0,B|262:171|262:171|268:103,1,125
482,137,322086,1,0,0:0:0:0:
482,137,322217,2,0,P|468:205|477:280,1,125
378,359,322477,1,0,0:0:0:0:
197,266,322608,1,0,0:0:0:0:
355,166,322738,1,0,0:0:0:0:
378,359,322869,6,0,P|303:351|247:365,1,125
111,354,323130,2,0,P|117:286|105:218,1,125
98,57,323390,1,0,0:0:0:0:
272,127,323521,1,0,0:0:0:0:
80,169,323651,1,0,0:0:0:0:
272,127,323782,1,0,0:0:0:0:
446,47,323912,6,0,B|426:113|426:113|426:174,1,125
334,321,324173,1,0,0:0:0:0:
334,321,324303,2,0,B|341:253|341:253|281:280,1,125
97,300,324564,1,0,0:0:0:0:
296,166,324695,1,0,0:0:0:0:
97,300,324825,1,0,0:0:0:0:
296,166,324956,6,0,P|277:99|228:63,1,125
57,165,325217,1,0,0:0:0:0:
296,166,325347,2,0,P|277:99|228:63,1,125
57,165,325608,1,0,0:0:0:0:
259,228,325738,1,0,0:0:0:0:
59,298,325869,1,0,0:0:0:0:
259,228,325999,6,0,B|332:242|332:242|383:285,1,125
455,98,326260,1,0,0:0:0:0:
455,98,326390,2,0,P|393:124|323:118,1,125
330,29,326651,1,0,0:0:0:0:
325,208,326782,1,0,0:0:0:0:
387,116,326912,1,0,0:0:0:0:
402,290,327043,6,0,P|326:337|242:338,1,150.000005722046
100,337,327303,2,0,B|145:267|145:267|142:170,1,150.000005722046
263,32,327564,1,0,0:0:0:0:
124,130,327695,1,0,0:0:0:0:
301,164,327825,1,0,0:0:0:0:
184,66,327956,1,0,0:0:0:0:
134,224,328086,6,0,P|205:259|260:323,1,150.000005722046
451,309,328347,1,0,0:0:0:0:
451,309,328477,2,0,B|446:234|446:234|409:217|409:217|423:175|394:134,1,150.000005722046
385,35,328738,1,0,0:0:0:0:
305,218,328869,1,0,0:0:0:0:
138,69,328999,1,0,0:0:0:0:
305,218,329130,6,0,P|321:297|303:370,1,150.000005722046
51,241,329390,1,0,0:0:0:0:
51,241,329521,2,0,P|133:251|212:284,1,150.000005722046
344,297,329782,1,0,0:0:0:0:
352,84,329912,1,0,0:0:0:0:
366,218,330043,1,0,0:0:0:0:
301,33,330173,6,0,P|217:44|157:22,1,150.000005722046
52,148,330434,1,0,0:0:0:0:
52,148,330564,2,0,P|141:157|206:191,1,150.000005722046
312,337,330825,1,0,0:0:0:0:
486,202,330956,1,0,0:0:0:0:
262,225,331086,1,0,0:0:0:0:
460,115,331217,6,0,B|421:39|421:39|310:18,1,150.000005722046
262,225,331477,2,0,B|265:144|265:144|333:188,1,150.000005722046
451,259,331738,1,0,0:0:0:0:
196,261,331869,1,0,0:0:0:0:
451,259,331999,1,0,0:0:0:0:
196,261,332130,1,0,0:0:0:0:
451,259,332260,1,0,0:0:0:0:
451,259,332390,6,0,P|381:305|305:326,1,150.000005722046
196,261,332651,2,0,B|310:268|310:268|281:150|417:157,1,300.000011444092
320,34,333043,1,0,0:0:0:0:
90,159,333173,1,0,0:0:0:0:
320,34,333303,1,0,0:0:0:0:
90,159,333434,1,0,0:0:0:0:
320,34,333564,6,0,B|327:123|327:123|263:162,1,150.000005722046
90,159,333825,2,0,P|141:224|163:291,1,150.000005722046
349,287,334086,2,0,P|374:216|422:159,1,150.000005722046
254,31,334347,1,0,0:0:0:0:
244,253,334477,1,0,0:0:0:0:
253,69,334608,1,0,0:0:0:0:
243,290,334738,1,0,0:0:0:0:
243,133,334869,6,0,B|193:172|155:165|155:165|121:123|163:69|163:69|206:70|286:75,1,297.500005674362
344,92,335390,6,0,P|309:183|328:269,1,175.00000166893
490,272,335651,2,0,P|397:244|312:261,1,175.00000166893
166,339,335912,1,0,0:0:0:0:
142,132,336043,1,0,0:0:0:0:
166,339,336173,1,0,0:0:0:0:
142,132,336303,1,0,0:0:0:0:
166,339,336434,6,0,B|264:272|264:272|265:185,1,175.00000166893
142,132,336695,2,0,P|232:91|277:22,1,175.00000166893
436,98,336956,1,0,0:0:0:0:
387,288,337086,1,0,0:0:0:0:
436,98,337217,2,0,P|350:148|314:236,1,175.00000166893
206,348,337477,1,0,0:0:0:0:
72,293,337608,1,0,0:0:0:0:
196,229,337738,1,0,0:0:0:0:
70,165,337869,1,0,0:0:0:0:
198,111,337999,1,0,0:0:0:0:
73,45,338130,1,0,0:0:0:0:
207,8,338260,5,0,0:0:0:0:
73,45,338390,1,0,0:0:0:0:
198,111,338521,1,0,0:0:0:0:
70,165,338651,1,0,0:0:0:0:
188,240,338782,1,0,0:0:0:0:
63,303,338912,1,0,0:0:0:0:
194,354,339043,6,0,B|278:311|278:311|310:220,3,175.00000166893
352,135,339564,6,0,L|415:191,1,50
364,146,339695,2,0,L|404:179,1,50
383,159,339825,2,0,L|418:196,1,50
408,184,339956,2,0,L|445:225,1,50
246,141,340086,2,0,L|221:192,1,50
238,162,340217,6,0,L|214:218,1,50
223,193,340347,2,0,L|205:257,1,62.5
214,222,340477,2,0,L|193:292,1,62.5
384,219,340608,6,0,L|427:282,1,62.5
394,236,340738,2,0,L|430:293,1,62.5
408,258,340869,2,0,L|439:316,1,62.5
431,298,340999,2,0,L|459:360,1,62.5
463,140,341130,6,0,L|447:217,1,62.5
461,160,341260,2,0,L|439:224,1,62.5
453,188,341390,2,0,L|402:255,1,75.0000028610231
430,220,341521,2,0,L|375:279,1,75.0000028610231
421,218,341651,6,0,P|414:312|317:349,1,175.00000166893
152,336,341912,2,0,B|218:269|218:269|206:172,1,175.00000166893
81,60,342173,5,0,0:0:0:0:
235,112,342303,1,0,0:0:0:0:
73,226,342434,1,0,0:0:0:0:
235,112,342564,1,0,0:0:0:0:
134,347,342695,1,0,0:0:0:0:
235,112,342825,1,0,0:0:0:0:
259,379,342956,1,0,0:0:0:0:
235,112,343086,1,0,0:0:0:0:
99,29,343217,6,0,B|103:132|235:113|235:113|102:133|146:254,1,350.00000333786
288,260,343608,1,0,0:0:0:0:
288,260,343738,2,0,P|351:192|349:93,1,175.00000166893
198,94,343999,2,0,B|280:154|280:154|182:202,1,175.00000166893
106,301,344260,5,0,0:0:0:0:
298,329,344390,1,0,0:0:0:0:
106,301,344521,2,0,P|81:200|85:118,1,175.00000166893
298,329,344782,2,0,P|318:218|297:146,1,175.00000166893
122,54,345043,1,0,0:0:0:0:
122,54,345173,6,0,B|181:53|255:175|255:175|191:70|364:32,1,350.00000333786
464,64,345564,2,0,B|437:206|437:206|397:217,1,175.00000166893
251,337,345825,2,0,P|222:233|239:155,1,175.00000166893
373,61,346086,1,0,0:0:0:0:
373,61,346217,6,0,B|197:129|197:129|299:-8,1,350.00000333786
137,42,346608,2,0,P|128:145|90:208,1,175.00000166893
126,359,346869,2,0,P|206:295|285:308,1,175.00000166893
423,253,347130,1,0,0:0:0:0:
423,253,347260,6,0,B|324:235|324:235|239:256,1,175.00000166893
94,238,347521,1,0,0:0:0:0:
350,110,347651,1,0,0:0:0:0:
94,238,347782,1,0,0:0:0:0:
350,110,347912,2,0,B|445:116|445:116|368:69,1,175.00000166893
219,58,348173,2,0,B|245:117|245:117|215:178|215:178|218:246,1,175.00000166893
117,343,348434,5,0,0:0:0:0:
95,122,348564,1,0,0:0:0:0:
223,326,348695,1,0,0:0:0:0:
177,113,348825,1,0,0:0:0:0:
301,314,348956,1,0,0:0:0:0:
301,314,349086,2,0,P|326:226|296:136,1,175.00000166893
177,113,349347,6,0,B|279:131|279:131|341:86|341:86|426:132|334:155|455:218,1,350.00000333786
480,365,349738,1,0,0:0:0:0:
468,108,349869,1,0,0:0:0:0:
403,345,349999,1,0,0:0:0:0:
385,95,350130,1,0,0:0:0:0:
326,344,350260,1,0,0:0:0:0:
152,320,350521,5,0,0:0:0:0:
298,223,350782,1,0,0:0:0:0:
155,168,351043,1,0,0:0:0:0:
255,96,351303,1,0,0:0:0:0:
171,43,351564,1,0,0:0:0:0:
191,338,368782,6,0,P|183:245|208:187,1,150.000005722046
351,186,369043,2,0,P|374:256|363:330,1,150.000005722046
191,338,369303,2,0,P|183:245|208:187,1,150.000005722046
351,186,369564,2,0,P|374:256|363:330,1,150.000005722046
192,338,369825,2,0,P|106:324|54:249,1,150.000005722046
118,113,370086,2,0,P|191:120|244:170,1,150.000005722046
192,338,370347,2,0,P|106:324|54:249,1,150.000005722046
118,113,370608,2,0,P|191:120|244:170,1,150.000005722046
261,314,370869,1,0,0:0:0:0:
435,253,370999,5,0,0:0:0:0:
435,253,371064,1,0,0:0:0:0:
435,253,371130,2,0,P|380:187|370:111,1,150.000005722046
327,186,371390,2,0,P|310:258|260:313,1,150.000005722046
83,259,371651,1,0,0:0:0:0:
83,259,371782,2,0,B|68:176|68:176|94:125|94:125|47:64|47:64|52:20|137:18|137:18|95:125|195:129,1,450.000017166138
250,342,372303,5,0,0:0:0:0:
275,326,372369,1,0,0:0:0:0:
298,308,372434,2,0,P|327:271|338:237,3,75.0000028610231
350,317,372695,2,0,P|349:279|336:245,3,75.0000028610231
399,321,372956,6,0,P|384:242|403:165,1,150.000005722046
290,37,373217,1,0,0:0:0:0:
290,37,373347,2,0,L|236:180,1,150.000005722046
84,326,373608,1,0,0:0:0:0:
84,326,373738,2,0,P|166:318|246:338,1,150.000005722046
337,255,373999,2,0,B|250:218|250:218|195:162,1,150.000005722046
71,44,374260,1,0,0:0:0:0:
71,44,374390,2,0,L|72:199,1,150.000005722046
262,208,374651,5,0,0:0:0:0:
262,208,374717,1,0,0:0:0:0:
262,208,374782,2,0,L|259:45,1,150.000005722046
461,41,375043,2,0,P|429:117|430:193,1,150.000005722046
444,348,375303,2,0,P|357:337|297:358,1,150.000005722046
262,208,375564,1,0,0:0:0:0:
262,208,375695,2,0,P|261:113|288:59,1,150.000005722046
426,174,375956,1,0,0:0:0:0:
426,174,376086,6,0,B|388:250|388:250|319:267|253:199,1,225.000008583069
262,208,376347,2,0,P|219:279|87:268,1,225.000008583069
90,270,376608,2,0,P|132:201|61:88,1,225.000008583069
64,89,376869,2,0,P|138:124|271:73,1,225.000008583069
266,77,377130,6,0,L|276:237,1,150.000005722046
118,328,377390,1,0,0:0:0:0:
118,328,377521,2,0,P|201:310|279:322,1,150.000005722046
432,264,377782,1,0,0:0:0:0:
432,264,377912,2,0,P|405:182|408:97,1,150.000005722046
256,57,378173,2,0,L|255:213,1,150.000005722046
156,354,378434,1,0,0:0:0:0:
156,354,378564,2,0,L|154:195,1,150.000005722046
45,40,378825,5,0,0:0:0:0:
45,40,378890,1,0,0:0:0:0:
45,40,378956,2,0,L|38:200,1,150.000005722046
156,354,379217,1,0,0:0:0:0:
270,160,379347,5,0,0:0:0:0:
270,160,379412,1,0,0:0:0:0:
270,160,379477,2,0,P|321:220|358:293,1,150.000005722046
455,342,379738,2,0,P|474:249|437:164,1,150.000005722046
379,47,379999,1,0,0:0:0:0:
379,47,380130,2,0,B|312:102|312:102|255:78|255:78|186:124|100:105,1,300.000011444092
43,190,380521,2,0,P|86:275|136:307,1,150.000005722046
201,126,380782,5,0,0:0:0:0:
186,99,380847,1,0,0:0:0:0:
181,69,380912,2,0,P|223:40|249:7,3,75.0000028610231
215,92,381173,2,0,P|234:44|238:2,1,75.0000028610231
267,14,381303,6,0,P|331:67|364:140,1,150.000005722046
397,293,381564,1,0,0:0:0:0:
397,293,381695,2,0,P|321:267|237:272,1,150.000005722046
99,282,381956,1,0,0:0:0:0:
99,282,382086,2,0,P|132:201|134:118,1,150.000005722046
286,80,382347,2,0,B|267:160|267:160|361:129,1,150.000005722046
407,311,382608,1,0,0:0:0:0:
407,311,382738,2,0,L|305:198,1,150.000005722046
89,327,382999,1,0,0:0:0:0:
89,327,383130,2,0,L|183:200,1,150.000005722046
274,63,383390,5,0,0:0:0:0:
270,182,383651,1,0,0:0:0:0:
276,301,383912,1,0,0:0:0:0:
276,301,384043,2,0,P|358:294|412:249,1,150.000005722046
407,71,384303,1,0,0:0:0:0:
257,131,384434,6,0,L|233:55,16,75.0000028610231
