osu file format v14

[General]
AudioFilename: audio.mp3
AudioLeadIn: 0
PreviewTime: -1
Countdown: 1
SampleSet: None
StackLeniency: 0.7
Mode: 0
LetterboxInBreaks: 0
WidescreenStoryboard: 1

[Editor]
Bookmarks: 179921
DistanceSpacing: 0.6
BeatDivisor: 3
GridSize: 4
TimelineZoom: 1

[Metadata]
Title:Undertale Boss Themes
TitleUnicode:Undertale Boss Themes
Artist:toby fox
ArtistUnicode:toby fox
Creator:corninho
Version:Spear Of Justice
Source:UNDERTALE
Tags:bad time spoiler sans papyrus frisk chara flowey determination patience kindness human toriel asgore asriel mount ebott snowdin bravery integrity perserverance justice fallen human genocide alphys mettaton hotland dog soul love exp undyne flowey onionsan onionsama onionchan onion napstablook hope dream annoying demo heroine final battle voli dirai epilepsy ruins core waterfall neutral ending hard mode megalomania Nyeh Heh Heh! temmie idiot baka heart blue indigo purple yellow green orange soulless monster chiptune pixel 2015 spare act fight item heartache bonetrousle spear of justice spider dance death by glamour your best nightmare hopes and dreams megalovania muffet NEO undying omega photoshop raidiation indie hula earthbound belowstory morality marathon incorrigible undermeme
BeatmapID:2119163
BeatmapSetID:747710

[Difficulty]
HPDrainRate:4
CircleSize:4
OverallDifficulty:9
ApproachRate:9.5
SliderMultiplier:2
SliderTickRate:1

[Events]
//Background and Video events
0,0,"SOULS.jpg",0,0
//Break Periods
2,228031,237915
2,249932,260158
//Storyboard Layer 0 (Background)
//Storyboard Layer 1 (Fail)
//Storyboard Layer 2 (Pass)
//Storyboard Layer 3 (Foreground)
//Storyboard Sound Samples

[TimingPoints]
720,251.046025104603,3,2,3,65,1,0
12770,-100,4,2,3,65,0,1
13774,-57.1428571428571,4,2,3,65,0,1
14276,-100,4,2,3,65,0,1
17289,-100,4,2,3,65,0,0
30845,-100,4,2,3,65,0,1
31849,-66.6666666666667,4,2,3,65,0,1
32728,-100,4,2,3,65,0,1
36117,-66.6666666666667,4,2,3,65,0,1
37247,-100,4,2,3,65,0,1
37874,-66.6666666666667,4,2,3,65,0,1
38753,-100,4,2,3,65,0,1
43899,-66.6666666666667,4,2,3,65,0,1
44778,-100,4,2,3,65,0,1
45406,-66.6666666666667,4,2,3,65,0,1
45908,-100,4,2,3,65,0,0
46284,-100,4,2,3,65,0,0
110428,400,4,2,3,65,1,0
110428,-80,4,2,3,65,0,0
142428,-57.1428571428571,4,2,3,65,0,1
161628,-100,4,2,3,65,0,0
168971,342.211829122227,4,2,3,65,1,0
179921,-80,4,2,3,65,0,0
190872,-66.6666666666667,4,2,3,65,0,0
205587,-90.9090909090909,4,2,3,65,0,0
238440,-80,4,2,3,65,0,0
260683,-86.9565217391304,4,2,3,65,0,0
285304,260.869565217391,4,2,3,65,1,0
318695,-80,4,2,3,65,0,1
327043,-66.6666666666667,4,2,3,65,0,1
334869,-117.647058823529,4,2,3,65,0,1
335390,-57.1428571428571,4,2,3,65,0,1
339564,-100,4,2,3,35,0,1
340347,-80,4,2,3,35,0,1
341390,-66.6666666666667,4,2,3,35,0,1
341651,-57.1428571428571,4,2,3,65,0,1
351043,-133.333333333333,4,2,3,65,0,1
351825,-133.333333333333,4,2,3,20,0,1
351956,-133.333333333333,4,2,3,5,0,1
352086,-100,4,2,3,65,0,0
368782,-66.6666666666667,4,2,3,65,0,0
392904,405.405405405405,4,2,3,65,1,0
528605,264.31718061674,4,2,3,65,1,0
549061,261.244394130709,4,2,3,65,1,0
705642,317.460317460317,4,2,3,65,1,0
728344,315.789473684211,4,2,3,65,1,0
823157,351.535036325287,4,2,3,65,1,0
1005362,400,4,2,3,5,1,0
1161315,250,4,3,3,65,1,0

[HitObjects]
210,363,179921,6,0,P|193:270|207:195,1,166.666666666667
321,210,180263,2,0,B|247:153|247:153|223:72,1,166.666666666667
112,51,180606,2,0,L|165:115,1,83.3333333333333
332,127,180834,2,0,L|318:230,1,83.3333333333333
451,312,181062,2,0,L|337:351,1,83.3333333333333
205,335,181290,6,0,B|121:315|121:315|81:214,1,166.666666666667
54,120,181632,2,0,P|145:155|203:208,1,166.666666666667
295,277,181975,2,0,L|339:193,1,83.3333333333333
458,71,182203,2,0,L|451:158,1,83.3333333333333
490,338,182431,2,0,L|492:242,1,83.3333333333333
333,37,182659,6,0,B|323:149|323:149|336:215,1,166.666666666667
195,304,183001,2,0,P|278:265|368:289,1,166.666666666667
415,193,183343,2,0,P|322:200|262:181,1,83.3333333333333
137,155,183572,2,0,P|229:184|266:174,1,83.3333333333333
270,365,183800,2,0,P|266:276|254:250,1,83.3333333333333
263,157,184028,5,0,0:0:0:0:
126,279,184256,1,0,0:0:0:0:
117,95,184484,1,0,0:0:0:0:
12,245,184712,1,0,0:0:0:0:
117,95,184940,1,0,0:0:0:0:
257,214,185169,1,0,0:0:0:0:
109,323,185397,6,0,B|109:231|109:231|141:151,1,166.666666666667
257,214,185739,2,0,P|183:162|144:84,1,166.666666666667
162,14,186081,2,0,L|146:103,1,83.3333333333333
8,188,186309,2,0,L|101:196,1,83.3333333333333
233,281,186537,2,0,L|133:276,1,83.3333333333333
11,329,186766,6,0,P|101:360|183:353,1,166.666666666667
341,334,187108,2,0,B|288:264|288:264|274:179,1,166.666666666667
392,68,187450,2,0,L|392:162,1,83.3333333333333
341,335,187678,2,0,L|340:228,1,83.3333333333333
241,72,187906,2,0,L|238:157,1,83.3333333333333
49,311,188134,6,0,B|151:295|151:295|166:263|166:263|187:273|234:337,1,166.666666666667
340,251,188477,2,0,P|303:159|303:77,1,166.666666666667
138,57,188819,2,0,L|139:152,1,83.3333333333333
258,177,189047,2,0,L|257:282,1,83.3333333333333
423,259,189275,2,0,L|425:358,1,83.3333333333333
258,343,189503,5,0,0:0:0:0:
296,146,189731,1,0,0:0:0:0:
495,149,189959,1,0,0:0:0:0:
392,321,190188,1,0,0:0:0:0:
296,146,190416,1,0,0:0:0:0:
105,84,190644,1,0,0:0:0:0:
78,322,190872,6,0,P|141:217|232:213,1,200.000007629395
342,334,191214,2,0,P|239:280|209:187,1,200.000007629395
279,109,191556,2,0,L|217:217,1,100.000003814697
442,197,191785,2,0,L|340:237,1,100.000003814697
507,346,192013,2,0,L|375:362,1,100.000003814697
183,341,192241,6,0,B|182:230|182:230|143:140,1,200.000007629395
312,43,192583,2,0,B|207:88|207:88|143:151,1,200.000007629395
55,226,192925,2,0,L|139:298,1,100.000003814697
296,181,193153,2,0,L|217:106,1,100.000003814697
33,253,193382,2,0,L|114:325,1,100.000003814697
330,156,193610,6,0,B|261:75|261:75|366:75,1,200.000007629395
448,175,193952,2,0,P|381:261|384:354,1,200.000007629395
262,350,194294,2,0,L|259:248,1,100.000003814697
92,125,194522,2,0,P|201:146|245:168,1,100.000003814697
459,137,194750,2,0,P|352:140|332:146,1,100.000003814697
243,171,194979,5,0,0:0:0:0:
80,347,195207,1,0,0:0:0:0:
108,108,195435,1,0,0:0:0:0:
264,290,195663,1,0,0:0:0:0:
108,108,195891,1,0,0:0:0:0:
332,24,196119,1,0,0:0:0:0:
108,108,196347,6,0,B|215:153|215:153|283:229,1,200.000007629395
106,319,196690,2,0,B|227:268|227:268|282:200,1,200.000007629395
419,337,197032,2,0,L|410:232,1,100.000003814697
323,36,197260,2,0,L|292:137,1,100.000003814697
248,352,197488,2,0,L|210:257,1,100.000003814697
48,126,197716,6,0,B|157:111|157:111|205:125|243:159,1,200.000007629395
423,179,198059,2,0,B|314:194|314:194|266:180|235:152,1,200.000007629395
241,52,198401,2,0,L|234:162,1,100.000003814697
117,180,198629,2,0,L|171:284,1,100.000003814697
391,175,198857,2,0,L|347:278,1,100.000003814697
252,364,199085,6,0,B|237:295|237:295|259:253|259:253|243:206|243:206|255:153,1,200.000007629395
61,60,199427,2,0,B|142:58|142:58|166:80|166:80|195:74|195:74|266:96,1,200.000007629395
394,104,199770,2,0,L|353:198,1,100.000003814697
250,174,199998,2,0,L|188:263,1,100.000003814697
80,236,200226,2,0,L|32:341,1,100.000003814697
147,337,200454,5,0,0:0:0:0:
169,118,200682,1,0,0:0:0:0:
318,279,200910,1,0,0:0:0:0:
411,80,201138,1,0,0:0:0:0:
169,118,201367,1,0,0:0:0:0:
80,319,201595,1,0,0:0:0:0:
259,307,201823,5,0,0:0:0:0:
169,118,202051,1,0,0:0:0:0:
348,101,202279,1,0,0:0:0:0:
409,270,202507,1,0,0:0:0:0:
229,263,202735,1,0,0:0:0:0:
184,87,202964,1,0,0:0:0:0:
323,91,203192,5,0,0:0:0:0:
342,229,203420,1,0,0:0:0:0:
202,234,203648,1,0,0:0:0:0:
207,94,203876,1,0,0:0:0:0:
345,112,204104,1,0,0:0:0:0:
316,249,204332,1,0,0:0:0:0:
178,280,204561,5,0,0:0:0:0:
178,280,204789,1,0,0:0:0:0:
178,280,205017,1,0,0:0:0:0:
178,280,205245,1,0,0:0:0:0:
388,343,205587,5,0,0:0:0:0:
333,293,205701,1,0,0:0:0:0:
260,282,205815,1,0,0:0:0:0:
215,339,205929,2,0,P|132:318|73:331,1,146.666671142578
40,265,206272,2,0,P|73:196|52:115,1,146.666671142578
96,65,206614,1,0,0:0:0:0:
96,65,206842,5,0,0:0:0:0:
154,108,206956,1,0,0:0:0:0:
211,62,207070,1,0,0:0:0:0:
274,98,207184,1,0,0:0:0:0:
333,55,207298,2,0,P|412:38|480:72,1,146.666671142578
473,136,207640,2,0,P|439:219|466:304,1,146.666671142578
474,299,207926,1,0,0:0:0:0:
474,299,207983,1,0,0:0:0:0:
474,299,208040,1,0,0:0:0:0:
474,299,208211,5,0,0:0:0:0:
405,273,208325,1,0,0:0:0:0:
349,321,208439,1,0,0:0:0:0:
287,280,208553,1,0,0:0:0:0:
224,317,208667,2,0,P|145:322|77:351,1,146.666671142578
72,274,209009,2,0,B|108:200|108:200|200:220,1,146.666671142578
199,236,209294,5,0,0:0:0:0:
199,236,209351,1,0,0:0:0:0:
199,236,209409,2,0,P|263:241|276:191,1,110.000003356934
278,206,209637,2,0,P|301:158|354:140,1,110.000003356934
351,139,209865,2,0,P|410:174|455:165,1,110.000003356934
449,167,210150,1,0,0:0:0:0:
424,98,210264,1,0,0:0:0:0:
358,64,210378,2,0,P|286:93|221:67,1,146.666671142578
161,31,210720,2,0,P|180:111|157:183,1,146.666671142578
115,228,211063,5,0,0:0:0:0:
115,228,211177,1,0,0:0:0:0:
181,258,211291,1,0,0:0:0:0:
214,323,211405,2,0,P|145:366|68:360,1,146.666671142578
36,307,211747,2,0,P|82:240|61:170,1,146.666671142578
63,107,212089,1,0,0:0:0:0:
63,107,212317,5,0,0:0:0:0:
68,180,212431,1,0,0:0:0:0:
111,239,212545,1,0,0:0:0:0:
181,260,212660,1,0,0:0:0:0:
248,230,212774,2,0,P|265:152|317:102,1,146.666671142578
418,27,213116,2,0,P|341:104|288:99,1,146.666671142578
273,100,213401,1,0,0:0:0:0:
273,100,213458,1,0,0:0:0:0:
273,100,213515,1,0,0:0:0:0:
273,100,213686,5,0,0:0:0:0:
221,151,213800,1,0,0:0:0:0:
215,224,213914,1,0,0:0:0:0:
259,282,214028,1,0,0:0:0:0:
329,300,214142,2,0,P|367:223|429:180,1,146.666671142578
478,318,214485,2,0,L|406:171,1,146.666671142578
388,117,214827,1,0,0:0:0:0:
295,230,215055,1,0,0:0:0:0:
205,114,215283,1,0,0:0:0:0:
205,114,215511,5,0,0:0:0:0:
147,180,215625,1,0,0:0:0:0:
215,234,215739,1,0,0:0:0:0:
153,298,215854,2,0,B|205:355|205:355|298:355,1,146.666671142578
377,313,216196,2,0,P|335:253|324:177,1,146.666671142578
371,108,216538,5,0,0:0:0:0:
289,140,216652,1,0,0:0:0:0:
214,93,216766,1,0,0:0:0:0:
134,129,216880,2,0,L|154:215,1,73.3333355712891
280,293,217108,1,0,0:0:0:0:
280,293,217222,2,0,L|201:305,1,73.3333355712891
83,313,217451,1,0,0:0:0:0:
83,313,217565,1,0,0:0:0:0:
83,313,217793,5,0,0:0:0:0:
80,203,217907,1,0,0:0:0:0:
183,240,218021,1,0,0:0:0:0:
177,130,218135,1,0,0:0:0:0:
266,193,218249,6,0,P|337:229|379:286,1,146.666671142578
241,323,218591,2,0,P|338:308|388:269,1,146.666671142578
499,201,218933,2,0,L|434:85,1,73.3333355712891
277,162,219162,2,0,L|310:233,1,73.3333355712891
223,346,219390,1,0,0:0:0:0:
223,346,219504,1,0,0:0:0:0:
223,346,219618,2,0,L|168:263,1,73.3333355712891
34,162,219846,1,0,0:0:0:0:
34,162,219960,2,0,L|109:182,1,73.3333355712891
221,130,220188,1,0,0:0:0:0:
221,130,220302,1,0,0:0:0:0:
221,130,220530,5,0,0:0:0:0:
339,137,220645,1,0,0:0:0:0:
281,239,220759,1,0,0:0:0:0:
398,237,220873,1,0,0:0:0:0:
281,239,220987,6,0,B|227:164|227:164|226:92,1,146.666671142578
339,137,221329,2,0,P|441:142|501:186,1,146.666671142578
415,262,221671,2,0,L|368:333,1,73.3333355712891
212,346,221899,2,0,L|146:282,1,73.3333355712891
144,184,222127,5,0,0:0:0:0:
152,81,222241,1,0,0:0:0:0:
144,184,222356,2,0,L|226:210,1,73.3333355712891
394,190,222584,1,0,0:0:0:0:
394,190,222698,2,0,L|361:115,1,73.3333355712891
266,24,222926,1,0,0:0:0:0:
269,160,223040,1,0,0:0:0:0:
269,160,223268,5,0,0:0:0:0:
227,253,223382,1,0,0:0:0:0:
140,197,223496,1,0,0:0:0:0:
109,294,223610,1,0,0:0:0:0:
19,243,223724,6,0,P|1:160|18:98,1,146.666671142578
140,197,224067,2,0,P|118:273|119:346,1,146.666671142578
220,327,224409,2,0,L|235:238,1,73.3333355712891
308,157,224637,2,0,L|282:76,1,73.3333355712891
95,51,224865,1,0,0:0:0:0:
95,51,224979,1,0,0:0:0:0:
95,51,225093,2,0,L|188:70,1,73.3333355712891
306,157,225321,1,0,0:0:0:0:
306,157,225435,2,0,L|216:150,1,73.3333355712891
130,162,225664,5,0,0:0:0:0:
159,278,225778,1,0,0:0:0:0:
159,278,226006,5,0,0:0:0:0:
69,228,226120,1,0,0:0:0:0:
130,162,226234,1,0,0:0:0:0:
69,78,226348,1,0,0:0:0:0:
69,78,226462,2,0,B|152:66|152:66|201:108,1,146.666671142578
312,185,226804,2,0,P|229:152|196:95,1,146.666671142578
287,52,227147,6,0,L|277:135,1,73.3333355712891
370,213,227375,2,0,L|336:282,1,73.3333355712891
210,338,227603,1,0,0:0:0:0:
210,338,227717,1,0,0:0:0:0:
210,338,227831,1,0,0:0:0:0:
191,324,238440,5,0,0:0:0:0:
170,234,238554,1,0,0:0:0:0:
191,144,238668,1,0,0:0:0:0:
191,144,238782,2,0,L|294:152,1,83.3333333333333
430,292,239010,1,0,0:0:0:0:
430,292,239124,2,0,L|331:291,1,83.3333333333333
227,279,239352,1,0,0:0:0:0:
140,213,239466,1,0,0:0:0:0:
140,213,239694,5,0,0:0:0:0:
140,213,239808,1,0,0:0:0:0:
75,333,239922,1,0,0:0:0:0:
75,333,240036,1,0,0:0:0:0:
19,211,240151,2,0,P|25:118|83:59,1,166.666666666667
140,213,240493,2,0,P|160:118|220:70,1,166.666666666667
351,48,240835,2,0,L|326:139,1,83.3333333333333
255,350,241063,2,0,L|256:224,1,83.3333333333333
214,75,241291,1,0,0:0:0:0:
214,75,241405,1,0,0:0:0:0:
214,75,241519,6,0,L|200:163,1,83.3333333333333
68,318,241748,1,0,0:0:0:0:
68,318,241862,2,0,L|67:211,1,83.3333333333333
50,86,242090,1,0,0:0:0:0:
138,160,242204,1,0,0:0:0:0:
138,160,242432,5,0,0:0:0:0:
138,160,242546,1,0,0:0:0:0:
237,77,242660,1,0,0:0:0:0:
237,77,242774,1,0,0:0:0:0:
323,168,242888,2,0,B|323:257|323:257|419:244,1,166.666666666667
480,377,243230,2,0,P|447:276|390:243,1,166.666666666667
325,300,243573,2,0,L|284:217,1,83.3333333333333
79,237,243801,2,0,L|116:331,1,83.3333333333333
372,269,244029,1,0,0:0:0:0:
372,269,244143,1,0,0:0:0:0:
372,269,244257,6,0,L|330:184,1,83.3333333333333
255,46,244485,1,0,0:0:0:0:
255,46,244599,2,0,L|254:149,1,83.3333333333333
287,317,244827,1,0,0:0:0:0:
372,269,244942,1,0,0:0:0:0:
372,269,245170,5,0,0:0:0:0:
372,269,245284,1,0,0:0:0:0:
462,172,245398,1,0,0:0:0:0:
462,172,245512,1,0,0:0:0:0:
367,80,245626,2,0,P|285:117|195:97,1,166.666666666667
148,172,245968,2,0,P|147:265|206:351,1,166.666666666667
308,356,246310,2,0,L|295:269,1,83.3333333333333
415,212,246539,2,0,L|411:115,1,83.3333333333333
268,112,246767,1,0,0:0:0:0:
268,112,246881,5,0,0:0:0:0:
268,112,246995,2,0,L|257:14,1,83.3333333333333
84,69,247223,1,0,0:0:0:0:
84,69,247337,2,0,L|86:166,1,83.3333333333333
218,218,247565,1,0,0:0:0:0:
217,335,247679,1,0,0:0:0:0:
217,335,247907,5,0,0:0:0:0:
217,335,248021,1,0,0:0:0:0:
88,242,248136,1,0,0:0:0:0:
88,242,248250,1,0,0:0:0:0:
210,181,248364,2,0,B|165:256|165:256|81:240,1,166.666666666667
58,83,248706,2,0,P|54:168|89:244,1,166.666666666667
211,183,249048,6,0,L|214:271,1,83.3333333333333
359,91,249276,2,0,L|358:181,1,83.3333333333333
224,29,249504,2,0,L|220:125,1,83.3333333333333
289,291,249732,1,0,0:0:0:0:
205,324,260683,6,0,P|210:238|168:157,1,153.333336257935
184,177,261025,2,0,P|182:95|134:39,1,153.333336257935
138,42,261368,1,0,0:0:0:0:
138,42,261596,5,0,0:0:0:0:
116,82,261710,1,0,0:0:0:0:
112,127,261824,1,0,0:0:0:0:
121,171,261938,1,0,0:0:0:0:
155,201,262052,2,0,P|228:149|310:143,1,153.333336257935
289,140,262394,2,0,P|370:162|437:120,1,153.333336257935
428,130,262680,1,0,0:0:0:0:
428,130,262737,1,0,0:0:0:0:
428,130,262794,1,0,0:0:0:0:
428,130,262965,5,0,0:0:0:0:
458,165,263079,1,0,0:0:0:0:
468,209,263193,1,0,0:0:0:0:
465,254,263307,1,0,0:0:0:0:
442,294,263421,2,0,P|362:294|294:249,1,153.333336257935
301,256,263763,2,0,P|230:295|149:280,1,153.333336257935
160,285,264105,6,0,P|121:247|133:177,1,115.000002193451
123,190,264334,2,0,P|134:137|95:73,1,115.000002193451
108,84,264562,2,0,P|105:30|165:4,1,115.000002193451
152,2,264790,5,0,0:0:0:0:
181,37,264904,1,0,0:0:0:0:
190,82,265018,1,0,0:0:0:0:
179,126,265132,2,0,P|115:186|97:255,1,153.333336257935
97,247,265474,2,0,B|163:295|163:295|245:300,1,153.333336257935
279,308,265816,1,0,0:0:0:0:
247,273,265931,1,0,0:0:0:0:
229,230,266045,1,0,0:0:0:0:
231,184,266159,6,0,B|270:111|270:111|346:128,1,153.333336257935
338,126,266501,2,0,P|345:213|385:271,1,153.333336257935
445,296,266843,1,0,0:0:0:0:
445,296,267071,5,0,0:0:0:0:
414,330,267185,1,0,0:0:0:0:
369,339,267299,1,0,0:0:0:0:
323,343,267413,1,0,0:0:0:0:
279,325,267528,2,0,P|235:254|154:218,1,153.333336257935
175,221,267870,2,0,P|137:145|159:66,1,153.333336257935
149,81,268155,1,0,0:0:0:0:
149,81,268212,1,0,0:0:0:0:
149,81,268269,1,0,0:0:0:0:
149,81,268440,5,0,0:0:0:0:
118,115,268554,1,0,0:0:0:0:
99,157,268668,1,0,0:0:0:0:
95,202,268782,1,0,0:0:0:0:
101,247,268896,2,0,B|135:321|135:321|217:335,1,153.333336257935
205,333,269239,2,0,P|219:246|266:190,1,153.333336257935
258,196,269581,6,0,P|315:219|378:200,1,115.000002193451
365,207,269809,2,0,P|310:218|258:196,1,115.000002193451
258,196,270094,2,0,P|315:219|378:200,1,115.000002193451
399,176,270379,5,0,0:0:0:0:
395,130,270493,1,0,0:0:0:0:
380,86,270607,2,0,P|281:107|226:80,1,153.333336257935
236,87,270950,6,0,P|202:165|137:196,2,153.333336257935
236,87,271520,1,0,0:0:0:0:
236,87,271634,2,0,P|319:101|386:146,1,153.333336257935
376,137,271976,2,0,B|405:213|405:213|462:263,1,153.333336257935
459,260,272318,1,0,0:0:0:0:
459,260,272547,5,0,0:0:0:0:
429,295,272661,1,0,0:0:0:0:
383,303,272775,1,0,0:0:0:0:
338,293,272889,1,0,0:0:0:0:
296,272,273003,2,0,P|276:189|292:103,1,153.333336257935
284,122,273345,2,0,P|206:167|116:157,1,153.333336257935
145,166,273630,1,0,0:0:0:0:
145,166,273687,1,0,0:0:0:0:
145,166,273744,1,0,0:0:0:0:
145,166,273915,5,0,0:0:0:0:
117,203,274030,1,0,0:0:0:0:
115,248,274144,1,0,0:0:0:0:
135,289,274258,1,0,0:0:0:0:
135,289,274372,2,0,B|227:277|227:277|280:229,1,153.333336257935
271,236,274714,2,0,P|348:271|446:253,1,153.333336257935
415,265,275056,6,0,P|386:208|393:149,1,115.000002193451
389,159,275284,2,0,P|339:186|254:162,1,115.000002193451
282,180,275569,2,0,P|274:246|296:276,1,76.6666681289673
291,271,275741,1,0,0:0:0:0:
286,316,275855,1,0,0:0:0:0:
247,341,275969,1,0,0:0:0:0:
247,341,276083,6,0,P|197:273|104:254,1,153.333336257935
133,252,276425,2,0,P|155:166|116:95,1,153.333336257935
129,109,276767,1,0,0:0:0:0:
175,113,276881,1,0,0:0:0:0:
216,133,276995,1,0,0:0:0:0:
254,158,277109,2,0,P|319:105|392:86,1,153.333336257935
384,86,277452,2,0,B|390:176|390:176|347:229,1,153.333336257935
349,225,277794,1,0,0:0:0:0:
349,225,278022,5,0,0:0:0:0:
316,193,278136,1,0,0:0:0:0:
272,178,278250,1,0,0:0:0:0:
227,165,278364,1,0,0:0:0:0:
181,169,278478,2,0,P|150:258|85:290,1,153.333336257935
102,286,278820,2,0,L|92:127,1,153.333336257935
92,133,279106,1,0,0:0:0:0:
92,133,279163,1,0,0:0:0:0:
92,133,279220,1,0,0:0:0:0:
92,133,279391,5,0,0:0:0:0:
61,167,279505,1,0,0:0:0:0:
50,211,279619,1,0,0:0:0:0:
51,256,279733,1,0,0:0:0:0:
85,286,279847,2,0,P|166:293|251:251,1,153.333336257935
231,266,280189,2,0,P|247:183|222:103,1,153.333336257935
230,118,280532,6,0,P|184:103|114:135,1,115.000002193451
123,124,280760,2,0,P|128:64|96:18,1,115.000002193451
99,20,281045,2,0,P|146:37|212:17,1,115.000002193451
207,20,281330,1,0,0:0:0:0:
234,57,281444,1,0,0:0:0:0:
234,57,281558,6,0,P|236:136|235:218,1,153.333336257935
235,210,281900,2,0,B|317:226|317:226|426:246,3,153.333336257935
