osu file format v14

[General]
AudioFilename: Undertale Boss Themes.mp3
AudioLeadIn: 0
PreviewTime: 457303
Countdown: 0
SampleSet: None
StackLeniency: 0.5
Mode: 0
LetterboxInBreaks: 0
WidescreenStoryboard: 0

[Editor]
Bookmarks: 614,110322,168865,285198,392798,528499,705582,823087,913089,1004797
DistanceSpacing: 1.2
BeatDivisor: 4
GridSize: 8
TimelineZoom: 0.1

[Metadata]
Title:Undertale Boss Themes (Practice Mapset)
TitleUnicode:Undertale Boss Themes (Practice Mapset)
Artist:toby fox
ArtistUnicode:toby fox
Creator:Pointless
Version:NGAHHH! - Undyne
Source:UNDERTALE
Tags:bad time spoiler sans papyrus frisk chara flowey determination patience kindness human toriel asgore asriel mount ebott snowdin bravery integrity perserverance justice fallen human genocide alphys mettaton hotland dog soul love exp undyne flowey onionsan onionsama onionchan onion napstablook hope dream annoying demo heroine final battle voli dirai epilepsy ruins core waterfall neutral ending hard mode megalomania Nyeh Heh Heh! temmie idiot baka heart blue indigo purple yellow green orange soulless monster chiptune pixel 2015 spare act fight item heartache bonetrousle spear of justice spider dance death by glamour your best nightmare hopes and dreams megalovania muffet NEO undying omega photoshop raidiation indie hula earthbound belowstory morality marathon incorrigible undermeme
BeatmapID:1297279
BeatmapSetID:615001

[Difficulty]
HPDrainRate:4
CircleSize:3.5
OverallDifficulty:9.3
ApproachRate:9.6
SliderMultiplier:2.1
SliderTickRate:2

[Events]
//Background and Video events
0,0,"SOULS.jpg",0,0
//Break Periods
2,227971,237740
2,249872,260098
//Storyboard Layer 0 (Background)
//Storyboard Layer 1 (Fail)
//Storyboard Layer 2 (Pass)
//Storyboard Layer 3 (Foreground)
//Storyboard Sound Samples

[TimingPoints]
660,251.046025104603,3,2,3,65,1,0
5178,-200,4,2,3,65,0,0
12710,-149.253731343284,4,2,3,65,0,0
23254,-188.679245283019,4,2,3,65,0,0
24760,-175.438596491228,4,2,3,65,0,0
29279,-188.679245283019,4,2,3,65,0,0
30785,-149.253731343284,4,2,3,65,0,0
42835,-166.666666666667,4,2,3,65,0,0
43839,-149.253731343284,4,2,3,65,0,0
51873,-149.253731343284,4,2,3,35,0,0
54885,-149.253731343284,4,2,3,65,0,0
62417,-166.666666666667,4,2,3,65,0,0
63923,-149.253731343284,4,2,3,65,0,0
86517,-200,4,2,3,65,0,0
88024,-142.857142857143,4,2,3,65,0,0
110368,400,4,2,3,65,1,0
118268,-100,4,2,3,25,0,0
118368,-100,4,2,3,65,0,0
119068,-100,4,2,3,25,0,0
119168,-100,4,2,3,65,0,0
120668,-100,4,2,3,25,0,0
120768,-100,4,2,3,65,0,0
122268,-100,4,2,3,25,0,0
122368,-100,4,2,3,65,0,0
127068,-100,4,2,3,25,0,0
127168,-100,4,2,3,65,0,0
131068,-100,4,2,3,25,0,0
131168,-100,4,2,3,65,0,0
131868,-100,4,2,3,25,0,0
131968,-100,4,2,3,65,0,0
133468,-100,4,2,3,25,0,0
133568,-100,4,2,3,65,0,0
135068,-100,4,2,3,25,0,0
135168,-100,4,2,3,65,0,0
137468,-100,4,2,3,25,0,0
137568,-100,4,2,3,65,0,0
138268,-100,4,2,3,25,0,0
138368,-100,4,2,3,65,0,0
139868,-100,4,2,3,25,0,0
139968,-100,4,2,3,65,0,0
142368,-83.3333333333333,4,2,3,65,0,0
144668,-83.3333333333333,4,2,3,25,0,0
144768,-83.3333333333333,4,2,3,65,0,0
151068,-83.3333333333333,4,2,3,25,0,0
151168,-83.3333333333333,4,2,3,65,0,0
154668,-83.3333333333333,4,2,3,25,0,0
154768,-83.3333333333333,4,2,3,65,0,0
157468,-83.3333333333333,4,2,3,25,0,0
157568,-83.3333333333333,4,2,3,65,0,0
161568,-111.111111111111,4,2,3,65,0,0
167168,-111.111111111111,4,2,3,65,0,0
168911,342.211829122227,4,2,3,65,1,0
179861,-83.3333333333333,4,2,3,65,0,0
190812,-76.9230769230769,4,2,3,65,0,0
205527,-111.111111111111,4,2,3,65,0,0
207695,-111.111111111111,4,2,3,25,0,0
207809,-111.111111111111,4,2,3,65,0,0
213170,-111.111111111111,4,2,3,25,0,0
213284,-111.111111111111,4,2,3,45,0,0
216364,-100,4,2,3,65,0,0
216820,-83.3333333333333,4,2,3,65,0,0
260623,-90.9090909090909,4,2,3,65,0,0
285244,260.869565217391,4,2,3,65,1,0
293591,-117.647058823529,4,2,3,65,0,0
299852,-166.666666666667,4,2,3,65,0,0
301939,-117.647058823529,4,2,3,65,0,0
308200,-166.666666666667,4,2,3,65,0,0
310287,-117.647058823529,4,2,3,65,0,0
316548,-200,4,2,3,65,0,0
318635,-100,4,2,3,65,0,0
334809,-117.647058823529,4,2,3,65,0,0
335330,-100,4,2,3,65,0,0
339504,-100,4,2,3,65,0,0
350983,-133.333333333333,4,2,3,65,0,0
351765,-133.333333333333,4,2,3,20,0,0
351896,-133.333333333333,4,2,3,5,0,0
352026,-100,4,2,3,65,0,0
392844,405.405405405405,4,2,3,65,1,0
418789,-76.9230769230769,4,2,3,65,0,0
431762,-58.8235294117647,4,2,3,65,0,0
457708,-50,4,2,3,65,0,0
459330,-40,4,2,3,65,0,0
460141,-28.5714285714286,4,2,3,65,0,0
460952,-50,4,2,3,65,0,0
465816,-40,4,2,3,65,0,0
466627,-28.5714285714286,4,2,3,65,0,0
467438,-50,4,2,3,65,0,0
472303,-40,4,2,3,65,0,0
473114,-28.5714285714286,4,2,3,65,0,0
473925,-50,4,2,3,65,0,0
478789,-40,4,2,3,65,0,0
479600,-28.5714285714286,4,2,3,65,0,0
480411,-50,4,2,3,65,0,0
481931,-100,4,2,3,65,0,0
483654,-50,4,2,3,65,0,0
509600,-66.6666666666667,4,2,3,65,0,0
523384,-80,4,2,3,65,0,0
524195,-100,4,2,3,65,0,0
528545,264.31718061674,4,2,3,65,1,0
549001,261.244394130709,4,2,3,65,1,0
549001,-125,4,2,3,65,0,0
564675,-200,4,2,3,65,0,0
565198,-200,4,2,3,25,0,0
565720,-200,4,2,3,65,0,0
566765,-125,4,2,3,65,0,0
581395,-200,4,2,3,65,0,0
581917,-200,4,2,3,25,0,0
582440,-200,4,2,3,65,0,0
583485,-153.846153846154,4,2,3,65,0,0
600204,-125,4,2,3,65,0,0
640959,-166.666666666667,4,2,3,65,0,0
642004,-111.111111111111,4,2,3,65,0,0
656633,-142.857142857143,4,2,3,65,0,0
658723,-200,4,2,3,65,0,0
662642,-200,4,2,3,35,0,0
662903,-200,4,2,3,65,0,0
666560,-200,4,2,3,35,0,0
667083,-200,4,2,3,65,0,0
675443,-125,4,2,3,65,0,0
698432,-100,4,2,3,65,0,0
705582,317.460317460317,4,2,3,65,1,0
721931,-100,4,2,3,30,0,0
727208,-100,4,2,3,5,0,0
728284,315.789473684211,4,2,3,65,1,0
728284,-62.5,4,2,3,65,0,0
758599,-133.333333333333,4,2,3,20,0,0
759862,-133.333333333333,4,2,3,50,0,0
775020,-133.333333333333,4,2,3,20,0,0
776283,-133.333333333333,4,2,3,50,0,0
791441,-133.333333333333,4,2,3,20,0,0
792705,-62.5,4,2,3,65,0,0
820494,-62.5,4,2,3,20,0,0
823097,351.535036325287,4,2,3,65,1,0
868093,-133.333333333333,4,2,3,65,0,0
889185,-200,4,2,3,55,0,0
890591,-100,4,2,3,45,0,0
1000270,-200,4,2,3,65,0,0
1002028,-200,4,2,3,5,0,0
1004800,250,4,3,3,65,1,0
1020800,-83.3333333333333,4,3,3,65,0,0
1100800,-100,4,3,3,65,0,0
1116800,-83.3333333333333,4,3,3,65,0,0
1148800,-200,4,2,3,55,0,0
1158800,-133.333333333333,4,3,3,65,0,0

[Colours]
Combo1 : 255,148,40
Combo2 : 0,0,255
Combo3 : 0,244,0
Combo4 : 196,0,196
Combo5 : 255,23,23
Combo6 : 230,230,0
Combo7 : 0,255,255

[HitObjects]
155,314,179861,6,0,P|176:224|123:147,1,167.999994873047,6|0,0:0|0:0,0:0:0:0:
78,105,180203,2,0,P|161:114|192:98,1,83.9999974365235,2|0,0:0|0:0,0:0:0:0:
290,41,180432,1,2,0:0:0:0:
306,53,180546,2,0,L|402:45,1,83.9999974365235,2|0,0:0|0:0,0:0:0:0:
467,172,180774,2,0,L|375:168,1,83.9999974365235,2|0,0:0|0:0,0:0:0:0:
294,300,181002,2,0,L|390:292,1,83.9999974365235,2|0,0:0|0:0,0:0:0:0:
256,196,181230,6,0,P|198:247|193:350,1,167.999994873047,6|0,0:0|0:0,0:0:0:0:
104,346,181572,2,0,L|84:201,1,83.9999974365235,2|0,0:0|0:0,0:0:0:0:
71,110,181800,1,2,0:0:0:0:
81,94,181915,2,0,P|117:73|160:68,1,83.9999974365235,2|0,0:0|0:0,0:0:0:0:
296,187,182143,2,0,P|256:197|216:187,1,83.9999974365235,2|0,0:0|0:0,0:0:0:0:
353,67,182371,2,0,P|394:72|431:94,1,83.9999974365235,2|0,0:0|0:0,0:0:0:0:
433,285,182599,6,0,B|348:274|348:274|274:309,1,167.999994873047,6|0,0:0|0:0,0:0:0:0:
186,339,182941,2,0,P|162:302|155:253,1,83.9999974365235,2|0,0:0|0:0,0:0:0:0:
221,108,183169,1,2,0:0:0:0:
235,93,183283,2,0,L|324:55,1,83.9999974365235,2|0,0:0|0:0,0:0:0:0:
122,75,183512,2,0,L|44:16,1,83.9999974365235,2|0,0:0|0:0,0:0:0:0:
165,179,183740,2,0,L|155:263,1,83.9999974365235,2|0,0:0|0:0,0:0:0:0:
454,333,183968,5,2,0:0:0:0:
346,118,184196,1,2,0:0:0:0:
303,306,184424,1,2,0:0:0:0:
510,206,184652,5,2,0:0:0:0:
346,118,184880,1,2,0:0:0:0:
256,368,185109,1,2,0:0:0:0:
53,152,185337,6,0,P|137:102|202:130,1,167.999994873047,6|0,0:0|0:0,0:0:0:0:
241,195,185679,2,0,L|251:290,1,83.9999974365235,2|0,0:0|0:0,0:0:0:0:
427,237,185907,1,2,0:0:0:0:
444,214,186021,2,0,P|456:145|450:116,1,83.9999974365235,2|0,0:0|0:0,0:0:0:0:
328,55,186249,2,0,P|328:125|339:152,1,83.9999974365235,2|0,0:0|0:0,0:0:0:0:
259,275,186477,2,0,P|246:206|231:180,1,83.9999974365235,2|0,0:0|0:0,0:0:0:0:
53,143,186706,6,0,L|85:325,1,167.999994873047,6|0,0:0|0:0,0:0:0:0:
154,266,187048,2,0,L|138:164,1,83.9999974365235,2|0,0:0|0:0,0:0:0:0:
202,54,187276,1,2,0:0:0:0:
228,71,187390,2,0,P|280:84|312:83,1,83.9999974365235,2|0,0:0|0:0,0:0:0:0:
465,169,187618,2,0,P|413:182|381:181,1,83.9999974365235,2|0,0:0|0:0,0:0:0:0:
275,301,187846,2,0,P|327:314|359:313,1,83.9999974365235,2|0,0:0|0:0,0:0:0:0:
243,199,188074,6,0,B|160:201|160:201|87:248,1,167.999994873047,6|0,0:0|0:0,0:0:0:0:
21,195,188417,2,0,P|40:135|37:99,1,83.9999974365235,2|0,0:0|0:0,0:0:0:0:
181,16,188645,1,2,0:0:0:0:
208,29,188759,2,0,L|222:119,1,83.9999974365235,2|0,0:0|0:0,0:0:0:0:
341,100,188987,2,0,L|327:190,1,83.9999974365235,2|0,0:0|0:0,0:0:0:0:
218,220,189215,2,0,L|232:310,1,83.9999974365235,2|0,0:0|0:0,0:0:0:0:
480,321,189443,5,2,0:0:0:0:
310,264,189671,1,2,0:0:0:0:
434,192,189899,1,2,0:0:0:0:
192,81,190128,5,2,0:0:0:0:
242,217,190356,1,2,0:0:0:0:
296,16,190584,1,2,0:0:0:0:
42,144,190812,6,0,P|20:216|82:306,1,181.999991668702,6|0,0:0|0:0,0:0:0:0:
164,293,191154,2,0,P|228:286|282:301,1,90.9999958343508,2|0,0:0|0:0,0:0:0:0:
391,321,191382,1,2,0:0:0:0:
414,303,191496,2,0,L|407:201,1,90.9999958343508,2|0,0:0|0:0,0:0:0:0:
275,132,191725,2,0,L|282:234,1,90.9999958343508,2|0,0:0|0:0,0:0:0:0:
449,144,191953,2,0,L|442:42,1,90.9999958343508,2|0,0:0|0:0,0:0:0:0:
265,7,192181,6,0,L|64:34,1,181.999991668702,6|0,0:0|0:0,0:0:0:0:
24,99,192523,2,0,B|8:142|8:142|16:187,1,90.9999958343508,2|0,0:0|0:0,0:0:0:0:
138,309,192751,1,2,0:0:0:0:
162,289,192865,2,0,P|165:232|147:194,1,90.9999958343508,2|0,0:0|0:0,0:0:0:0:
218,62,193093,2,0,P|266:93|308:96,1,90.9999958343508,2|0,0:0|0:0,0:0:0:0:
387,224,193322,2,0,P|336:250|312:285,1,90.9999958343508,2|0,0:0|0:0,0:0:0:0:
496,298,193550,6,0,L|476:90,1,181.999991668702,6|0,0:0|0:0,0:0:0:0:
368,83,193892,2,0,P|297:88|273:81,1,90.9999958343508,2|0,0:0|0:0,0:0:0:0:
111,72,194120,1,0,0:0:0:0:
88,92,194234,2,0,L|101:196,1,90.9999958343508,2|0,0:0|0:0,0:0:0:0:
182,309,194462,2,0,L|195:205,1,90.9999958343508,2|0,0:0|0:0,0:0:0:0:
314,173,194690,2,0,L|327:277,1,90.9999958343508,2|0,0:0|0:0,0:0:0:0:
85,361,194919,5,2,0:0:0:0:
163,124,195147,1,2,0:0:0:0:
255,305,195375,1,2,0:0:0:0:
27,192,195603,5,2,0:0:0:0:
234,178,195831,1,2,0:0:0:0:
21,46,196059,1,2,0:0:0:0:
203,250,196287,6,0,P|294:230|288:123,1,181.999991668702,6|0,0:0|0:0,0:0:0:0:
242,88,196630,2,0,L|142:85,1,90.9999958343508,2|0,0:0|0:0,0:0:0:0:
27,189,196858,1,2,0:0:0:0:
13,214,196972,2,0,P|10:257|25:308,1,90.9999958343508,2|0,0:0|0:0,0:0:0:0:
170,218,197200,2,0,P|144:183|100:153,1,90.9999958343508,2|0,0:0|0:0,0:0:0:0:
135,321,197428,2,0,P|201:323|244:301,1,90.9999958343508,2|0,0:0|0:0,0:0:0:0:
398,222,197656,6,0,P|448:289|376:295,1,181.999991668702,6|0,0:0|0:0,0:0:0:0:
313,240,197999,2,0,L|302:120,1,90.9999958343508,2|0,0:0|0:0,0:0:0:0:
187,46,198227,1,2,0:0:0:0:
161,60,198341,2,0,P|116:64|71:60,1,90.9999958343508,2|0,0:0|0:0,0:0:0:0:
263,29,198569,2,0,P|308:24|353:28,1,90.9999958343508,2|0,0:0|0:0,0:0:0:0:
235,160,198797,2,0,P|189:164|144:160,1,90.9999958343508,2|0,0:0|0:0,0:0:0:0:
351,131,199025,6,0,B|381:216|381:216|364:319,1,181.999991668702,6|0,0:0|0:0,0:0:0:0:
285,349,199367,2,0,L|180:357,1,90.9999958343508,2|0,0:0|0:0,0:0:0:0:
42,197,199595,1,2,0:0:0:0:
67,186,199710,2,0,P|138:180|167:186,1,90.9999958343508,2|0,0:0|0:0,0:0:0:0:
195,356,199938,2,0,P|154:297|145:269,1,90.9999958343508,2|0,0:0|0:0,0:0:0:0:
281,160,200166,2,0,P|250:224|231:246,1,90.9999958343508,2|0,0:0|0:0,0:0:0:0:
128,28,200394,5,2,0:0:0:0:
384,28,200622,1,2,0:0:0:0:
256,79,200850,1,2,0:0:0:0:
384,356,201078,5,2,0:0:0:0:
128,356,201306,1,2,0:0:0:0:
409,240,201534,1,2,0:0:0:0:
103,240,201763,5,2,0:0:0:0:
290,35,201991,1,2,0:0:0:0:
374,300,202219,1,2,0:0:0:0:
185,126,202447,5,2,0:0:0:0:
347,163,202675,1,2,0:0:0:0:
235,285,202903,1,2,0:0:0:0:
290,35,203132,5,2,0:0:0:0:
374,300,203360,1,2,0:0:0:0:
102,239,203588,1,2,0:0:0:0:
347,163,203816,5,2,0:0:0:0:
235,285,204044,1,2,0:0:0:0:
185,126,204272,1,2,0:0:0:0:
384,356,204501,5,2,0:0:0:0:
128,356,204729,1,2,0:0:0:0:
256,305,204957,1,2,0:0:0:0:
68,192,205185,5,2,0:0:0:0:
320,25,205527,2,0,L|396:32,2,62.9999980773926
234,64,205869,6,0,P|278:145|268:200,1,125.999996154785
252,234,206212,2,0,P|190:238|140:275,1,125.999996154785
104,327,206554,1,0,0:0:0:0:
227,350,206782,6,0,L|289:340,1,62.9999980773926
324,288,207010,2,0,L|386:278,1,62.9999980773926
437,241,207238,6,0,L|444:98,1,125.999996154785
426,54,207580,2,0,P|372:67|355:67,1,62.9999980773926
302,57,207809,2,0,L|258:50,2,31.4999990386963
288,182,208151,5,0,0:0:0:0:
226,194,208265,1,0,0:0:0:0:
166,177,208379,1,0,0:0:0:0:
120,136,208493,1,0,0:0:0:0:
97,78,208607,6,0,P|77:143|87:222,1,125.999996154785
108,256,208949,2,0,L|256:269,1,125.999996154785
287,235,209291,2,0,P|358:240|394:279,2,125.999996154785
188,155,209976,5,0,0:0:0:0:
241,122,210090,1,0,0:0:0:0:
295,89,210204,1,0,0:0:0:0:
349,56,210318,2,0,P|431:87|451:134,1,125.999996154785
435,178,210660,2,0,L|451:315,1,125.999996154785
406,349,211003,2,0,L|336:353,2,62.9999980773926
358,266,211345,6,0,P|297:276|257:324,1,125.999996154785
207,360,211687,2,0,P|217:283|197:240,1,125.999996154785
147,204,212029,1,0,0:0:0:0:
64,109,212257,6,0,P|76:58|74:42,1,62.9999980773926
128,15,212485,2,0,P|182:30|202:29,1,62.9999980773926
251,26,212714,6,0,L|394:39,1,125.999996154785
426,75,213056,2,0,L|433:147,1,62.9999980773926
437,200,213284,2,0,L|433:239,2,31.4999990386963
316,164,213626,5,0,0:0:0:0:
254,166,213740,1,0,0:0:0:0:
205,203,213854,1,0,0:0:0:0:
187,262,213968,1,0,0:0:0:0:
207,321,214082,6,0,L|344:330,1,125.999996154785
377,285,214425,2,0,P|392:224|380:162,1,125.999996154785
321,141,214767,2,0,P|252:131|216:80,2,125.999996154785
264,253,215451,5,0,0:0:0:0:
203,239,215565,1,0,0:0:0:0:
144,260,215679,1,0,0:0:0:0:
104,308,215794,2,0,L|98:162,1,125.999996154785
94,119,216136,1,0,0:0:0:0:
342,92,216364,6,0,L|420:96,1,70
376,192,216592,2,0,L|454:196,1,70
316,305,216820,6,0,L|112:324,1,167.999994873047,4|0,0:0|0:0,0:0:0:0:
79,268,217162,2,0,L|88:160,1,83.9999974365235,8|0,0:0|0:0,0:0:0:0:
45,97,217391,1,0,0:0:0:0:
166,113,217505,1,8,0:0:0:0:
418,24,217733,5,0,0:0:0:0:
378,98,217847,1,0,0:0:0:0:
420,170,217961,1,0,0:0:0:0:
380,244,218075,1,0,0:0:0:0:
416,318,218189,6,0,P|339:287|273:329,1,167.999994873047,2|0,0:0|0:0,0:0:0:0:
130,342,218531,2,0,P|206:372|272:330,1,167.999994873047,2|0,0:0|0:0,0:0:0:0:
280,200,218873,2,0,L|266:87,1,83.9999974365235,2|0,0:0|0:0,0:0:0:0:
133,48,219102,2,0,P|71:51|43:67,1,83.9999974365235
69,187,219330,2,0,P|131:184|159:168,1,83.9999974365235
262,25,219558,6,0,L|438:30,1,167.999994873047,4|0,0:0|0:0,0:0:0:0:
485,92,219900,2,0,L|491:184,1,83.9999974365235,8|0,0:0|0:0,0:0:0:0:
500,259,220128,1,0,0:0:0:0:
387,143,220242,1,8,0:0:0:0:
81,52,220470,5,0,0:0:0:0:
121,126,220584,1,0,0:0:0:0:
79,198,220698,1,0,0:0:0:0:
119,272,220812,1,0,0:0:0:0:
83,346,220927,6,0,P|137:370|256:354,1,167.999994873047,2|0,0:0|0:0,0:0:0:0:
290,263,221269,2,0,P|344:239|463:255,1,167.999994873047,2|0,0:0|0:0,0:0:0:0:
450,354,221611,2,0,L|354:365,2,83.9999974365235,2|0|0,0:0|0:0|0:0,0:0:0:0:
450,248,221953,2,0,L|441:156,1,83.9999974365235,2|0,0:0|0:0,0:0:0:0:
408,88,222181,1,0,0:0:0:0:
289,183,222296,6,0,P|220:187|135:101,1,167.999994873047,4|0,0:0|0:0,0:0:0:0:
61,118,222638,2,0,L|71:224,1,83.9999974365235,8|0,0:0|0:0,0:0:0:0:
19,269,222866,1,0,0:0:0:0:
173,302,222980,1,8,0:0:0:0:
448,91,223208,5,0,0:0:0:0:
374,131,223322,1,0,0:0:0:0:
302,89,223436,1,0,0:0:0:0:
228,129,223550,1,0,0:0:0:0:
154,93,223664,6,0,B|71:109|71:109|21:190,1,167.999994873047,2|0,0:0|0:0,0:0:0:0:
46,262,224007,2,0,B|116:306|116:306|198:284,1,167.999994873047,2|0,0:0|0:0,0:0:0:0:
272,244,224349,2,0,P|337:248|360:261,1,83.9999974365235,2|0,0:0|0:0,0:0:0:0:
460,339,224577,2,0,L|477:254,1,83.9999974365235
396,172,224805,2,0,L|379:87,1,83.9999974365235
471,27,225033,6,0,P|394:57|314:35,1,167.999994873047,4|0,0:0|0:0,0:0:0:0:
231,26,225375,2,0,L|139:34,1,83.9999974365235,8|0,0:0|0:0,0:0:0:0:
63,20,225604,1,0,0:0:0:0:
150,141,225718,1,8,0:0:0:0:
334,364,225946,5,0,0:0:0:0:
321,280,226060,1,0,0:0:0:0:
385,227,226174,1,0,0:0:0:0:
373,144,226288,1,0,0:0:0:0:
432,87,226402,6,0,L|448:276,1,167.999994873047,2|0,0:0|0:0,0:0:0:0:
315,310,226744,2,0,L|329:142,1,167.999994873047,2|0,0:0|0:0,0:0:0:0:
284,56,227087,2,0,P|224:38|139:111,2,167.999994873047,2|0|0,0:0|0:0|0:0,0:0:0:0:
95,270,227771,5,0,0:0:0:0:
80,168,238265,6,0,L|68:71,1,83.9999974365235
174,136,238494,2,0,L|179:49,1,83.9999974365235
276,174,238722,6,0,P|353:179|427:109,1,167.999994873047,4|0,0:0|0:0,0:0:0:0:
493,181,239064,2,0,L|500:265,1,83.9999974365235,8|0,0:0|0:0,0:0:0:0:
500,357,239292,1,0,0:0:0:0:
388,267,239406,1,8,0:0:0:0:
163,209,239634,5,0,0:0:0:0:
83,319,239748,1,0,0:0:0:0:
212,277,239862,1,0,0:0:0:0:
83,235,239976,1,0,0:0:0:0:
162,345,240091,6,0,P|249:354|297:279,1,167.999994873047,2|0,0:0|0:0,0:0:0:0:
317,183,240433,2,0,P|370:122|449:134,1,167.999994873047,2|0,0:0|0:0,0:0:0:0:
495,216,240775,2,0,L|492:303,1,83.9999974365235,2|0,0:0|0:0,0:0:0:0:
340,371,241003,2,0,P|327:307|328:277,1,83.9999974365235
224,194,241231,2,0,P|221:235|211:276,1,83.9999974365235
32,229,241459,6,0,L|58:59,1,167.999994873047,4|0,0:0|0:0,0:0:0:0:
140,45,241802,2,0,L|125:143,1,83.9999974365235,8|0,0:0|0:0,0:0:0:0:
114,210,242030,1,0,0:0:0:0:
227,82,242144,1,8,0:0:0:0:
424,222,242372,5,0,0:0:0:0:
391,353,242486,1,0,0:0:0:0:
340,228,242600,1,0,0:0:0:0:
455,299,242714,1,0,0:0:0:0:
320,310,242829,6,0,P|257:249|283:164,1,167.999994873047,2|0,0:0|0:0,0:0:0:0:
378,74,243170,2,0,B|296:93|296:93|214:72,1,167.999994873047,2|0,0:0|0:0,0:0:0:0:
91,119,243513,2,0,L|111:263,1,83.9999974365235,2|0,0:0|0:0,0:0:0:0:
57,361,243741,2,0,P|44:321|46:279,1,83.9999974365235
171,259,243969,2,0,P|183:298|181:340,1,83.9999974365235
301,359,244197,6,0,P|381:322|468:339,1,167.999994873047,4|0,0:0|0:0,0:0:0:0:
497,251,244539,2,0,L|481:153,1,83.9999974365235,8|0,0:0|0:0,0:0:0:0:
498,78,244767,1,0,0:0:0:0:
386,180,244882,1,8,0:0:0:0:
91,64,245110,5,0,0:0:0:0:
64,197,245224,1,0,0:0:0:0:
163,104,245338,1,0,0:0:0:0:
28,120,245452,1,0,0:0:0:0:
147,187,245567,6,0,P|229:158|241:70,1,167.999994873047,2|0,0:0|0:0,0:0:0:0:
334,99,245908,2,0,P|356:176|434:199,1,167.999994873047,2|0,0:0|0:0,0:0:0:0:
489,262,246250,2,0,L|493:350,1,83.9999974365235,2|0,0:0|0:0,0:0:0:0:
376,353,246479,2,0,P|295:343|278:345,1,83.9999974365235
192,359,246707,2,0,P|111:369|94:367,1,83.9999974365235
22,274,246935,6,0,L|45:94,1,167.999994873047,4|0,0:0|0:0,0:0:0:0:
118,69,247277,2,0,P|196:87|225:79,1,83.9999974365235,8|0,0:0|0:0,0:0:0:0:
277,58,247505,1,0,0:0:0:0:
314,203,247619,1,8,0:0:0:0:
187,205,247847,5,0,0:0:0:0:
127,327,247961,1,0,0:0:0:0:
247,263,248075,1,0,0:0:0:0:
112,244,248189,1,0,0:0:0:0:
209,339,248304,6,0,P|296:332|330:250,1,167.999994873047,2|0,0:0|0:0,0:0:0:0:
285,187,248646,2,0,P|197:193|163:275,1,167.999994873047,2|0,0:0|0:0,0:0:0:0:
247,263,248988,2,0,L|239:168,1,83.9999974365235,2|0,0:0|0:0,0:0:0:0:
42,128,249216,2,0,L|50:223,1,83.9999974365235,2|0,0:0|0:0,0:0:0:0:
112,43,249444,1,2,0:0:0:0:
112,341,249672,5,0,0:0:0:0:
32,129,260623,6,0,P|107:159|182:106,1,154.000004699707,2|0,0:0|0:0,0:0:0:0:
205,60,260965,1,2,0:0:0:0:
357,82,261194,1,2,0:0:0:0:
357,82,261308,1,2,0:0:0:0:
293,222,261536,2,0,L|300:303,1,77.0000023498536,2|0,0:0|0:0,0:0:0:0:
376,304,261764,2,0,L|369:223,1,77.0000023498536,2|0,0:0|0:0,0:0:0:0:
293,222,261992,6,0,P|207:251|137:223,1,154.000004699707,2|0,0:0|0:0,0:0:0:0:
96,176,262334,2,0,L|91:74,1,77.0000023498536,2|0,0:0|0:0,0:0:0:0:
72,24,262562,2,0,L|27:-1,2,38.5000011749268,0|0|2,0:0|0:0|0:0,0:0:0:0:
188,125,262905,1,2,0:0:0:0:
261,146,263019,1,2,0:0:0:0:
337,137,263133,1,2,0:0:0:0:
403,99,263247,1,2,0:0:0:0:
448,38,263361,6,0,L|429:222,1,154.000004699707,2|0,0:0|0:0,0:0:0:0:
482,249,263703,2,0,L|298:229,1,154.000004699707,2|0,0:0|0:0,0:0:0:0:
253,218,264045,1,2,0:0:0:0:
100,244,264274,1,2,0:0:0:0:
200,360,264502,1,2,0:0:0:0:
253,218,264730,5,2,0:0:0:0:
225,146,264844,1,0,0:0:0:0:
198,73,264958,1,0,0:0:0:0:
170,1,265072,2,0,L|155:171,1,154.000004699707,2|0,0:0|0:0,0:0:0:0:
94,199,265414,2,0,P|187:193|240:244,1,154.000004699707,2|0,0:0|0:0,0:0:0:0:
271,292,265756,2,0,L|259:370,2,77.0000023498536
340,257,266099,6,0,P|362:179|335:105,1,154.000004699707,2|0,0:0|0:0,0:0:0:0:
276,68,266441,1,2,0:0:0:0:
122,81,266669,1,2,0:0:0:0:
122,81,266783,1,2,0:0:0:0:
59,221,267011,2,0,L|53:301,1,77.0000023498536,2|0,0:0|0:0,0:0:0:0:
128,312,267239,2,0,L|134:232,1,77.0000023498536,2|0,0:0|0:0,0:0:0:0:
211,235,267468,6,0,B|277:275|277:275|353:256,1,154.000004699707,2|0,0:0|0:0,0:0:0:0:
417,216,267810,2,0,P|426:167|420:120,1,77.0000023498536,2|0,0:0|0:0,0:0:0:0:
388,71,268038,2,0,L|396:15,2,38.5000011749268,0|0|2,0:0|0:0|0:0,0:0:0:0:
257,153,268380,1,2,0:0:0:0:
181,155,268494,1,2,0:0:0:0:
143,87,268608,1,2,0:0:0:0:
182,20,268722,1,2,0:0:0:0:
219,87,268836,6,0,P|149:88|105:21,1,154.000004699707,2|0,0:0|0:0,0:0:0:0:
27,28,269179,2,0,L|47:188,1,154.000004699707,2|0,0:0|0:0,0:0:0:0:
59,256,269521,2,0,P|120:292|168:236,2,154.000004699707,2|2|2,0:0|0:0|0:0,0:0:0:0:
168,147,270205,5,2,0:0:0:0:
235,179,270319,1,2,0:0:0:0:
262,249,270433,1,2,0:0:0:0:
233,319,270547,1,2,0:0:0:0:
382,360,270776,1,2,0:0:0:0:
382,360,270890,2,0,L|358:187,2,154.000004699707,2|0|0,0:0|0:0|0:0,0:0:0:0:
462,229,271574,6,0,L|469:68,1,154.000004699707,2|0,0:0|0:0,0:0:0:0:
411,23,271916,1,2,0:0:0:0:
268,81,272144,1,2,0:0:0:0:
268,81,272258,1,2,0:0:0:0:
114,59,272487,2,0,P|105:97|108:135,1,77.0000023498536,2|0,0:0|0:0,0:0:0:0:
156,196,272715,2,0,P|164:233|161:271,1,77.0000023498536,2|0,0:0|0:0,0:0:0:0:
99,317,272943,6,0,P|191:300|251:319,1,154.000004699707,2|0,0:0|0:0,0:0:0:0:
314,354,273285,2,0,P|371:357|398:352,1,77.0000023498536,2|0,0:0|0:0,0:0:0:0:
455,312,273513,2,0,L|469:248,2,38.5000011749268,0|0|2,0:0|0:0|0:0,0:0:0:0:
350,198,273855,1,2,0:0:0:0:
310,132,273970,1,2,0:0:0:0:
359,73,274084,1,2,0:0:0:0:
431,102,274198,1,2,0:0:0:0:
425,180,274312,6,0,L|264:190,1,154.000004699707,2|0,0:0|0:0,0:0:0:0:
212,140,274654,2,0,L|51:150,1,154.000004699707,2|0,0:0|0:0,0:0:0:0:
19,215,274996,1,2,0:0:0:0:
149,296,275224,1,2,0:0:0:0:
15,371,275452,1,2,0:0:0:0:
149,296,275681,5,2,0:0:0:0:
225,303,275795,1,2,0:0:0:0:
302,311,275909,1,2,0:0:0:0:
378,319,276023,2,0,P|415:253|383:177,1,154.000004699707,2|0,0:0|0:0,0:0:0:0:
322,148,276365,2,0,L|155:123,1,154.000004699707,2|0,0:0|0:0,0:0:0:0:
98,96,276707,2,0,P|94:48|100:16,2,77.0000023498536
110,171,277049,6,0,P|126:253|106:326,1,154.000004699707,2|0,0:0|0:0,0:0:0:0:
52,373,277392,1,2,0:0:0:0:
197,323,277620,1,2,0:0:0:0:
197,323,277734,1,2,0:0:0:0:
346,359,277962,2,0,L|430:350,1,77.0000023498536,2|0,0:0|0:0,0:0:0:0:
441,276,278190,2,0,L|364:267,1,77.0000023498536,2|0,0:0|0:0,0:0:0:0:
305,218,278418,6,0,P|319:131|295:59,1,154.000004699707,2|0,0:0|0:0,0:0:0:0:
237,25,278760,2,0,L|138:18,1,77.0000023498536,2|0,0:0|0:0,0:0:0:0:
82,19,278989,2,0,L|36:28,2,38.5000011749268,0|0|2,0:0|0:0|0:0,0:0:0:0:
114,169,279331,1,2,0:0:0:0:
151,236,279445,1,2,0:0:0:0:
228,235,279559,1,2,0:0:0:0:
267,167,279673,1,2,0:0:0:0:
190,169,279787,6,0,P|224:230|304:234,1,154.000004699707,2|0,0:0|0:0,0:0:0:0:
370,200,280129,2,0,P|443:203|481:266,1,154.000004699707,2|0,0:0|0:0,0:0:0:0:
464,342,280472,2,0,L|297:355,2,154.000004699707,2|2|2,0:0|0:0|0:0,0:0:0:0:
333,260,281156,5,2,0:0:0:0:
256,265,281270,1,2,0:0:0:0:
179,271,281384,1,2,0:0:0:0:
102,277,281498,1,2,0:0:0:0:
32,140,281726,1,2,0:0:0:0:
32,140,281840,2,0,P|80:132|125:39,2,154.000004699707,2|0|0,0:0|0:0|0:0,0:0:0:0:
480,244,282525,5,4,0:0:0:0:
