osu file format v14

[General]
AudioFilename: Undertale Boss Themes.mp3
AudioLeadIn: 0
PreviewTime: 457303
Countdown: 0
SampleSet: None
StackLeniency: 0.5
Mode: 0
LetterboxInBreaks: 0
WidescreenStoryboard: 1

[Editor]
Bookmarks: 614,110322,168865,285198,392798,528499,705582,823087,913089,1004797
DistanceSpacing: 1.2
BeatDivisor: 4
GridSize: 8
TimelineZoom: 0.1

[Metadata]
Title:Undertale Boss Themes (Practice Mapset)
TitleUnicode:Undertale Boss Themes (Practice Mapset)
Artist:toby fox
ArtistUnicode:toby fox
Creator:Pointless
Version:Megalovania - sans
Source:UNDERTALE
Tags:bad time spoiler sans papyrus frisk chara flowey determination patience kindness human toriel asgore asriel mount ebott snowdin bravery integrity perserverance justice fallen human genocide alphys mettaton hotland dog soul love exp undyne flowey onionsan onionsama onionchan onion napstablook hope dream annoying demo heroine final battle voli dirai epilepsy ruins core waterfall neutral ending hard mode megalomania Nyeh Heh Heh! temmie idiot baka heart blue indigo purple yellow green orange soulless monster chiptune pixel 2015 spare act fight item heartache bonetrousle spear of justice spider dance death by glamour your best nightmare hopes and dreams megalovania muffet NEO undying omega photoshop raidiation indie hula earthbound belowstory morality marathon incorrigible undermeme
BeatmapID:1297278
BeatmapSetID:615001

[Difficulty]
HPDrainRate:4
CircleSize:3.5
OverallDifficulty:9.3
ApproachRate:9.6
SliderMultiplier:2.1
SliderTickRate:2

[Events]
//Background and Video events
0,0,"SOULS.jpg",0,0
//Break Periods
2,1085000,1100272
//Storyboard Layer 0 (Background)
//Storyboard Layer 1 (Fail)
//Storyboard Layer 2 (Pass)
//Storyboard Layer 3 (Foreground)
//Storyboard Sound Samples

[TimingPoints]
660,251.046025104603,3,2,3,65,1,0
5178,-200,4,2,3,65,0,0
12710,-149.253731343284,4,2,3,65,0,0
23254,-188.679245283019,4,2,3,65,0,0
24760,-175.438596491228,4,2,3,65,0,0
29279,-188.679245283019,4,2,3,65,0,0
30785,-149.253731343284,4,2,3,65,0,0
42835,-166.666666666667,4,2,3,65,0,0
43839,-149.253731343284,4,2,3,65,0,0
51873,-149.253731343284,4,2,3,35,0,0
54885,-149.253731343284,4,2,3,65,0,0
62417,-166.666666666667,4,2,3,65,0,0
63923,-149.253731343284,4,2,3,65,0,0
86517,-200,4,2,3,65,0,0
88024,-142.857142857143,4,2,3,65,0,0
110368,400,4,2,3,65,1,0
118268,-100,4,2,3,25,0,0
118368,-100,4,2,3,65,0,0
119068,-100,4,2,3,25,0,0
119168,-100,4,2,3,65,0,0
120668,-100,4,2,3,25,0,0
120768,-100,4,2,3,65,0,0
122268,-100,4,2,3,25,0,0
122368,-100,4,2,3,65,0,0
127068,-100,4,2,3,25,0,0
127168,-100,4,2,3,65,0,0
131068,-100,4,2,3,25,0,0
131168,-100,4,2,3,65,0,0
131868,-100,4,2,3,25,0,0
131968,-100,4,2,3,65,0,0
133468,-100,4,2,3,25,0,0
133568,-100,4,2,3,65,0,0
135068,-100,4,2,3,25,0,0
135168,-100,4,2,3,65,0,0
137468,-100,4,2,3,25,0,0
137568,-100,4,2,3,65,0,0
138268,-100,4,2,3,25,0,0
138368,-100,4,2,3,65,0,0
139868,-100,4,2,3,25,0,0
139968,-100,4,2,3,65,0,0
142368,-83.3333333333333,4,2,3,65,0,0
144668,-83.3333333333333,4,2,3,25,0,0
144768,-83.3333333333333,4,2,3,65,0,0
151068,-83.3333333333333,4,2,3,25,0,0
151168,-83.3333333333333,4,2,3,65,0,0
154668,-83.3333333333333,4,2,3,25,0,0
154768,-83.3333333333333,4,2,3,65,0,0
157468,-83.3333333333333,4,2,3,25,0,0
157568,-83.3333333333333,4,2,3,65,0,0
161568,-111.111111111111,4,2,3,65,0,0
167168,-111.111111111111,4,2,3,65,0,0
168911,342.211829122227,4,2,3,65,1,0
179861,-83.3333333333333,4,2,3,65,0,0
190812,-76.9230769230769,4,2,3,65,0,0
205527,-111.111111111111,4,2,3,65,0,0
207695,-111.111111111111,4,2,3,25,0,0
207809,-111.111111111111,4,2,3,65,0,0
213170,-111.111111111111,4,2,3,25,0,0
213284,-111.111111111111,4,2,3,45,0,0
216364,-100,4,2,3,65,0,0
216820,-83.3333333333333,4,2,3,65,0,0
260623,-90.9090909090909,4,2,3,65,0,0
285244,260.869565217391,4,2,3,65,1,0
293591,-117.647058823529,4,2,3,65,0,0
299852,-166.666666666667,4,2,3,65,0,0
301939,-117.647058823529,4,2,3,65,0,0
308200,-166.666666666667,4,2,3,65,0,0
310287,-117.647058823529,4,2,3,65,0,0
316548,-200,4,2,3,65,0,0
318635,-100,4,2,3,65,0,0
334809,-117.647058823529,4,2,3,65,0,0
335330,-100,4,2,3,65,0,0
339504,-100,4,2,3,65,0,0
350983,-133.333333333333,4,2,3,65,0,0
351765,-133.333333333333,4,2,3,20,0,0
351896,-133.333333333333,4,2,3,5,0,0
352026,-100,4,2,3,65,0,0
392844,405.405405405405,4,2,3,65,1,0
418789,-76.9230769230769,4,2,3,65,0,0
431762,-58.8235294117647,4,2,3,65,0,0
457708,-50,4,2,3,65,0,0
459330,-40,4,2,3,65,0,0
460141,-28.5714285714286,4,2,3,65,0,0
460952,-50,4,2,3,65,0,0
465816,-40,4,2,3,65,0,0
466627,-28.5714285714286,4,2,3,65,0,0
467438,-50,4,2,3,65,0,0
472303,-40,4,2,3,65,0,0
473114,-28.5714285714286,4,2,3,65,0,0
473925,-50,4,2,3,65,0,0
478789,-40,4,2,3,65,0,0
479600,-28.5714285714286,4,2,3,65,0,0
480411,-50,4,2,3,65,0,0
481931,-100,4,2,3,65,0,0
483654,-50,4,2,3,65,0,0
509600,-66.6666666666667,4,2,3,65,0,0
523384,-80,4,2,3,65,0,0
524195,-100,4,2,3,65,0,0
528545,264.31718061674,4,2,3,65,1,0
549001,261.244394130709,4,2,3,65,1,0
549001,-125,4,2,3,65,0,0
564675,-200,4,2,3,65,0,0
565198,-200,4,2,3,25,0,0
565720,-200,4,2,3,65,0,0
566765,-125,4,2,3,65,0,0
581395,-200,4,2,3,65,0,0
581917,-200,4,2,3,25,0,0
582440,-200,4,2,3,65,0,0
583485,-153.846153846154,4,2,3,65,0,0
600204,-125,4,2,3,65,0,0
640959,-166.666666666667,4,2,3,65,0,0
642004,-111.111111111111,4,2,3,65,0,0
656633,-142.857142857143,4,2,3,65,0,0
658723,-200,4,2,3,65,0,0
662642,-200,4,2,3,35,0,0
662903,-200,4,2,3,65,0,0
666560,-200,4,2,3,35,0,0
667083,-200,4,2,3,65,0,0
675443,-125,4,2,3,65,0,0
698432,-100,4,2,3,65,0,0
705582,317.460317460317,4,2,3,65,1,0
721931,-100,4,2,3,30,0,0
727208,-100,4,2,3,5,0,0
728284,315.789473684211,4,2,3,65,1,0
728284,-62.5,4,2,3,65,0,0
758599,-133.333333333333,4,2,3,20,0,0
759862,-133.333333333333,4,2,3,50,0,0
775020,-133.333333333333,4,2,3,20,0,0
776283,-133.333333333333,4,2,3,50,0,0
791441,-133.333333333333,4,2,3,20,0,0
792705,-62.5,4,2,3,65,0,0
820494,-62.5,4,2,3,20,0,0
823097,351.535036325287,4,2,3,65,1,0
868093,-133.333333333333,4,2,3,65,0,0
889185,-200,4,2,3,55,0,0
890591,-100,4,2,3,45,0,0
1000270,-200,4,2,3,65,0,0
1002028,-200,4,2,3,5,0,0
1004800,250,4,3,3,65,1,0
1020800,-83.3333333333333,4,3,3,65,0,0
1100800,-100,4,3,3,65,0,0
1116800,-83.3333333333333,4,3,3,65,0,0
1148800,-200,4,2,3,55,0,0
1158800,-133.333333333333,4,3,3,65,0,0

[Colours]
Combo1 : 255,148,40
Combo2 : 0,0,255
Combo3 : 0,244,0
Combo4 : 196,0,196
Combo5 : 255,23,23
Combo6 : 230,230,0
Combo7 : 0,255,255

[HitObjects]
80,124,1020800,5,2,0:3:0:0:
270,174,1020925,1,0,0:2:0:0:
136,296,1021050,2,0,P|38:263|4:225,1,125.999996154785,2|0,0:2|0:2,0:2:0:0:
252,50,1021300,2,0,P|315:60|366:96,1,125.999996154785,2|0,0:2|0:2,0:2:0:0:
392,292,1021550,1,0,0:2:0:0:
124,208,1021675,6,0,L|107:349,1,125.999996154785,2|0,0:2|0:2,0:2:0:0:
280,152,1021925,2,0,L|290:291,1,125.999996154785,2|0,0:2|0:2,0:2:0:0:
464,200,1022175,2,0,L|447:341,1,125.999996154785,2|0,0:2|0:2,0:2:0:0:
176,152,1022425,1,0,0:2:0:0:
384,184,1022550,1,0,0:2:0:0:
192,32,1022675,1,0,0:2:0:0:
192,336,1022800,5,2,0:3:0:0:
325,233,1022925,1,0,0:2:0:0:
73,229,1023050,2,0,P|55:144|73:68,1,125.999996154785,2|0,0:2|0:2,0:2:0:0:
376,8,1023300,2,0,P|394:93|376:169,1,125.999996154785,2|0,0:2|0:2,0:2:0:0:
192,336,1023550,1,0,0:2:0:0:
191,28,1023675,6,0,L|49:43,1,125.999996154785,2|0,0:2|0:2,0:2:0:0:
271,226,1023925,2,0,L|129:211,1,125.999996154785,2|0,0:2|0:2,0:2:0:0:
405,57,1024175,2,0,L|263:72,1,125.999996154785,2|0,0:2|0:2,0:2:0:0:
471,263,1024425,1,0,0:2:0:0:
271,226,1024550,1,0,0:2:0:0:
405,57,1024675,1,0,0:2:0:0:
149,30,1024800,5,0,0:3:0:0:
111,199,1024925,1,0,0:2:0:0:
291,40,1025050,2,0,P|363:35|415:54,1,125.999996154785,2|0,0:2|0:2,0:2:0:0:
468,328,1025300,2,0,L|328:340,1,125.999996154785,2|0,0:2|0:2,0:2:0:0:
144,356,1025550,1,0,0:2:0:0:
40,128,1025675,6,0,P|44:96|136:12,1,125.999996154785,2|0,0:2|0:2,0:2:0:0:
212,228,1025925,2,0,P|256:184|272:124,1,125.999996154785,2|0,0:2|0:2,0:2:0:0:
97,234,1026175,2,0,L|159:123,1,125.999996154785,2|0,0:2|0:2,0:2:0:0:
328,273,1026425,1,0,0:2:0:0:
172,372,1026550,1,0,0:2:0:0:
256,104,1026675,1,0,0:2:0:0:
436,348,1026800,5,2,0:3:0:0:
320,176,1026925,1,0,0:2:0:0:
152,336,1027050,2,0,P|224:348|284:336,1,125.999996154785,2|0,0:2|0:2,0:2:0:0:
320,52,1027300,2,0,P|248:40|188:52,1,125.999996154785,2|0,0:2|0:2,0:2:0:0:
68,316,1027550,1,0,0:2:0:0:
116,84,1027675,1,0,0:2:0:0:
52,348,1027800,6,0,L|176:332,1,125.999996154785,4|0,0:2|0:2,0:2:0:0:
160,100,1028050,1,4,0:3:0:0:
86,365,1028175,2,0,L|210:349,1,125.999996154785,4|0,0:2|0:2,0:2:0:0:
184,120,1028425,1,4,0:3:0:0:
242,362,1028550,1,4,0:2:0:0:
296,64,1028675,1,0,0:2:0:0:
118,281,1028800,5,2,0:3:0:0:
311,228,1028925,1,0,0:2:0:0:
36,152,1029050,2,0,P|28:84|40:16,1,125.999996154785,2|0,0:2|0:2,0:2:0:0:
312,104,1029300,2,0,P|320:172|308:240,1,125.999996154785,2|0,0:2|0:2,0:2:0:0:
139,56,1029550,1,0,0:2:0:0:
432,24,1029675,6,0,L|420:164,1,125.999996154785,2|0,0:2|0:2,0:2:0:0:
224,92,1029925,2,0,L|236:232,1,125.999996154785,2|0,0:2|0:2,0:2:0:0:
498,185,1030175,2,0,L|486:325,1,125.999996154785,2|0,0:2|0:2,0:2:0:0:
236,344,1030425,1,0,0:2:0:0:
389,255,1030550,1,0,0:2:0:0:
140,128,1030675,1,0,0:2:0:0:
195,362,1030800,5,2,0:3:0:0:
272,176,1030925,1,0,0:2:0:0:
32,252,1031050,2,0,P|24:180|36:112,1,125.999996154785,2|0,0:2|0:2,0:2:0:0:
320,232,1031300,2,0,L|332:372,1,125.999996154785,2|0,0:2|0:2,0:2:0:0:
472,88,1031550,1,0,0:2:0:0:
208,232,1031675,6,0,P|132:212|80:168,1,125.999996154785,2|0,0:2|0:2,0:2:0:0:
288,64,1031925,2,0,P|235:29|174:16,1,125.999996154785,2|0,0:2|0:2,0:2:0:0:
290,162,1032175,2,0,L|171:119,1,125.999996154785,2|0,0:2|0:2,0:2:0:0:
196,332,1032425,1,0,0:2:0:0:
112,168,1032550,1,0,0:2:0:0:
352,264,1032675,1,0,0:2:0:0:
80,340,1032800,5,2,0:3:0:0:
120,136,1032925,1,0,0:2:0:0:
212,324,1033050,2,0,L|340:332,1,125.999996154785,2|0,0:2|0:2,0:2:0:0:
464,148,1033300,2,0,L|336:156,1,125.999996154785,2|0,0:2|0:2,0:2:0:0:
108,139,1033550,1,0,0:2:0:0:
360,32,1033675,6,0,P|448:44|480:80,1,125.999996154785,2|0,0:2|0:2,0:2:0:0:
300,228,1033925,2,0,P|350:264|412:263,1,125.999996154785,2|0,0:2|0:2,0:2:0:0:
269,111,1034175,2,0,L|389:149,1,125.999996154785,2|0,0:2|0:2,0:2:0:0:
362,345,1034425,1,0,0:2:0:0:
201,209,1034550,1,0,0:2:0:0:
341,48,1034675,1,0,0:2:0:0:
456,284,1034800,5,2,0:3:0:0:
292,204,1034925,1,0,0:2:0:0:
428,44,1035050,2,0,P|440:128|428:176,1,125.999996154785,2|0,0:2|0:2,0:2:0:0:
80,167,1035300,2,0,P|71:105|84:44,1,125.999996154785,2|0,0:2|0:2,0:2:0:0:
304,76,1035550,1,0,0:2:0:0:
208,308,1035675,1,0,0:2:0:0:
436,196,1035800,6,0,L|440:64,1,125.999996154785,6|0,0:2|0:2,0:2:0:0:
256,16,1036050,1,4,0:3:0:0:
76,196,1036175,2,0,L|72:64,1,125.999996154785,6|0,0:2|0:2,0:2:0:0:
256,16,1036425,1,4,0:3:0:0:
319,296,1036550,2,0,L|324:372,3,62.9999980773926,4|0|0|0,0:2|0:2|0:2|0:2,0:2:0:0:
256,241,1036800,5,2,0:3:0:0:
117,195,1036925,1,2,0:2:0:0:
313,146,1037050,1,2,0:2:0:0:
40,152,1037175,2,0,P|28:68|56:0,1,125.999996154785,2|0,0:2|0:2,0:2:0:0:
312,24,1037425,2,0,P|324:108|296:176,1,125.999996154785,2|0,0:2|0:2,0:2:0:0:
152,328,1037675,6,0,L|26:314,1,125.999996154785,2|0,0:2|0:2,0:2:0:0:
296,252,1037926,2,0,L|421:265,1,125.999996154785,2|0,0:2|0:2,0:2:0:0:
168,224,1038175,2,0,L|42:210,1,125.999996154785,2|0,0:2|0:2,0:2:0:0:
296,252,1038425,1,0,0:0:0:0:
437,161,1038550,2,0,L|312:148,1,125.999996154785,0|0,0:2|0:2,0:2:0:0:
128,32,1038800,6,0,P|216:24|256:36,1,125.999996154785,2|0,0:3|0:2,0:2:0:0:
352,108,1039050,1,2,0:2:0:0:
248,260,1039175,2,0,L|120:272,1,125.999996154785,2|0,0:2|0:2,0:2:0:0:
336,336,1039425,2,0,L|389:219,1,125.999996154785,2|0,0:2|0:2,0:2:0:0:
276,56,1039675,1,2,0:2:0:0:
104,160,1039800,5,2,0:2:0:0:
138,22,1039925,1,0,0:2:0:0:
138,22,1039987,1,0,0:2:0:0:
138,22,1040050,1,2,0:2:0:0:
242,194,1040175,1,2,0:2:0:0:
104,160,1040300,1,2,0:2:0:0:
276,56,1040425,1,2,0:2:0:0:
416,240,1040550,2,0,P|432:328|424:368,1,125.999996154785,0|0,0:2|0:2,0:2:0:0:
156,240,1040800,6,0,L|144:100,1,125.999996154785,2|0,0:3|0:2,0:2:0:0:
44,284,1041050,1,2,0:2:0:0:
252,232,1041175,2,0,L|264:92,1,125.999996154785,2|0,0:2|0:2,0:2:0:0:
344,256,1041425,2,0,L|380:120,1,125.999996154785,2|0,0:2|0:2,0:2:0:0:
241,357,1041675,6,0,L|253:217,1,125.999996154785,2|0,0:2|0:2,0:2:0:0:
145,349,1041925,2,0,L|132:209,1,125.999996154785,2|0,0:2|0:2,0:2:0:0:
53,381,1042175,2,0,L|16:245,1,125.999996154785,2|0,0:2|0:2,0:2:0:0:
48,60,1042425,1,2,0:2:0:0:
220,140,1042550,2,0,P|304:144|348:128,1,125.999996154785,0|0,0:2|0:2,0:2:0:0:
96,24,1042800,6,0,P|44:88|40:148,1,125.999996154785,2|0,0:3|0:2,0:2:0:0:
238,258,1043050,2,0,P|245:196|220:140,1,125.999996154785,2|0,0:2|0:2,0:2:0:0:
36,341,1043300,1,2,0:2:0:0:
228,280,1043425,1,2,0:2:0:0:
16,212,1043550,1,2,0:2:0:0:
149,370,1043675,1,2,0:2:0:0:
80,132,1043800,6,0,P|84:72|116:4,1,125.999996154785,4|0,0:2|0:2,0:2:0:0:
144,308,1044050,1,4,0:3:0:0:
256,148,1044175,2,0,L|256:20,1,125.999996154785,4|0,0:2|0:2,0:2:0:0:
368,308,1044425,1,4,0:3:0:0:
432,132,1044550,2,0,P|428:72|396:4,1,125.999996154785,4|0,0:2|0:2,0:2:0:0:
192,236,1044800,6,0,L|324:268,1,125.999996154785,2|0,0:3|0:2,0:2:0:0:
220,124,1045050,2,0,L|88:156,1,125.999996154785,2|0,0:2|0:2,0:2:0:0:
148,300,1045300,1,2,0:2:0:0:
312,124,1045425,2,0,P|288:60|228:32,1,125.999996154785,2|0,0:2|0:2,0:2:0:0:
24,240,1045675,6,0,L|32:368,1,125.999996154785,2|0,0:2|0:2,0:2:0:0:
272,280,1045925,2,0,L|264:152,1,125.999996154785,2|0,0:2|0:2,0:2:0:0:
52,228,1046175,2,2,L|60:356,1,125.999996154785,2|0,0:2|0:2,0:2:0:0:
191,311,1046425,1,0,0:0:0:0:
292,142,1046550,2,0,L|300:268,1,125.999996154785,0|0,0:2|0:2,0:2:0:0:
42,141,1046800,6,0,P|28:80|47:21,1,125.999996154785,2|0,0:3|0:3,0:3:0:0:
296,21,1047050,2,0,P|310:82|292:142,1,125.999996154785,2|0,0:2|0:2,0:2:0:0:
204,304,1047300,1,2,0:2:0:0:
149,121,1047425,1,2,0:2:0:0:
380,172,1047550,1,2,0:2:0:0:
152,230,1047675,6,0,P|88:230|20:198,1,125.999996154785,2|0,0:2|0:2,0:2:0:0:
200,60,1047925,2,0,P|264:60|332:92,1,125.999996154785,2|0,0:2|0:2,0:2:0:0:
432,324,1048175,2,0,P|368:324|300:292,1,125.999996154785,2|0,0:2|0:2,0:2:0:0:
248,153,1048425,1,2,0:2:0:0:
464,152,1048550,2,0,P|464:80|432:20,1,125.999996154785,2|0,0:2|0:2,0:2:0:0:
89,112,1048800,6,0,L|108:249,1,125.999996154785,2|0,0:3|0:2,0:2:0:0:
335,25,1049050,2,0,L|198:44,1,125.999996154785,2|0,0:2|0:2,0:2:0:0:
422,271,1049300,2,0,L|403:134,1,125.999996154785,4|0,0:3|0:3,0:3:0:0:
176,358,1049550,2,0,L|313:339,1,125.999996154785,2|0,0:2|0:2,0:2:0:0:
150,103,1049800,6,0,L|123:226,1,125.999996154785,2|0,0:3|0:2,0:2:0:0:
345,86,1050050,2,0,L|221:59,1,125.999996154785,2|0,0:2|0:2,0:2:0:0:
362,281,1050300,2,0,L|388:157,1,125.999996154785,4|0,0:3|0:2,0:2:0:0:
167,298,1050550,2,0,L|290:324,1,125.999996154785,2|0,0:2|0:2,0:2:0:0:
93,62,1050800,6,0,P|65:142|67:195,1,125.999996154785,2|0,0:3|0:2,0:2:0:0:
264,235,1051050,1,2,0:2:0:0:
158,128,1051175,1,2,0:2:0:0:
95,317,1051300,1,2,0:2:0:0:
244,124,1051425,2,0,P|308:116|368:128,1,125.999996154785,2|0,0:2|0:2,0:2:0:0:
464,316,1051675,1,2,0:2:0:0:
88,188,1051800,6,0,L|96:48,1,125.999996154785,4|0,0:2|0:2,0:2:0:0:
256,16,1052050,1,4,0:3:0:0:
424,188,1052175,2,0,L|416:48,1,125.999996154785,4|0,0:2|0:2,0:2:0:0:
176,144,1052425,1,4,0:3:0:0:
256,328,1052550,1,4,0:2:0:0:
335,144,1052675,1,0,0:2:0:0:
152,295,1052800,6,0,P|37:271|32:154,1,251.999992309571,4|0,0:3|0:2,0:2:0:0:
300,32,1053300,2,0,L|448:56,1,125.999996154785,4|0,0:3|0:2,0:2:0:0:
328,176,1053550,2,0,L|180:152,1,125.999996154785,8|0,0:3|0:2,0:2:0:0:
55,24,1053800,5,2,0:2:0:0:
32,154,1053925,1,2,0:2:0:0:
156,28,1054050,1,2,0:2:0:0:
171,246,1054175,1,2,0:2:0:0:
268,17,1054300,1,2,0:2:0:0:
250,167,1054425,1,2,0:2:0:0:
368,24,1054550,1,2,0:2:0:0:
387,129,1054675,1,2,0:2:0:0:
276,296,1054800,5,2,0:2:0:0:
213,288,1054862,1,2,0:2:0:0:
150,281,1054925,1,2,0:2:0:0:
88,273,1054987,1,2,0:2:0:0:
25,266,1055050,2,0,P|4:184|32:128,1,125.999996154785,2|0,0:2|0:2,0:2:0:0:
144,84,1055300,2,0,P|212:120|160:36,1,251.999992309571,2|0,0:2|0:2,0:2:0:0:
76,20,1055675,1,0,0:2:0:0:
108,188,1055800,6,0,P|188:216|240:208,1,125.999996154785,4|0,0:3|0:2,0:2:0:0:
416,112,1056050,2,0,P|336:84|284:92,1,125.999996154785,8|0,0:3|0:2,0:2:0:0:
284,316,1056300,1,2,0:2:0:0:
472,288,1056425,2,0,L|492:156,1,125.999996154785,2|0,0:2|0:2,0:2:0:0:
344,284,1056675,1,2,0:2:0:0:
128,304,1056800,6,0,P|56:272|24:228,1,125.999996154785,2|0,0:2|0:2,0:2:0:0:
40,52,1057050,1,2,0:2:0:0:
224,112,1057175,1,2,0:2:0:0:
24,144,1057300,1,2,0:2:0:0:
152,40,1057425,1,2,0:2:0:0:
204,232,1057550,1,2,0:2:0:0:
296,8,1057675,1,2,0:2:0:0:
396,284,1057800,6,0,P|416:200|408:148,1,125.999996154785,2|0,0:2|0:2,0:2:0:0:
164,332,1058050,2,0,P|248:352|300:344,1,125.999996154785,2|0,0:2|0:2,0:2:0:0:
116,100,1058300,2,0,P|96:184|104:236,1,125.999996154785,2|0,0:2|0:2,0:2:0:0:
348,52,1058550,2,0,P|264:32|212:40,1,125.999996154785,2|0,0:2|0:2,0:2:0:0:
160,364,1058800,6,0,P|244:384|296:376,1,125.999996154785,2|0,0:2|0:2,0:2:0:0:
332,144,1059050,2,0,P|248:124|196:132,1,125.999996154785,2|0,0:2|0:2,0:2:0:0:
93,323,1059300,1,2,0:2:0:0:
320,252,1059425,1,2,0:2:0:0:
152,240,1059550,1,2,0:2:0:0:
360,344,1059675,1,2,0:2:0:0:
300,72,1059800,6,0,L|168:44,1,125.999996154785,4|0,0:2|0:2,0:2:0:0:
40,128,1060050,1,4,0:3:0:0:
236,228,1060175,2,0,L|368:200,1,125.999996154785,4|0,0:2|0:2,0:2:0:0:
496,284,1060425,1,4,0:3:0:0:
292,368,1060550,2,0,L|160:340,1,125.999996154785,4|0,0:2|0:2,0:2:0:0:
56,128,1060800,6,0,P|72:80|148:24,1,125.999996154785,2|0,0:2|0:2,0:2:0:0:
185,223,1061050,2,0,P|233:184|256:126,1,125.999996154785,2|0,0:2|0:2,0:2:0:0:
456,128,1061300,2,0,P|440:80|364:24,1,125.999996154785,2|0,0:2|0:2,0:2:0:0:
326,223,1061550,2,0,P|278:184|256:126,1,125.999996154785,2|0,0:2|0:2,0:2:0:0:
488,228,1061800,6,0,L|476:364,1,125.999996154785,2|0,0:2|0:2,0:2:0:0:
256,368,1062050,1,0,0:2:0:0:
396,256,1062175,1,0,0:2:0:0:
156,308,1062300,2,0,L|24:292,1,125.999996154785,2|0,0:2|0:2,0:2:0:0:
12,120,1062550,1,0,0:2:0:0:
184,208,1062675,1,0,0:2:0:0:
332,56,1062800,6,0,P|264:36|200:52,1,125.999996154785,2|0,0:2|0:2,0:2:0:0:
128,248,1063050,1,0,0:2:0:0:
264,152,1063175,1,0,0:2:0:0:
456,240,1063300,2,0,L|464:372,1,125.999996154785,2|0,0:2|0:2,0:2:0:0:
320,376,1063550,1,0,0:2:0:0:
280,184,1063675,1,0,0:2:0:0:
166,358,1063800,6,0,P|104:366|47:340,1,125.999996154785,2|0,0:2|0:2,0:2:0:0:
12,193,1064050,1,0,0:2:0:0:
232,268,1064175,1,0,0:2:0:0:
156,36,1064300,2,0,L|16:48,1,125.999996154785,2|0,0:2|0:2,0:2:0:0:
104,184,1064550,1,0,0:2:0:0:
248,28,1064675,1,0,0:2:0:0:
436,280,1064800,6,0,P|452:196|399:276,1,251.999992309571,2|0,0:2|0:2,0:2:0:0:
96,348,1065300,2,0,L|108:208,1,125.999996154785,4|0,0:3|0:2,0:2:0:0:
264,136,1065550,2,0,L|276:276,1,125.999996154785,8|0,0:3|0:2,0:2:0:0:
120,40,1065800,5,2,0:2:0:0:
360,60,1065925,1,2,0:2:0:0:
152,76,1066050,1,2,0:2:0:0:
347,92,1066175,1,2,0:2:0:0:
192,218,1066300,5,2,0:2:0:0:
336,202,1066425,1,2,0:2:0:0:
215,235,1066550,1,2,0:2:0:0:
332,222,1066675,1,2,0:2:0:0:
64,324,1066800,6,0,P|40:252|112:96,1,251.999992309571,2|0,0:2|0:2,0:2:0:0:
408,272,1067300,2,0,L|384:132,1,125.999996154785,4|0,0:3|0:2,0:2:0:0:
243,231,1067550,2,0,L|267:371,1,125.999996154785,8|0,0:3|0:2,0:2:0:0:
436,256,1067800,6,0,L|412:116,1,125.999996154785,4|0,0:2|0:2,0:2:0:0:
320,48,1068050,1,4,0:3:0:0:
256,280,1068175,2,0,L|256:140,1,125.999996154785,4|0,0:2|0:2,0:2:0:0:
192,48,1068425,1,4,0:3:0:0:
76,256,1068550,2,0,L|100:116,1,125.999996154785,4|0,0:2|0:2,0:2:0:0:
280,172,1068800,6,0,P|367:106|280:40,1,251.999992309571,4|0,0:3|0:2,0:2:0:0:
64,228,1069300,2,0,P|52:296|64:356,1,125.999996154785,4|0,0:3|0:2,0:2:0:0:
278,295,1069550,2,0,P|290:227|278:167,1,125.999996154785,8|0,0:3|0:2,0:2:0:0:
99,147,1069800,5,2,0:2:0:0:
218,113,1069925,1,2,0:2:0:0:
194,236,1070050,1,2,0:2:0:0:
131,35,1070175,1,2,0:2:0:0:
333,69,1070300,1,2,0:2:0:0:
272,216,1070425,1,2,0:2:0:0:
250,59,1070550,1,2,0:2:0:0:
369,146,1070675,1,2,0:2:0:0:
178,303,1070800,5,2,0:2:0:0:
117,287,1070862,1,2,0:2:0:0:
75,241,1070925,1,2,0:2:0:0:
64,180,1070987,1,2,0:2:0:0:
88,122,1071050,2,0,P|130:74|192:56,1,125.999996154785,2|0,0:2|0:2,0:2:0:0:
350,133,1071300,6,0,P|415:137|340:112,1,251.999992309571,2|0,0:2|0:2,0:2:0:0:
312,261,1071675,1,0,0:2:0:0:
134,328,1071800,2,0,P|67:328|9:285,1,125.999996154785,4|0,0:3|0:2,0:2:0:0:
133,144,1072050,2,0,P|200:144|258:187,1,125.999996154785,8|0,0:3|0:2,0:2:0:0:
258,330,1072300,1,2,0:2:0:0:
95,156,1072425,2,0,L|82:18,1,125.999996154785,2|0,0:2|0:2,0:2:0:0:
259,23,1072675,1,2,0:2:0:0:
417,192,1072800,6,0,P|425:283|410:343,1,125.999996154785,2|0,0:2|0:2,0:2:0:0:
209,348,1073050,1,2,0:2:0:0:
272,141,1073175,1,2,0:2:0:0:
309,325,1073300,1,2,0:2:0:0:
180,187,1073425,1,2,0:2:0:0:
67,361,1073550,1,2,0:2:0:0:
36,184,1073675,1,2,0:2:0:0:
193,317,1073800,6,0,P|265:328|324:308,1,125.999996154785,2|0,0:2|0:2,0:2:0:0:
366,121,1074050,2,0,P|294:110|235:130,1,125.999996154785,2|0,0:2|0:2,0:2:0:0:
194,341,1074300,2,0,P|266:352|325:332,1,125.999996154785,2|0,0:2|0:2,0:2:0:0:
366,96,1074550,2,0,P|294:85|235:105,1,125.999996154785,2|0,0:2|0:2,0:2:0:0:
429,343,1074800,6,0,P|440:271|420:212,1,125.999996154785,2|0,0:2|0:2,0:2:0:0:
86,221,1075050,2,0,P|71:281|83:343,1,125.999996154785,2|0,0:2|0:2,0:2:0:0:
303,236,1075300,1,2,0:2:0:0:
187,54,1075425,1,2,0:2:0:0:
193,252,1075550,1,2,0:2:0:0:
289,34,1075675,1,2,0:2:0:0:
468,238,1075800,6,0,L|477:369,1,125.999996154785,4|0,0:2|0:2,0:2:0:0:
337,100,1076050,1,4,0:3:0:0:
44,238,1076175,2,0,L|35:369,1,125.999996154785,4|0,0:2|0:2,0:2:0:0:
175,100,1076425,1,4,0:3:0:0:
200,328,1076550,2,0,P|248:352|312:328,1,125.999996154785,4|0,0:2|0:2,0:2:0:0:
182,44,1076800,6,0,L|46:60,1,125.999996154785,2|0,0:2|0:2,0:2:0:0:
56,325,1077050,2,0,L|182:340,1,125.999996154785,2|0,0:2|0:2,0:2:0:0:
330,44,1077300,2,0,L|466:60,1,125.999996154785,2|0,0:2|0:2,0:2:0:0:
455,325,1077550,2,0,L|330:340,1,125.999996154785,2|0,0:2|0:2,0:2:0:0:
94,201,1077800,6,0,P|76:95|98:39,1,125.999996154785,2|0,0:2|0:2,0:2:0:0:
276,44,1078050,1,0,0:2:0:0:
214,242,1078175,1,0,0:2:0:0:
418,179,1078300,2,0,L|393:39,1,125.999996154785,2|0,0:2|0:2,0:2:0:0:
210,32,1078550,1,0,0:2:0:0:
314,225,1078675,1,0,0:2:0:0:
122,352,1078800,6,0,P|53:312|32:269,1,125.999996154785,2|0,0:2|0:2,0:2:0:0:
104,107,1079050,1,0,0:2:0:0:
209,287,1079175,1,0,0:2:0:0:
385,148,1079300,2,0,L|367:12,1,125.999996154785,2|0,0:2|0:2,0:2:0:0:
221,9,1079550,1,0,0:2:0:0:
133,194,1079675,1,0,0:2:0:0:
347,326,1079800,6,0,P|429:299|465:248,1,125.999996154785,2|0,0:2|0:2,0:2:0:0:
378,116,1080050,1,0,0:2:0:0:
253,290,1080175,1,0,0:2:0:0:
84,139,1080300,2,0,P|71:70|76:14,1,125.999996154785,2|0,0:2|0:2,0:2:0:0:
228,14,1080550,1,0,0:2:0:0:
198,227,1080675,1,0,0:2:0:0:
471,119,1080800,6,0,P|413:55|438:150,1,251.999992309571,2|0,0:2|0:2,0:2:0:0:
238,328,1081300,2,0,L|101:310,1,125.999996154785,4|0,0:3|0:2,0:2:0:0:
56,174,1081550,2,0,L|193:156,1,125.999996154785,8|0,0:3|0:2,0:2:0:0:
327,26,1081800,5,2,0:2:0:0:
410,241,1081925,1,2,0:2:0:0:
360,41,1082050,1,2,0:2:0:0:
376,225,1082175,1,2,0:2:0:0:
226,73,1082300,5,2,0:2:0:0:
176,201,1082425,1,2,0:2:0:0:
205,81,1082550,1,2,0:2:0:0:
196,191,1082675,1,2,0:2:0:0:
401,47,1082800,6,0,P|448:106|433:277,1,251.999992309571,2|0,0:2|0:2,0:2:0:0:
104,266,1083300,2,0,L|128:126,1,125.999996154785,4|0,0:3|0:2,0:2:0:0:
268,226,1083550,2,0,L|244:366,1,125.999996154785,8|0,0:3|0:2,0:2:0:0:
48,174,1083800,6,0,P|47:101|72:34,1,125.999996154785,4|0,0:2|0:2,0:2:0:0:
158,319,1084050,1,4,0:3:0:0:
256,140,1084175,2,0,L|256:14,1,125.999996154785,4|0,0:2|0:2,0:2:0:0:
354,319,1084425,1,4,0:3:0:0:
464,174,1084550,2,0,P|465:101|440:34,1,125.999996154785,4|0,0:2|0:2,0:2:0:0:
256,320,1084800,5,4,0:3:0:0:
51,129,1100800,6,0,L|62:253,1,105,4|0,0:3|0:0,0:0:0:0:
82,42,1101050,1,8,0:3:0:0:
107,308,1101300,1,8,0:3:0:0:
302,63,1101675,2,0,P|402:49|484:132,1,210,8|8,0:3|0:3,0:0:0:0:
433,340,1102175,2,0,P|362:253|382:130,1,210,8|0,0:3|0:0,0:0:0:0:
476,213,1102550,2,0,P|398:254|364:256,1,105,8|0,0:3|0:0,0:0:0:0:
175,238,1102800,6,0,L|164:133,1,105,4|0,0:3|0:0,0:0:0:0:
143,321,1103050,1,8,0:3:0:0:
115,55,1103300,1,8,0:3:0:0:
293,349,1103675,2,0,P|357:279|471:309,1,210,8|8,0:3|0:3,0:0:0:0:
461,86,1104175,2,0,P|363:108|293:35,1,210,8|0,0:3|0:0,0:0:0:0:
152,36,1104550,2,0,P|158:109|133:170,1,105,8|0,0:3|0:0,0:0:0:0:
135,286,1104800,6,0,P|184:270|236:272,1,105,4|0,0:3|0:0,0:0:0:0:
199,380,1105050,1,8,0:3:0:0:
166,159,1105300,1,8,0:3:0:0:
431,48,1105675,2,0,L|396:273,1,210,8|8,0:3|0:3,0:0:0:0:
154,252,1106175,2,0,L|189:27,1,210,8|0,0:3|0:0,0:0:0:0:
303,85,1106550,2,0,L|284:200,1,105,8|0,0:3|0:0,0:0:0:0:
154,252,1106800,6,0,P|104:236|52:238,1,105,4|0,0:3|0:0,0:0:0:0:
90,347,1107050,1,8,0:3:0:0:
123,126,1107300,1,8,0:3:0:0:
313,322,1107675,2,0,P|396:293|407:156,1,210,8|8,0:3|0:3,0:0:0:0:
264,58,1108175,2,0,P|181:87|170:224,1,210,8|0,0:3|0:0,0:0:0:0:
301,252,1108550,2,0,P|279:184|241:152,1,105,8|0,0:3|0:0,0:0:0:0:
47,247,1108800,6,0,L|66:364,1,105,4|0,0:3|0:0,0:0:0:0:
222,284,1109050,1,8,0:3:0:0:
76,90,1109300,1,8,0:3:0:0:
377,50,1109675,2,0,B|348:157|348:157|256:192,1,210,8|8,0:3|0:3,0:0:0:0:
134,335,1110175,2,0,B|163:228|163:228|256:192,1,210,8|0,0:3|0:0,0:0:0:0:
341,261,1110550,2,0,L|240:300,1,105,8|0,0:3|0:0,0:0:0:0:
110,156,1110800,6,0,L|129:39,1,105,4|0,0:3|0:0,0:0:0:0:
309,144,1111050,1,8,0:3:0:0:
163,338,1111300,1,8,0:3:0:0:
6,52,1111675,2,0,P|90:91|213:49,1,210,8|8,0:3|0:3,0:0:0:0:
506,52,1112175,2,0,P|422:91|299:49,1,210,8|0,0:3|0:0,0:0:0:0:
256,176,1112550,2,0,L|256:305,1,105,8|0,0:3|0:0,0:0:0:0:
34,335,1112800,5,4,0:3:0:0:
478,192,1113050,1,0,0:0:0:0:
34,49,1113300,1,8,0:3:0:0:
478,335,1113675,5,8,0:3:0:0:
34,192,1113925,1,8,0:3:0:0:
478,49,1114175,1,8,0:3:0:0:
230,149,1114425,5,0,0:0:0:0:
230,236,1114550,1,8,0:3:0:0:
306,192,1114675,1,0,0:0:0:0:
135,59,1114800,5,4,0:3:0:0:
201,364,1115050,1,0,0:0:0:0:
431,154,1115300,1,8,0:3:0:0:
84,138,1115675,5,0,0:0:0:0:
178,220,1115800,2,0,P|188:290|175:340,1,105,4|0,0:2|0:0,0:0:0:0:
294,368,1116050,1,4,0:3:0:0:
319,246,1116175,2,0,P|374:202|424:189,1,105,4|0,0:2|0:0,0:0:0:0:
386,8,1116425,1,4,0:3:0:0:
282,119,1116550,1,4,0:2:0:0:
485,75,1116675,1,0,0:0:0:0:
191,26,1116800,6,0,P|91:36|62:59,1,125.999996154785,4|0,0:3|0:0,0:0:0:0:
82,259,1117050,2,0,P|182:249|209:228,1,125.999996154785,8|0,0:3|0:0,0:0:0:0:
58,172,1117300,1,4,0:3:0:0:
140,354,1117425,1,0,0:0:0:0:
320,269,1117550,1,8,0:3:0:0:
237,90,1117675,6,0,P|162:79|114:94,1,125.999996154785,0|4,0:0|0:3,0:0:0:0:
273,265,1117925,1,0,0:0:0:0:
378,81,1118050,1,8,0:3:0:0:
358,345,1118175,1,0,0:0:0:0:
233,139,1118300,1,4,0:3:0:0:
401,210,1118425,1,0,0:0:0:0:
182,275,1118550,2,0,L|40:262,1,125.999996154785,8|0,0:3|0:0,0:0:0:0:
136,31,1118800,6,0,P|183:110|185:172,1,125.999996154785,4|0,0:3|0:0,0:0:0:0:
324,143,1119050,2,0,P|338:82|376:31,1,125.999996154785,8|0,0:3|0:0,0:0:0:0:
469,232,1119300,1,4,0:3:0:0:
300,291,1119425,1,0,0:0:0:0:
494,340,1119550,1,8,0:3:0:0:
293,177,1119675,6,0,L|286:44,1,125.999996154785,0|4,0:0|0:3,0:0:0:0:
76,93,1119925,1,0,0:0:0:0:
158,263,1120050,1,8,0:3:0:0:
199,25,1120175,1,0,0:0:0:0:
33,174,1120300,1,4,0:3:0:0:
274,241,1120425,1,0,0:0:0:0:
44,264,1120550,2,0,P|25:324|42:387,1,125.999996154785,8|0,0:3|0:0,0:0:0:0:
275,44,1120800,6,0,L|283:191,1,125.999996154785,4|0,0:3|0:0,0:0:0:0:
159,300,1121050,2,0,L|151:153,1,125.999996154785,8|0,0:3|0:0,0:0:0:0:
390,187,1121300,1,4,0:3:0:0:
264,330,1121425,1,0,0:0:0:0:
280,74,1121550,1,8,0:3:0:0:
476,236,1121675,6,0,P|485:301|477:371,1,125.999996154785,0|4,0:0|0:3,0:0:0:0:
276,352,1121925,1,0,0:0:0:0:
378,183,1122050,1,8,0:3:0:0:
144,264,1122175,1,0,0:0:0:0:
357,268,1122300,1,4,0:3:0:0:
213,148,1122425,1,0,0:0:0:0:
119,357,1122550,2,0,P|40:354|0:315,1,125.999996154785,8|0,0:3|0:0,0:0:0:0:
9,134,1122800,6,0,L|31:5,1,125.999996154785,4|0,0:3|0:0,0:0:0:0:
219,120,1123050,2,0,L|197:249,1,125.999996154785,8|0,0:3|0:0,0:0:0:0:
139,32,1123300,1,4,0:3:0:0:
359,119,1123425,1,0,0:0:0:0:
104,161,1123550,1,8,0:3:0:0:
287,25,1123675,6,0,P|377:22|426:35,1,125.999996154785,0|4,0:0|0:3,0:0:0:0:
500,179,1123925,1,0,0:0:0:0:
279,220,1124050,1,8,0:3:0:0:
491,79,1124175,1,0,0:0:0:0:
358,300,1124300,1,4,0:3:0:0:
374,127,1124425,1,0,0:0:0:0:
460,267,1124550,2,0,P|462:330|430:383,1,125.999996154785,8|0,0:3|0:0,0:0:0:0:
196,318,1124800,6,0,L|205:187,1,125.999996154785,4|0,0:3|0:0,0:0:0:0:
375,232,1125050,2,0,L|366:101,1,125.999996154785,8|0,0:3|0:0,0:0:0:0:
139,18,1125300,1,4,0:3:0:0:
129,195,1125425,1,0,0:0:0:0:
224,18,1125550,1,8,0:3:0:0:
18,134,1125675,6,0,P|3:202|22:263,1,125.999996154785,0|4,0:0|0:3,0:0:0:0:
189,346,1125925,1,0,0:0:0:0:
124,154,1126050,1,8,0:3:0:0:
48,370,1126175,1,0,0:0:0:0:
250,208,1126300,1,4,0:3:0:0:
81,158,1126425,1,0,0:0:0:0:
205,298,1126550,2,0,L|357:311,1,125.999996154785,8|0,0:3|0:0,0:0:0:0:
484,162,1126800,6,0,P|464:53|436:26,1,125.999996154785,4|0,0:3|0:0,0:0:0:0:
272,89,1127050,2,0,P|292:198|320:225,1,125.999996154785,8|0,0:3|0:0,0:0:0:0:
422,294,1127300,1,4,0:3:0:0:
379,126,1127425,1,0,0:0:0:0:
171,154,1127550,1,8,0:3:0:0:
230,371,1127675,6,0,P|288:365|345:299,1,125.999996154785,0|4,0:0|0:3,0:0:0:0:
206,76,1127925,1,0,0:0:0:0:
122,250,1128050,1,8,0:3:0:0:
371,142,1128175,1,0,0:0:0:0:
96,88,1128300,1,4,0:3:0:0:
230,257,1128425,1,0,0:0:0:0:
293,32,1128550,2,0,P|403:35|433:56,1,125.999996154785,8|0,0:3|0:0,0:0:0:0:
377,297,1128800,6,0,L|348:158,1,125.999996154785,4|0,0:3|0:0,0:0:0:0:
177,233,1129050,2,0,L|148:372,1,125.999996154785,8|0,0:3|0:0,0:0:0:0:
43,119,1129300,1,4,0:3:0:0:
272,167,1129425,1,0,0:0:0:0:
14,249,1129550,1,8,0:3:0:0:
187,37,1129675,6,0,L|322:41,1,125.999996154785,0|4,0:0|0:3,0:0:0:0:
497,176,1129925,1,0,0:0:0:0:
284,279,1130050,1,8,0:3:0:0:
422,106,1130175,1,0,0:0:0:0:
416,335,1130300,1,4,0:3:0:0:
344,197,1130425,1,0,0:0:0:0:
231,365,1130550,2,0,L|97:369,1,125.999996154785,0|0,0:0|0:0,0:0:0:0:
169,142,1130800,6,0,P|230:149|281:186,1,125.999996154785,4|0,0:3|0:0,0:0:0:0:
20,275,1131050,2,0,L|30:149,1,125.999996154785,8|0,0:3|0:0,0:0:0:0:
247,129,1131300,1,4,0:3:0:0:
115,276,1131425,1,0,0:0:0:0:
67,37,1131550,1,8,0:3:0:0:
273,132,1131675,6,0,L|417:148,1,125.999996154785,0|4,0:0|0:3,0:0:0:0:
503,259,1131925,1,0,0:0:0:0:
272,360,1132050,1,8,0:3:0:0:
398,145,1132175,1,0,0:0:0:0:
432,352,1132300,1,4,0:3:0:0:
307,163,1132425,1,0,0:0:0:0:
126,295,1132550,2,0,P|111:234|123:173,1,125.999996154785,8|0,0:3|0:0,0:0:0:0:
291,364,1132800,6,0,P|357:359|424:318,1,125.999996154785,4|0,0:3|0:0,0:0:0:0:
242,141,1133050,2,0,P|176:146|109:187,1,125.999996154785,8|0,0:3|0:0,0:0:0:0:
136,368,1133300,1,4,0:3:0:0:
268,270,1133425,1,0,0:0:0:0:
89,135,1133550,1,8,0:3:0:0:
136,368,1133675,6,0,P|165:304|155:233,1,125.999996154785,0|4,0:0|0:3,0:0:0:0:
60,112,1133925,1,0,0:0:0:0:
266,143,1134050,1,8,0:0:0:0:
67,14,1134175,1,0,0:0:0:0:
85,265,1134300,1,4,0:0:0:0:
185,96,1134425,1,0,0:0:0:0:
258,256,1134550,2,0,P|326:269|383:251,1,125.999996154785,8|0,0:0|0:0,0:0:0:0:
384,38,1134800,6,0,L|245:28,1,125.999996154785,4|0,0:0|0:0,0:0:0:0:
117,145,1135050,2,0,L|256:155,1,125.999996154785,8|0,0:0|0:0,0:0:0:0:
411,251,1135300,1,4,0:0:0:0:
331,123,1135425,1,0,0:0:0:0:
267,327,1135550,1,8,0:0:0:0:
469,165,1135675,6,0,P|508:215|512:278,1,125.999996154785,0|4,0:0|0:0,0:0:0:0:
332,352,1135925,1,0,0:0:0:0:
233,179,1136050,1,8,0:0:0:0:
93,372,1136175,1,0,0:0:0:0:
41,141,1136300,1,4,0:0:0:0:
260,117,1136425,1,0,0:0:0:0:
32,324,1136550,2,0,L|24:194,1,125.999996154785,8|0,0:0|0:0,0:0:0:0:
79,36,1136800,6,0,P|137:65|202:52,1,125.999996154785,4|0,0:0|0:0,0:0:0:0:
433,36,1137050,2,0,P|375:65|310:52,1,125.999996154785,8|0,0:0|0:0,0:0:0:0:
201,223,1137300,1,4,0:0:0:0:
344,154,1137425,1,0,0:0:0:0:
293,350,1137550,1,8,0:0:0:0:
218,114,1137675,6,0,P|153:123|105:167,1,125.999996154785,0|4,0:0|0:0,0:0:0:0:
127,358,1137925,1,0,0:0:0:0:
271,267,1138050,1,8,0:0:0:0:
58,282,1138175,1,0,0:0:0:0:
234,354,1138300,1,4,0:0:0:0:
180,179,1138425,1,0,0:0:0:0:
127,358,1138550,2,0,P|191:343|234:277,1,125.999996154785,8|0,0:0|0:0,0:0:0:0:
167,143,1138800,6,0,L|156:9,1,125.999996154785,4|0,0:0|0:0,0:0:0:0:
355,17,1139050,2,0,L|345:143,1,125.999996154785,8|0,0:0|0:0,0:0:0:0:
233,265,1139300,1,4,0:0:0:0:
257,74,1139425,1,0,0:0:0:0:
336,293,1139550,1,8,0:0:0:0:
176,143,1139675,6,0,L|42:153,1,125.999996154785,0|4,0:0|0:0,0:0:0:0:
13,375,1139925,1,0,0:0:0:0:
141,246,1140050,1,8,0:0:0:0:
338,350,1140175,1,0,0:0:0:0:
249,110,1140300,1,4,0:0:0:0:
247,300,1140425,1,0,0:0:0:0:
360,81,1140550,2,0,P|405:72|487:106,1,125.999996154785,8|0,0:0|0:0,0:0:0:0:
301,283,1140800,6,0,L|168:287,1,125.999996154785,4|0,0:0|0:0,0:0:0:0:
92,128,1141050,2,0,L|225:124,1,125.999996154785,8|0,0:0|0:0,0:0:0:0:
361,174,1141300,1,4,0:0:0:0:
252,45,1141425,1,0,0:0:0:0:
211,258,1141550,1,8,0:0:0:0:
91,32,1141675,6,0,P|62:79|57:157,1,125.999996154785,0|4,0:0|0:0,0:0:0:0:
140,293,1141925,1,0,0:0:0:0:
209,143,1142050,1,8,0:0:0:0:
250,352,1142175,1,0,0:0:0:0:
95,179,1142300,1,4,0:0:0:0:
270,250,1142425,1,0,0:0:0:0:
72,374,1142550,2,0,P|47:313|49:243,1,125.999996154785,8|0,0:0|0:0,0:0:0:0:
181,48,1142800,6,0,L|306:54,1,125.999996154785,4|0,0:0|0:0,0:0:0:0:
399,230,1143050,2,0,L|273:236,1,125.999996154785,8|0,0:0|0:0,0:0:0:0:
118,152,1143300,1,4,0:0:0:0:
94,334,1143425,1,0,0:0:0:0:
210,134,1143550,1,8,0:0:0:0:
320,330,1143675,6,0,P|382:332|429:281,1,125.999996154785,0|4,0:0|0:0,0:0:0:0:
389,48,1143925,1,0,0:0:0:0:
235,191,1144050,1,8,0:0:0:0:
484,158,1144175,1,0,0:0:0:0:
251,52,1144300,1,4,0:0:0:0:
273,250,1144425,1,0,0:0:0:0:
358,63,1144550,2,0,L|487:50,1,125.999996154785,8|0,0:0|0:0,0:0:0:0:
498,259,1144800,5,4,0:0:0:0:
347,186,1144925,1,0,0:0:0:0:
165,309,1145050,2,0,P|96:264|71:206,1,125.999996154785,8|0,0:0|0:0,0:0:0:0:
119,37,1145300,1,4,0:0:0:0:
198,223,1145425,1,0,0:0:0:0:
38,104,1145550,1,8,0:0:0:0:
269,120,1145675,6,0,L|396:107,1,125.999996154785,0|4,0:0|0:0,0:0:0:0:
496,289,1145925,1,0,0:0:0:0:
289,322,1146050,1,8,0:0:0:0:
472,145,1146175,1,0,0:0:0:0:
409,342,1146300,1,4,0:0:0:0:
306,196,1146425,1,0,0:0:0:0:
206,344,1146550,1,8,0:0:0:0:
167,103,1146675,1,0,0:0:0:0:
76,343,1146800,5,4,0:0:0:0:
258,264,1146925,1,0,0:0:0:0:
89,114,1147050,2,0,L|73:242,1,125.999996154785,8|0,0:0|0:0,0:0:0:0:
252,144,1147300,1,4,0:0:0:0:
167,18,1147425,1,0,0:0:0:0:
164,246,1147550,1,8,0:0:0:0:
287,47,1147675,6,0,P|356:44|417:71,1,125.999996154785,0|4,0:0|0:0,0:0:0:0:
478,278,1147925,1,0,0:0:0:0:
332,176,1148050,1,8,0:0:0:0:
168,352,1148175,1,0,0:0:0:0:
172,124,1148300,1,4,0:0:0:0:
256,304,1148425,1,0,0:0:0:0:
88,240,1148550,1,8,0:0:0:0:
256,56,1148675,1,0,0:0:0:0:
256,328,1148800,6,0,P|368:280|256:128,1,367.5,2|2,0:0|0:0,0:0:0:0:
256,328,1150800,6,0,P|144:280|256:128,1,367.5,2|2,0:0|0:0,0:0:0:0:
438,320,1152800,6,0,B|304:368|204:272|73:320,1,367.5,2|2,0:0|0:0,0:0:0:0:
74,64,1154800,6,0,B|208:16|308:112|439:64,1,367.5,2|2,0:0|0:0,0:0:0:0:
361,248,1156800,6,0,P|256:371|150:249,1,367.5,2|2,0:0|0:0,0:0:0:0:
468,192,1158800,6,0,L|483:292,2,78.7500030040742,2|2|2,2:2|2:2|2:2,2:0:0:0:
108,288,1159300,2,0,P|64:208|96:132,1,157.500006008148,2|0,2:2|2:0,2:0:0:0:
172,80,1159675,1,2,2:2:0:0:
395,175,1159925,1,2,2:2:0:0:
202,320,1160175,2,0,L|164:144,1,157.500006008148,2|2,2:2|2:2,2:0:0:0:
255,51,1160550,1,2,2:0:0:0:
41,97,1160675,1,2,2:2:0:0:
