osu file format v14

[General]
AudioFilename: Undertale Boss Themes.mp3
AudioLeadIn: 0
PreviewTime: 457303
Countdown: 0
SampleSet: None
StackLeniency: 0.5
Mode: 0
LetterboxInBreaks: 0
WidescreenStoryboard: 1

[Editor]
Bookmarks: 614,110322,168865,285198,392798,528499,705582,823087,913089,1004797
DistanceSpacing: 1.2
BeatDivisor: 4
GridSize: 8
TimelineZoom: 0.1

[Metadata]
Title:Undertale Boss Themes (Practice Mapset)
TitleUnicode:Undertale Boss Themes (Practice Mapset)
Artist:toby fox
ArtistUnicode:toby fox
Creator:Pointless
Version:Hopes and Dreams - Asriel Dreemurr
Source:UNDERTALE
Tags:bad time spoiler sans papyrus frisk chara flowey determination patience kindness human toriel asgore asriel mount ebott snowdin bravery integrity perserverance justice fallen human genocide alphys mettaton hotland dog soul love exp undyne flowey onionsan onionsama onionchan onion napstablook hope dream annoying demo heroine final battle voli dirai epilepsy ruins core waterfall neutral ending hard mode megalomania Nyeh Heh Heh! temmie idiot baka heart blue indigo purple yellow green orange soulless monster chiptune pixel 2015 spare act fight item heartache bonetrousle spear of justice spider dance death by glamour your best nightmare hopes and dreams megalovania muffet NEO undying omega photoshop raidiation indie hula earthbound belowstory morality marathon incorrigible undermeme
BeatmapID:1297277
BeatmapSetID:615001

[Difficulty]
HPDrainRate:4
CircleSize:3.5
OverallDifficulty:9.3
ApproachRate:9.6
SliderMultiplier:2.1
SliderTickRate:2

[Events]
//Background and Video events
0,0,"SOULS.jpg",0,0
//Break Periods
2,958286,968800
2,992033,994121
2,994846,995878
//Storyboard Layer 0 (Background)
//Storyboard Layer 1 (Fail)
//Storyboard Layer 2 (Pass)
//Storyboard Layer 3 (Foreground)
//Storyboard Sound Samples

[TimingPoints]
660,251.046025104603,3,2,3,65,1,0
5178,-200,4,2,3,65,0,0
12710,-149.253731343284,4,2,3,65,0,0
23254,-188.679245283019,4,2,3,65,0,0
24760,-175.438596491228,4,2,3,65,0,0
29279,-188.679245283019,4,2,3,65,0,0
30785,-149.253731343284,4,2,3,65,0,0
42835,-166.666666666667,4,2,3,65,0,0
43839,-149.253731343284,4,2,3,65,0,0
51873,-149.253731343284,4,2,3,35,0,0
54885,-149.253731343284,4,2,3,65,0,0
62417,-166.666666666667,4,2,3,65,0,0
63923,-149.253731343284,4,2,3,65,0,0
86517,-200,4,2,3,65,0,0
88024,-142.857142857143,4,2,3,65,0,0
110368,400,4,2,3,65,1,0
118268,-100,4,2,3,25,0,0
118368,-100,4,2,3,65,0,0
119068,-100,4,2,3,25,0,0
119168,-100,4,2,3,65,0,0
120668,-100,4,2,3,25,0,0
120768,-100,4,2,3,65,0,0
122268,-100,4,2,3,25,0,0
122368,-100,4,2,3,65,0,0
127068,-100,4,2,3,25,0,0
127168,-100,4,2,3,65,0,0
131068,-100,4,2,3,25,0,0
131168,-100,4,2,3,65,0,0
131868,-100,4,2,3,25,0,0
131968,-100,4,2,3,65,0,0
133468,-100,4,2,3,25,0,0
133568,-100,4,2,3,65,0,0
135068,-100,4,2,3,25,0,0
135168,-100,4,2,3,65,0,0
137468,-100,4,2,3,25,0,0
137568,-100,4,2,3,65,0,0
138268,-100,4,2,3,25,0,0
138368,-100,4,2,3,65,0,0
139868,-100,4,2,3,25,0,0
139968,-100,4,2,3,65,0,0
142368,-83.3333333333333,4,2,3,65,0,0
144668,-83.3333333333333,4,2,3,25,0,0
144768,-83.3333333333333,4,2,3,65,0,0
151068,-83.3333333333333,4,2,3,25,0,0
151168,-83.3333333333333,4,2,3,65,0,0
154668,-83.3333333333333,4,2,3,25,0,0
154768,-83.3333333333333,4,2,3,65,0,0
157468,-83.3333333333333,4,2,3,25,0,0
157568,-83.3333333333333,4,2,3,65,0,0
161568,-111.111111111111,4,2,3,65,0,0
167168,-111.111111111111,4,2,3,65,0,0
168911,342.211829122227,4,2,3,65,1,0
179861,-83.3333333333333,4,2,3,65,0,0
190812,-76.9230769230769,4,2,3,65,0,0
205527,-111.111111111111,4,2,3,65,0,0
207695,-111.111111111111,4,2,3,25,0,0
207809,-111.111111111111,4,2,3,65,0,0
213170,-111.111111111111,4,2,3,25,0,0
213284,-111.111111111111,4,2,3,45,0,0
216364,-100,4,2,3,65,0,0
216820,-83.3333333333333,4,2,3,65,0,0
260623,-90.9090909090909,4,2,3,65,0,0
285244,260.869565217391,4,2,3,65,1,0
293591,-117.647058823529,4,2,3,65,0,0
299852,-166.666666666667,4,2,3,65,0,0
301939,-117.647058823529,4,2,3,65,0,0
308200,-166.666666666667,4,2,3,65,0,0
310287,-117.647058823529,4,2,3,65,0,0
316548,-200,4,2,3,65,0,0
318635,-100,4,2,3,65,0,0
334809,-117.647058823529,4,2,3,65,0,0
335330,-100,4,2,3,65,0,0
339504,-100,4,2,3,65,0,0
350983,-133.333333333333,4,2,3,65,0,0
351765,-133.333333333333,4,2,3,20,0,0
351896,-133.333333333333,4,2,3,5,0,0
352026,-100,4,2,3,65,0,0
392844,405.405405405405,4,2,3,65,1,0
418789,-76.9230769230769,4,2,3,65,0,0
431762,-58.8235294117647,4,2,3,65,0,0
457708,-50,4,2,3,65,0,0
459330,-40,4,2,3,65,0,0
460141,-28.5714285714286,4,2,3,65,0,0
460952,-50,4,2,3,65,0,0
465816,-40,4,2,3,65,0,0
466627,-28.5714285714286,4,2,3,65,0,0
467438,-50,4,2,3,65,0,0
472303,-40,4,2,3,65,0,0
473114,-28.5714285714286,4,2,3,65,0,0
473925,-50,4,2,3,65,0,0
478789,-40,4,2,3,65,0,0
479600,-28.5714285714286,4,2,3,65,0,0
480411,-50,4,2,3,65,0,0
481931,-100,4,2,3,65,0,0
483654,-50,4,2,3,65,0,0
509600,-66.6666666666667,4,2,3,65,0,0
523384,-80,4,2,3,65,0,0
524195,-100,4,2,3,65,0,0
528545,264.31718061674,4,2,3,65,1,0
549001,261.244394130709,4,2,3,65,1,0
549001,-125,4,2,3,65,0,0
564675,-200,4,2,3,65,0,0
565198,-200,4,2,3,25,0,0
565720,-200,4,2,3,65,0,0
566765,-125,4,2,3,65,0,0
581395,-200,4,2,3,65,0,0
581917,-200,4,2,3,25,0,0
582440,-200,4,2,3,65,0,0
583485,-153.846153846154,4,2,3,65,0,0
600204,-125,4,2,3,65,0,0
640959,-166.666666666667,4,2,3,65,0,0
642004,-111.111111111111,4,2,3,65,0,0
656633,-142.857142857143,4,2,3,65,0,0
658723,-200,4,2,3,65,0,0
662642,-200,4,2,3,35,0,0
662903,-200,4,2,3,65,0,0
666560,-200,4,2,3,35,0,0
667083,-200,4,2,3,65,0,0
675443,-125,4,2,3,65,0,0
698432,-100,4,2,3,65,0,0
705582,317.460317460317,4,2,3,65,1,0
721931,-100,4,2,3,30,0,0
727208,-100,4,2,3,5,0,0
728284,315.789473684211,4,2,3,65,1,0
728284,-62.5,4,2,3,65,0,0
758599,-133.333333333333,4,2,3,20,0,0
759862,-133.333333333333,4,2,3,50,0,0
775020,-133.333333333333,4,2,3,20,0,0
776283,-133.333333333333,4,2,3,50,0,0
791441,-133.333333333333,4,2,3,20,0,0
792705,-62.5,4,2,3,65,0,0
820494,-62.5,4,2,3,20,0,0
823097,351.535036325287,4,2,3,65,1,0
868093,-133.333333333333,4,2,3,65,0,0
889185,-200,4,2,3,55,0,0
890591,-100,4,2,3,45,0,0
1000270,-200,4,2,3,65,0,0
1002028,-200,4,2,3,5,0,0
1004800,250,4,3,3,65,1,0
1020800,-83.3333333333333,4,3,3,65,0,0
1100800,-100,4,3,3,65,0,0
1116800,-83.3333333333333,4,3,3,65,0,0
1148800,-200,4,2,3,55,0,0
1158800,-133.333333333333,4,3,3,65,0,0

[Colours]
Combo1 : 255,148,40
Combo2 : 0,0,255
Combo3 : 0,244,0
Combo4 : 196,0,196
Combo5 : 255,23,23
Combo6 : 230,230,0
Combo7 : 0,255,255

[HitObjects]
171,164,844364,5,2,0:2:0:0:
308,264,844540,1,2,0:2:0:0:
256,102,844716,1,2,0:2:0:0:
203,264,844892,1,2,0:2:0:0:
340,164,845067,1,2,0:2:0:0:
188,169,845243,1,2,0:2:0:0:
297,249,845419,1,2,0:2:0:0:
256,120,845595,6,0,P|324:40|436:60,1,210,4|8,0:3|0:2,0:0:0:0:
492,128,846122,1,0,0:0:0:0:
238,229,846298,2,0,P|158:161|178:48,1,210,4|8,0:3|0:2,0:0:0:0:
256,9,846825,1,0,0:0:0:0:
351,248,847001,6,0,L|143:279,1,210,4|8,0:3|0:2,0:0:0:0:
50,231,847528,1,0,0:0:0:0:
263,359,847704,2,0,L|379:339,1,105,4|0,0:3|0:0,0:0:0:0:
241,167,848055,2,0,L|125:187,1,105,8|0,0:2|0:0,0:0:0:0:
351,247,848407,6,0,P|372:146|317:57,1,210,4|8,0:3|0:2,0:0:0:0:
216,40,848934,1,0,0:0:0:0:
162,278,849110,2,0,P|262:299|351:247,1,210,4|8,0:3|0:2,0:0:0:0:
403,155,849637,1,0,0:0:0:0:
190,96,849813,6,0,B|86:107|86:107|81:162|42:207,1,210,4|8,0:3|0:2,0:0:0:0:
62,306,850340,1,0,0:0:0:0:
270,324,850516,2,0,P|283:267|270:207,1,105,4|0,0:3|0:0,0:0:0:0:
221,41,850868,2,0,P|208:98|221:158,1,105,8|0,0:2|0:0,0:0:0:0:
419,276,851219,6,0,L|393:48,1,210,4|8,0:3|0:2,0:0:0:0:
301,8,851747,1,0,0:0:0:0:
93,108,851922,2,0,L|119:336,1,210,4|8,0:3|0:2,0:0:0:0:
211,376,852450,1,0,0:0:0:0:
367,165,852625,6,0,P|295:112|199:174,1,210,4|8,0:3|0:2,0:0:0:0:
376,324,853329,1,4,0:3:0:0:
256,25,853680,1,8,0:2:0:0:
136,324,854032,6,0,P|215:341|341:301,1,210,4|8,0:3|0:2,0:0:0:0:
410,230,854559,1,0,0:0:0:0:
136,324,854735,2,0,P|119:245|159:119,1,210,4|8,0:3|0:2,0:0:0:0:
230,50,855262,1,0,0:0:0:0:
432,175,855438,5,4,0:3:0:0:
271,227,855613,1,0,0:0:0:0:
371,90,855789,1,8,0:2:0:0:
371,260,855965,1,0,0:0:0:0:
289,134,856141,5,4,0:3:0:0:
414,174,856317,1,0,0:0:0:0:
285,216,856492,1,8,0:2:0:0:
365,106,856668,1,0,0:0:0:0:
376,328,856844,6,0,P|439:336|455:205,1,210,4|8,0:3|0:2,0:0:0:0:
379,165,857371,1,0,0:0:0:0:
198,262,857547,2,0,P|154:179|215:63,1,210,4|8,0:3|0:2,0:0:0:0:
293,41,858074,1,0,0:0:0:0:
448,219,858250,6,0,B|436:323|436:323|349:252,1,210,4|8,0:3|0:2,0:0:0:0:
366,151,858777,1,0,0:0:0:0:
221,69,858953,2,0,L|104:61,1,105,4|0,0:3|0:0,0:0:0:0:
107,245,859305,2,0,L|224:237,1,105,8|0,0:2|0:0,0:0:0:0:
386,317,859656,6,0,P|270:341|170:317,1,210,4|8,0:3|0:2,0:0:0:0:
107,245,860183,1,0,0:0:0:0:
172,62,860359,2,0,P|288:38|388:62,1,210,4|8,0:3|0:2,0:0:0:0:
451,134,860887,1,0,0:0:0:0:
263,281,861062,6,0,L|44:264,1,210,4|8,0:3|0:2,0:0:0:0:
17,166,861590,1,0,0:0:0:0:
171,30,861765,2,0,P|189:98|187:142,1,105,4|0,0:3|0:0,0:0:0:0:
163,355,862117,2,0,P|145:287|147:243,1,105,8|0,0:2|0:0,0:0:0:0:
335,278,862468,6,0,P|441:278|429:183,1,210,4|8,0:3|0:2,0:0:0:0:
352,139,862996,1,0,0:0:0:0:
156,240,863171,2,0,B|152:304|181:340|181:340|228:364|284:344,1,210,4|8,0:3|0:2,0:0:0:0:
364,274,863699,1,0,0:0:0:0:
256,50,863875,6,0,L|46:66,1,210,4|8,0:3|0:2,0:0:0:0:
147,363,864578,1,4,0:3:0:0:
256,50,864929,1,8,0:2:0:0:
365,363,865281,6,0,P|401:290|367:145,1,210,4|8,0:3|0:2,0:0:0:0:
288,118,865808,1,0,0:0:0:0:
113,281,865984,2,0,B|64:181|64:181|83:72,1,210,4|8,0:3|0:2,0:0:0:0:
168,25,866511,1,0,0:0:0:0:
319,122,866687,5,4,0:3:0:0:
229,265,866863,1,0,0:0:0:0:
217,96,867038,1,8,0:2:0:0:
326,226,867214,1,0,0:0:0:0:
183,182,867390,5,4,0:3:0:0:
304,132,867566,1,0,0:0:0:0:
232,247,867741,1,8,0:2:0:0:
223,112,867917,1,0,0:0:0:0:
374,274,868093,6,0,P|301:301|214:279,1,157.5,2|0,0:0|0:0,0:0:0:0:
137,109,868796,1,2,0:0:0:0:
375,109,869148,1,0,0:0:0:0:
145,356,869499,6,0,P|119:284|141:210,1,157.500006008148,2|0,0:0|0:0,0:0:0:0:
367,28,870202,1,2,0:0:0:0:
367,356,870554,1,0,0:0:0:0:
150,74,870905,5,2,0:0:0:0:
361,310,871257,1,0,0:0:0:0:
255,344,871433,1,0,0:0:0:0:
149,310,871608,1,2,0:0:0:0:
361,74,871960,1,0,0:0:0:0:
88,266,872311,5,2,0:0:0:0:
255,35,872663,1,0,0:0:0:0:
422,266,873014,1,2,0:0:0:0:
313,246,873190,1,0,0:0:0:0:
255,341,873366,1,0,0:0:0:0:
68,199,873718,6,0,L|88:22,1,157.500006008148,2|0,0:0|0:0,0:0:0:0:
411,280,874421,1,2,0:0:0:0:
101,280,874772,1,0,0:0:0:0:
248,5,875124,6,0,L|425:25,1,157.500006008148,2|0,0:0|0:0,0:0:0:0:
101,280,875827,1,2,0:0:0:0:
411,280,876178,1,0,0:0:0:0:
158,52,876530,5,2,0:0:0:0:
368,295,876881,1,0,0:0:0:0:
410,192,877057,1,0,0:0:0:0:
368,89,877233,1,2,0:0:0:0:
158,332,877584,1,0,0:0:0:0:
352,52,877936,5,2,0:0:0:0:
352,332,878288,1,0,0:0:0:0:
142,89,878639,1,2,0:0:0:0:
100,192,878815,1,0,0:0:0:0:
142,295,878991,1,0,0:0:0:0:
410,192,879342,5,2,0:0:0:0:
100,192,879694,1,0,0:0:0:0:
255,37,880045,1,2,0:0:0:0:
255,347,880397,1,0,0:0:0:0:
364,82,880748,5,2,0:0:0:0:
145,301,881100,1,0,0:0:0:0:
145,82,881451,1,2,0:0:0:0:
367,302,881803,1,0,0:0:0:0:
255,25,882154,5,2,0:0:0:0:
149,310,882506,1,0,0:0:0:0:
255,344,882682,1,0,0:0:0:0:
361,310,882857,1,2,0:0:0:0:
255,25,883209,1,0,0:0:0:0:
108,242,883561,5,2,0:0:0:0:
402,142,883912,1,0,0:0:0:0:
149,74,884264,1,2,0:0:0:0:
255,40,884439,1,0,0:0:0:0:
361,74,884615,1,0,0:0:0:0:
160,322,884967,5,2,0:0:0:0:
102,142,885318,1,0,0:0:0:0:
349,322,885670,1,2,0:0:0:0:
407,142,886021,1,0,0:0:0:0:
255,352,886373,5,2,0:0:0:0:
255,31,886724,1,0,0:0:0:0:
415,192,887076,1,2,0:0:0:0:
97,192,887427,1,0,0:0:0:0:
390,47,887779,5,2,0:0:0:0:
120,337,888130,1,0,0:0:0:0:
90,229,888306,1,0,0:0:0:0:
197,257,888482,1,2,0:0:0:0:
120,47,888834,1,0,0:0:0:0:
400,327,889185,6,0,L|408:196,1,105
312,232,889888,2,0,L|308:296,2,52.5
74,95,890591,6,0,L|214:89,1,105,4|0,0:3|0:0,0:0:0:0:
204,270,890943,2,0,L|64:276,1,105,8|0,0:2|0:0,0:0:0:0:
333,90,891294,2,0,L|438:95,1,105,4|0,0:3|0:0,0:0:0:0:
412,274,891646,2,0,L|308:270,1,105,8|0,0:2|0:0,0:0:0:0:
256,88,891997,1,4,0:3:0:0:
155,244,892173,2,0,P|148:296|158:347,1,105,0|8,0:0|0:2,0:0:0:0:
353,347,892525,2,0,P|364:295|357:244,1,105,0|4,0:3|0:3,0:0:0:0:
36,280,892876,1,0,0:0:0:0:
36,280,892964,1,0,0:0:0:0:
36,280,893052,2,0,P|20:204|32:152,1,105,8|0,0:2|0:0,0:0:0:0:
160,44,893404,6,0,L|272:64,1,105,4|0,0:3|0:0,0:0:0:0:
282,231,893755,2,0,L|170:211,1,105,8|0,0:2|0:0,0:0:0:0:
389,60,894107,1,4,0:3:0:0:
444,255,894282,2,0,L|452:373,1,105,0|8,0:0|0:2,0:0:0:0:
218,340,894634,2,0,L|225:235,1,105,0|4,0:0|0:3,0:0:0:0:
323,64,894985,1,0,0:0:0:0:
323,64,895073,1,0,0:0:0:0:
323,64,895161,2,0,P|329:129|319:182,1,105,8|0,0:2|0:0,0:0:0:0:
120,218,895513,2,0,P|114:153|124:100,1,105,4|0,0:3|0:0,0:0:0:0:
285,159,895864,2,0,P|291:224|281:277,1,105,8|0,0:2|0:0,0:0:0:0:
34,173,896216,6,0,L|40:49,1,105,4|0,0:3|0:0,0:0:0:0:
179,96,896567,2,0,L|185:220,1,105,8|0,0:2|0:0,0:0:0:0:
446,257,896919,2,0,L|440:133,1,105,4|0,0:3|0:0,0:0:0:0:
311,179,897270,2,0,L|305:303,1,105,8|0,0:2|0:0,0:0:0:0:
124,165,897622,1,4,0:3:0:0:
276,56,897798,2,0,P|340:50|397:64,1,105,0|8,0:0|0:2,0:0:0:0:
493,173,898149,2,0,P|429:179|372:165,1,105,0|4,0:0|0:3,0:0:0:0:
346,341,898501,1,0,0:0:0:0:
346,341,898589,1,0,0:0:0:0:
346,341,898677,2,0,P|352:277|339:225,1,105,8|0,0:2|0:0,0:0:0:0:
180,147,899028,6,0,P|100:126|67:94,1,105,4|0,0:3|0:0,0:0:0:0:
332,147,899380,2,0,P|412:126|445:94,1,105,8|0,0:2|0:0,0:0:0:0:
220,47,899731,1,4,0:3:0:0:
143,236,899907,2,0,L|152:346,1,105,0|8,0:0|0:2,0:0:0:0:
267,203,900258,2,0,L|275:98,1,105,0|4,0:0|0:3,0:0:0:0:
289,320,900610,1,0,0:0:0:0:
289,320,900698,1,0,0:0:0:0:
289,320,900786,2,0,L|428:307,1,105,8|0,0:2|0:0,0:0:0:0:
448,169,901137,2,0,L|343:159,1,105,4|0,0:3|0:0,0:0:0:0:
272,54,901489,2,0,L|411:41,1,105,8|0,0:2|0:0,0:0:0:0:
251,218,901840,6,0,P|171:207|129:173,1,105,4|0,0:3|0:0,0:0:0:0:
272,54,902192,2,0,P|352:65|394:99,1,105,8|0,0:2|0:0,0:0:0:0:
328,332,902543,2,0,L|211:339,1,105,4|0,0:3|0:0,0:0:0:0:
151,194,902895,2,0,L|268:187,1,105,8|0,0:2|0:0,0:0:0:0:
78,326,903246,5,4,0:3:0:0:
30,143,903422,2,0,L|41:29,1,105,0|8,0:0|0:2,0:0:0:0:
218,19,903774,1,0,0:0:0:0:
136,215,903950,1,4,0:3:0:0:
276,101,904125,1,0,0:0:0:0:
276,101,904213,1,0,0:0:0:0:
276,101,904301,2,0,P|353:94|393:107,1,105,8|0,0:2|0:0,0:0:0:0:
466,309,904653,6,0,L|339:324,1,105,4|0,0:3|0:0,0:0:0:0:
251,203,905004,2,0,L|378:188,1,105,8|0,0:2|0:0,0:0:0:0:
244,323,905356,1,4,0:3:0:0:
237,109,905531,2,0,P|162:90|116:100,1,105,0|8,0:0|0:2,0:0:0:0:
73,262,905883,1,0,0:0:0:0:
251,203,906059,1,4,0:3:0:0:
180,341,906235,1,0,0:0:0:0:
180,341,906322,1,0,0:0:0:0:
180,341,906410,6,0,L|162:220,1,105,8|0,0:2|0:0,0:0:0:0:
330,128,906762,2,0,L|348:249,1,105,4|0,0:3|0:0,0:0:0:0:
213,343,907113,2,0,L|195:222,1,105,8|0,0:2|0:0,0:0:0:0:
228,44,907465,6,0,P|151:34|97:47,1,105,4|0,0:3|0:0,0:0:0:0:
320,162,907816,2,0,P|397:172|451:159,1,105,8|0,0:2|0:0,0:0:0:0:
223,71,908168,2,0,P|162:84|125:109,1,105,4|0,0:3|0:0,0:0:0:0:
324,134,908520,2,0,P|385:121|422:96,1,105,8|0,0:2|0:0,0:0:0:0:
228,44,908871,5,4,0:3:0:0:
199,223,909047,2,0,L|210:336,1,105,0|8,0:0|0:2,0:0:0:0:
327,236,909398,1,0,0:0:0:0:
87,190,909574,1,4,0:3:0:0:
220,95,909750,1,0,0:0:0:0:
220,95,909838,1,0,0:0:0:0:
220,95,909926,2,0,L|347:108,1,105,8|0,0:2|0:0,0:0:0:0:
273,312,910277,6,0,P|253:252|260:201,1,105,4|0,0:3|0:0,0:0:0:0:
444,144,910629,2,0,P|464:204|457:255,1,105,8|0,0:2|0:0,0:0:0:0:
296,335,910980,1,4,0:3:0:0:
134,168,911156,2,0,L|125:32,1,105,0|8,0:0|0:2,0:0:0:0:
277,113,911508,1,0,0:0:0:0:
105,291,911683,5,4,0:3:0:0:
275,355,911859,1,0,0:0:0:0:
275,355,911947,1,0,0:0:0:0:
275,355,912035,2,0,P|282:291|269:230,1,105,8|0,0:2|0:0,0:0:0:0:
153,96,912386,2,0,P|146:160|159:221,1,105,4|0,0:3|0:0,0:0:0:0:
310,143,912738,2,0,P|317:79|304:18,1,105,8|0,0:2|0:0,0:0:0:0:
43,67,913089,6,0,P|28:128|48:176,1,105,4|0,0:3|0:0,0:0:0:0:
186,252,913441,1,8,0:2:0:0:
124,118,913617,1,0,0:0:0:0:
61,276,913793,2,0,L|68:380,1,105,4|0,0:3|0:0,0:0:0:0:
216,312,914144,2,0,L|223:207,1,105,8|0,0:0|0:0,0:0:0:0:
426,130,914496,6,0,P|447:172|446:234,1,105,4|0,0:3|0:0,0:0:0:0:
341,314,914847,1,8,0:2:0:0:
294,94,915023,1,0,0:0:0:0:
181,227,915199,2,0,L|173:335,1,105,4|0,0:3|0:0,0:0:0:0:
328,259,915550,2,0,L|321:155,1,105,8|0,0:2|0:0,0:0:0:0:
151,30,915902,6,0,P|98:31|53:62,1,105,4|0,0:3|0:0,0:0:0:0:
43,264,916253,1,8,0:2:0:0:
132,134,916429,1,0,0:0:0:0:
278,288,916605,2,0,P|331:290|386:272,1,105,4|0,0:3|0:0,0:0:0:0:
428,88,916956,2,0,P|378:67|321:66,1,105,8|0,0:0|0:0,0:0:0:0:
149,79,917308,6,0,P|126:157|149:299,1,210,2|8,0:2|0:2,0:0:0:0:
363,305,918011,2,0,P|386:227|363:85,1,210,2|8,0:2|0:2,0:0:0:0:
94,76,918714,5,4,0:3:0:0:
68,221,918890,1,0,0:0:0:0:
203,37,919066,1,8,0:0:0:0:
233,214,919242,1,0,0:0:0:0:
334,52,919417,2,0,P|388:48|436:71,1,105,4|0,0:3|0:0,0:0:0:0:
450,248,919769,2,0,P|395:251|347:228,1,105,8|0,0:0|0:0,0:0:0:0:
199,109,920120,5,4,0:3:0:0:
223,302,920296,1,0,0:0:0:0:
96,170,920472,1,8,0:0:0:0:
301,208,920647,1,0,0:0:0:0:
134,329,920823,2,0,P|83:311|45:275,1,105,4|0,0:3|0:0,0:0:0:0:
107,119,921175,2,0,P|159:109|210:120,1,105,8|0,0:0|0:0,0:0:0:0:
379,324,921526,6,0,B|396:275|396:275|395:222,1,105,4|0,0:3|0:0,0:0:0:0:
312,86,921878,1,8,0:2:0:0:
280,254,922054,1,0,0:0:0:0:
413,96,922229,2,0,P|408:44|375:4,1,105,4|0,0:3|0:0,0:0:0:0:
199,32,922581,2,0,P|177:79|185:130,1,105,8|0,0:0|0:0,0:0:0:0:
244,294,922932,6,0,P|151:335|59:290,1,210,2|8,0:0|0:2,0:0:0:0:
268,90,923636,2,0,P|360:48|452:93,1,210,2|8,0:0|0:2,0:0:0:0:
410,357,924339,6,0,P|350:365|300:347,1,105,4|0,0:3|0:0,0:0:0:0:
201,223,924690,1,8,0:2:0:0:
366,246,924866,1,0,0:0:0:0:
203,337,925042,2,0,L|98:332,1,105,4|0,0:3|0:0,0:0:0:0:
25,168,925393,2,0,L|129:172,1,105,8|0,0:0|0:0,0:0:0:0:
324,56,925745,6,0,P|279:29|227:32,1,105,4|0,0:3|0:0,0:0:0:0:
277,202,926096,1,8,0:2:0:0:
417,46,926272,1,0,0:0:0:0:
494,217,926448,2,0,L|503:330,1,105,4|0,0:3|0:0,0:0:0:0:
358,301,926799,2,0,L|366:196,1,105,8|0,0:0|0:0,0:0:0:0:
219,112,927151,6,0,P|169:122|109:109,1,105,4|0,0:3|0:0,0:0:0:0:
220,9,927502,1,8,0:2:0:0:
286,168,927678,1,0,0:0:0:0:
134,291,927854,2,0,L|29:263,1,105,4|0,0:3|0:0,0:0:0:0:
206,185,928205,2,0,L|310:194,1,105,8|0,0:0|0:0,0:0:0:0:
436,332,928557,6,0,P|488:246|441:157,1,210,2|8,0:2|0:0,0:0:0:0:
76,52,929260,2,0,P|23:137|70:226,1,210,2|8,0:2|0:0,0:0:0:0:
322,174,929963,5,4,0:3:0:0:
220,39,930139,1,0,0:0:0:0:
200,249,930315,1,8,0:2:0:0:
315,74,930490,1,0,0:0:0:0:
119,32,930666,2,0,P|63:40|19:75,1,105,4|0,0:3|0:0,0:0:0:0:
109,237,931018,2,0,P|164:228|208:193,1,105,8|0,0:0|0:0,0:0:0:0:
331,38,931369,5,4,0:3:0:0:
367,196,931545,1,0,0:0:0:0:
238,103,931721,1,8,0:2:0:0:
466,129,931897,1,0,0:0:0:0:
414,301,932072,2,0,P|357:310|309:296,1,105,4|0,0:3|0:0,0:0:0:0:
210,156,932424,2,0,P|254:119|303:107,1,105,8|0,0:0|0:0,0:0:0:0:
497,240,932775,6,0,L|490:356,1,105,4|0,0:3|0:0,0:0:0:0:
282,375,933127,1,8,0:2:0:0:
353,214,933303,1,0,0:0:0:0:
142,233,933479,2,0,P|129:182|138:128,1,105,4|0,0:3|0:0,0:0:0:0:
360,88,933830,2,0,P|372:138|363:192,1,105,8|0,0:0|0:0,0:0:0:0:
155,300,934182,6,0,B|139:244|94:219|94:219|138:183|132:124,1,210,2|8,0:2|0:2,0:0:0:0:
379,124,934885,2,0,B|373:183|417:219|417:219|372:244|357:300,1,210,2|8,0:2|0:2,0:0:0:0:
256,10,935588,6,0,P|320:22|352:46,1,105,4|0,0:3|0:0,0:0:0:0:
184,146,935939,2,0,P|157:86|158:46,1,105,8|0,0:2|0:0,0:0:0:0:
320,218,936291,2,0,P|308:282|284:314,1,105,4|0,0:3|0:0,0:0:0:0:
184,146,936642,2,0,P|243:119|283:120,1,105,8|0,0:2|0:0,0:0:0:0:
199,341,936994,5,4,0:3:0:0:
84,172,937170,2,0,L|80:52,1,105,0|8,0:0|0:2,0:0:0:0:
301,17,937521,1,0,0:0:0:0:
215,230,937697,1,4,0:3:0:0:
182,99,937873,1,0,0:0:0:0:
182,99,937961,1,0,0:0:0:0:
182,99,938048,2,0,L|304:110,1,105,8|0,0:2|0:0,0:0:0:0:
441,196,938400,6,0,P|442:123|431:74,1,105,4|0,0:3|0:0,0:0:0:0:
262,211,938752,2,0,P|261:284|272:333,1,105,8|0,0:2|0:0,0:0:0:0:
373,259,939103,1,4,0:3:0:0:
197,114,939279,2,0,L|74:103,1,105,0|8,0:0|0:2,0:0:0:0:
47,270,939630,1,0,0:0:0:0:
240,188,939806,5,4,0:3:0:0:
373,259,939982,1,0,0:0:0:0:
373,259,940070,1,0,0:0:0:0:
373,259,940158,2,0,P|379:180|366:142,1,105,8|0,0:2|0:0,0:0:0:0:
186,62,940509,2,0,P|180:141|193:179,1,105,4|0,0:3|0:0,0:0:0:0:
341,256,940861,2,0,P|347:177|334:139,1,105,8|0,0:2|0:0,0:0:0:0:
150,42,941212,6,0,L|32:55,1,105,4|0,0:3|0:0,0:0:0:0:
210,154,941564,2,0,L|328:167,1,105,8|0,0:2|0:0,0:0:0:0:
138,246,941915,2,0,L|20:259,1,105,4|0,0:3|0:0,0:0:0:0:
198,358,942267,2,0,L|316:371,1,105,8|0,0:2|0:0,0:0:0:0:
475,232,942618,5,4,0:3:0:0:
340,71,942794,2,0,P|250:62|199:71,1,105,0|8,0:0|0:2,0:0:0:0:
89,149,943146,1,0,0:0:0:0:
317,199,943321,1,4,0:3:0:0:
180,301,943497,1,0,0:0:0:0:
180,301,943585,1,0,0:0:0:0:
180,301,943673,2,0,L|184:181,1,105,8|0,0:2|0:0,0:0:0:0:
315,32,944025,6,0,P|367:31|416:48,1,105,4|0,0:3|0:0,0:0:0:0:
469,240,944376,2,0,P|419:256|367:255,1,105,8|0,0:2|0:0,0:0:0:0:
174,140,944728,1,4,0:3:0:0:
196,354,944903,2,0,P|206:267|196:225,1,105,0|8,0:0|0:2,0:0:0:0:
112,98,945255,1,0,0:0:0:0:
96,296,945431,5,4,0:3:0:0:
273,122,945606,1,0,0:0:0:0:
91,198,945782,1,8,0:2:0:0:
287,283,945958,2,0,L|396:291,1,105,0|4,0:0|0:3,0:0:0:0:
421,112,946310,1,0,0:0:0:0:
410,292,946485,1,8,0:2:0:0:
381,126,946661,1,0,0:0:0:0:
207,194,946837,6,0,P|121:164|96:134,1,105,4|0,0:3|0:0,0:0:0:0:
257,34,947188,2,0,P|343:64|368:94,1,105,8|0,0:2|0:0,0:0:0:0:
384,280,947540,2,0,P|315:256|295:232,1,105,4|0,0:3|0:0,0:0:0:0:
424,152,947891,2,0,P|492:176|512:200,1,105,8|0,0:2|0:0,0:0:0:0:
284,327,948243,5,4,0:3:0:0:
304,132,948419,2,0,P|292:76|264:32,1,105,0|8,0:0|0:2,0:0:0:0:
121,158,948770,1,0,0:0:0:0:
256,312,948946,1,4,0:3:0:0:
110,365,949122,1,0,0:0:0:0:
110,365,949210,1,0,0:0:0:0:
110,365,949298,2,0,P|94:303|98:249,1,105,8|0,0:2|0:0,0:0:0:0:
201,88,949649,6,0,L|330:79,1,105,4|0,0:3|0:0,0:0:0:0:
366,291,950001,2,0,L|237:300,1,105,8|0,0:2|0:0,0:0:0:0:
72,140,950352,1,4,0:3:0:0:
284,160,950528,2,0,P|356:152|404:120,1,105,0|8,0:0|0:2,0:0:0:0:
172,48,950879,1,0,0:0:0:0:
200,304,951055,5,4,0:3:0:0:
84,168,951231,1,0,0:0:0:0:
84,168,951319,1,0,0:0:0:0:
84,168,951407,2,0,P|134:152|186:160,1,105,8|0,0:2|0:0,0:0:0:0:
208,360,951758,2,0,P|169:324|149:276,1,105,4|0,0:3|0:0,0:0:0:0:
301,165,952110,2,0,P|289:215|257:256,1,105,8|0,0:2|0:0,0:0:0:0:
103,117,952461,6,0,L|111:7,1,105,4|0,0:3|0:0,0:0:0:0:
293,60,952813,2,0,L|300:164,1,105,8|0,0:2|0:0,0:0:0:0:
129,140,953164,2,0,L|137:30,1,105,4|0,0:3|0:0,0:0:0:0:
319,83,953516,2,0,L|326:187,1,105,8|0,0:2|0:0,0:0:0:0:
140,332,953868,5,4,0:3:0:0:
311,298,954043,2,0,P|381:289|434:298,1,105,0|8,0:0|0:2,0:0:0:0:
236,374,954395,1,0,0:0:0:0:
144,141,954571,1,4,0:3:0:0:
298,204,954746,1,0,0:0:0:0:
298,204,954834,1,0,0:0:0:0:
298,204,954922,2,0,P|312:152|295:95,1,105,8|0,0:2|0:0,0:0:0:0:
72,163,955274,6,0,L|83:279,1,105,4|0,0:3|0:0,0:0:0:0:
214,353,955625,2,0,L|224:249,1,105,8|0,0:2|0:0,0:0:0:0:
156,88,955977,1,4,0:3:0:0:
369,143,956153,2,0,P|378:219|371:260,1,105,0|8,0:0|0:2,0:0:0:0:
271,55,956504,1,0,0:0:0:0:
469,135,956680,5,4,0:3:0:0:
271,229,956856,1,0,0:0:0:0:
131,87,957031,1,8,0:2:0:0:
48,216,957207,2,0,L|53:325,1,105,0|4,0:0|0:3,0:0:0:0:
190,359,957559,1,0,0:0:0:0:
284,219,957734,1,8,0:2:0:0:
167,248,957910,1,0,0:0:0:0:
382,311,958086,5,2,0:2:0:0:
97,105,969335,5,4,0:3:0:0:
199,179,969511,1,0,0:0:0:0:
351,94,969687,2,0,P|388:129|402:179,1,105,8|0,0:2|0:0,0:0:0:0:
260,345,970038,1,4,0:3:0:0:
128,247,970214,2,0,L|122:126,1,105,0|8,0:0|0:2,0:0:0:0:
29,308,970565,1,0,0:0:0:0:
226,167,970741,5,4,0:3:0:0:
23,199,970917,1,0,0:0:0:0:
225,305,971093,2,0,P|281:312|338:290,1,105,8|0,0:2|0:0,0:0:0:0:
334,90,971444,2,0,P|278:83|221:105,1,105,4|0,0:3|0:0,0:0:0:0:
391,234,971796,2,0,P|447:241|504:219,1,105,8|0,0:2|0:0,0:0:0:0:
353,32,972147,6,0,L|117:46,1,210,4|8,0:3|0:2,0:0:0:0:
75,124,972675,1,0,0:0:0:0:
189,331,972850,2,0,P|224:273|161:143,1,210,4|8,0:3|0:2,0:0:0:0:
70,162,973378,1,0,0:0:0:0:
143,353,973553,6,0,L|371:329,1,210,4|8,0:3|0:2,0:0:0:0:
364,82,974257,1,4,0:3:0:0:
148,82,974608,1,8,0:0:0:0:
415,331,974960,5,4,0:3:0:0:
356,168,975135,1,0,0:0:0:0:
264,348,975311,2,0,P|181:361|147:345,1,105,8|0,0:2|0:0,0:0:0:0:
55,163,975663,1,4,0:3:0:0:
202,67,975838,2,0,L|310:81,1,105,0|8,0:0|0:2,0:0:0:0:
221,254,976190,1,0,0:0:0:0:
93,58,976366,5,4,0:3:0:0:
55,253,976542,1,0,0:0:0:0:
196,136,976717,2,0,P|247:128|304:136,1,105,8|0,0:2|0:0,0:0:0:0:
360,313,977069,2,0,P|308:321|252:313,1,105,4|0,0:3|0:0,0:0:0:0:
195,110,977420,2,0,P|246:101|302:109,1,105,8|0,0:2|0:0,0:0:0:0:
158,360,977772,6,0,P|136:312|129:255,1,105,4|0,0:3|0:0,0:0:0:0:
382,260,978123,2,0,P|375:312|354:360,1,105,8|0,0:2|0:0,0:0:0:0:
354,24,978475,2,0,P|375:71|382:123,1,105,4|0,0:3|0:0,0:0:0:0:
129,123,978827,2,0,P|136:71|157:24,1,105,8|0,0:2|0:0,0:0:0:0:
319,300,979178,6,0,P|413:294|442:179,1,210,4|8,0:3|0:2,0:0:0:0:
193,300,979881,2,0,P|99:294|70:179,1,210,4|8,0:3|0:2,0:0:0:0:
308,21,980584,5,4,0:3:0:0:
399,104,980760,1,0,0:0:0:0:
241,166,980936,2,0,L|132:179,1,105,8|0,0:2|0:0,0:0:0:0:
33,52,981287,1,4,0:3:0:0:
123,208,981463,2,0,P|128:269|117:317,1,105,0|8,0:0|0:2,0:0:0:0:
23,138,981814,1,0,0:0:0:0:
199,62,981991,5,4,0:3:0:0:
235,281,982167,1,0,0:0:0:0:
87,131,982343,2,0,P|70:63|79:19,1,105,8|0,0:2|0:0,0:0:0:0:
221,142,982694,2,0,P|238:210|229:254,1,105,4|0,0:3|0:0,0:0:0:0:
62,127,983046,2,0,P|45:59|54:15,1,105,8|0,0:2|0:0,0:0:0:0:
311,11,983396,6,0,L|338:233,1,210,4|8,0:3|0:2,0:0:0:0:
317,322,983924,1,0,0:0:0:0:
104,339,984100,2,0,P|75:262|111:141,1,210,4|8,0:3|0:2,0:0:0:0:
197,86,984627,1,0,0:0:0:0:
436,164,984803,6,0,P|462:107|371:143,1,210,4|8,0:3|0:2,0:0:0:0:
273,336,985506,1,4,0:3:0:0:
239,48,985858,1,8,0:2:0:0:
67,332,986209,5,4,0:3:0:0:
20,216,986385,1,0,0:0:0:0:
123,85,986561,2,0,P|182:74|229:85,1,105,8|0,0:2|0:0,0:0:0:0:
340,228,986912,1,4,0:3:0:0:
199,269,987088,2,0,P|177:191|188:133,1,105,0|8,0:0|0:2,0:0:0:0:
360,25,987439,1,0,0:0:0:0:
439,259,987615,5,4,0:3:0:0:
317,138,987791,1,0,0:0:0:0:
221,273,987967,2,0,L|208:378,1,105,8|0,0:2|0:0,0:0:0:0:
175,169,988318,2,0,L|90:105,1,105,4|0,0:3|0:0,0:0:0:0:
283,182,988670,2,0,L|380:140,1,105,8|0,0:2|0:0,0:0:0:0:
158,24,989021,6,0,P|136:71|129:128,1,105,4|0,0:3|0:0,0:0:0:0:
382,123,989373,2,0,P|375:71|354:24,1,105,8|0,0:2|0:0,0:0:0:0:
354,359,989724,2,0,P|375:312|382:260,1,105,4|0,0:3|0:0,0:0:0:0:
129,260,990076,2,0,P|136:312|157:359,1,105,8|0,0:2|0:0,0:0:0:0:
154,75,990427,6,0,B|56:111|56:111|30:227,1,210,4|8,0:3|0:2,0:0:0:0:
478,214,991130,2,0,B|455:111|455:111|358:75,1,210,4|8,0:3|0:2,0:0:0:0:
256,348,991833,5,4,0:3:0:0:
255,348,994646,5,4,0:3:0:0:
203,247,996403,5,2,0:0:0:0:
178,160,996755,1,2,0:0:0:0:
224,64,997106,1,2,0:0:0:0:
378,43,997458,6,0,P|420:183|412:257,1,210,4|8,0:3|0:2,0:0:0:0:
134,43,998162,2,0,P|92:183|100:257,1,210,4|8,0:3|0:2,0:0:0:0:
324,176,998865,2,0,P|255:110|187:176,1,210,4|8,0:3|0:2,0:0:0:0:
348,336,999568,1,4,0:3:0:0:
256,37,999919,1,8,0:2:0:0:
45,332,1000270,6,0,B|278:281|224:401|457:334|457:334|444:281|464:231,1,525,2|0,0:0|0:0,0:0:0:0:
